<?xml version="1.0" standalone="no"?>
<!DOCTYPE svg PUBLIC "-//W3C//DTD SVG 1.1//EN" "http://www.w3.org/Graphics/SVG/1.1/DTD/svg11.dtd" >
<svg xmlns="http://www.w3.org/2000/svg" xmlns:xlink="http://www.w3.org/1999/xlink" version="1.1">
<metadata>
Created by FontForge 20201107 at Thu Aug 16 21:15:42 2007
 By Unknown
Copyright 1992, 1994, 1997, 2000, 2004 Adobe Systems Incorporated. All rights reserved. Protected by U.S. Patents D454,582. Myriad is either a registered trademark or a trademark of Adobe Systems Incorporated in the United States and/or other countries.
</metadata>
<defs>
<font id="MyriadPro-Black" horiz-adv-x="300" >
  <font-face 
    font-family="Myriad Pro"
    font-weight="900"
    font-stretch="normal"
    units-per-em="1000"
    panose-1="2 11 9 3 3 4 3 2 2 4"
    ascent="750"
    descent="-250"
    x-height="492"
    cap-height="674"
    bbox="-166 -251 1313 1004"
    underline-thickness="50"
    underline-position="-100"
    stemh="132"
    stemv="181"
    unicode-range="U+0020-FB04"
  />
<missing-glyph horiz-adv-x="500" 
d="M0 0v700h500v-700h-500zM250 395l170 255h-340zM280 350l170 -255v510zM80 50h340l-170 255zM50 605v-510l170 255z" />
    <glyph glyph-name="f_f" unicode="ff" horiz-adv-x="679" 
d="M574 0h-181v360h-136v-360h-180v360h-63v132h63v4c0 53 15 111 57 153c34 35 86 58 161 58c23 0 48 -5 63 -10l-22 -133c-11 3 -22 5 -33 5c-35 0 -47 -28 -47 -65v-12h137v16c0 55 19 121 64 162c41 38 97 51 143 51c34 0 60 -4 83 -9l-3 -138c-14 3 -28 5 -46 5
c-40 0 -62 -28 -62 -63v-24h90v-132h-88v-360z" />
    <glyph glyph-name="f_f_i" unicode="ffi" horiz-adv-x="936" 
d="M815 697l-35 -135c-25 9 -60 17 -101 17c-75 0 -103 -30 -103 -73v-14h305v-492h-181v360h-123v-360h-180v360h-140v-360h-180v360h-63v132h63v4c0 56 19 116 65 157c34 32 85 54 156 54c34 0 66 -8 85 -14l-38 -129c-9 3 -22 6 -36 6c-16 0 -28 -6 -36 -14
c-13 -11 -17 -33 -17 -52v-12h141v18c0 137 117 211 275 211c49 0 108 -9 143 -24z" />
    <glyph glyph-name="f_f_j" unicode="ffj" horiz-adv-x="920" 
d="M815 697l-35 -135c-25 9 -60 17 -101 17c-75 0 -103 -30 -103 -73v-14h305v-426c0 -112 -27 -179 -74 -220c-48 -42 -122 -62 -206 -62l-17 140c39 3 69 12 87 30c22 21 29 60 29 150v256h-123v-360h-180v360h-140v-360h-180v360h-63v132h63v4c0 56 19 116 65 157
c34 32 85 54 156 54c34 0 66 -8 85 -14l-38 -129c-9 3 -22 6 -36 6c-16 0 -28 -6 -36 -14c-13 -11 -17 -33 -17 -52v-12h141v18c0 137 117 211 275 211c49 0 108 -9 143 -24z" />
    <glyph glyph-name="f_f_l" unicode="ffl" horiz-adv-x="936" 
d="M386 696l-35 -132c-11 4 -24 6 -39 6c-18 0 -30 -5 -39 -14c-13 -13 -17 -32 -17 -52v-12h141v21c0 50 29 113 77 151c52 40 117 57 199 57c80 0 153 -16 208 -45v-676h-181v579c-10 6 -27 9 -51 9c-49 0 -73 -33 -73 -79v-17h78v-132h-76v-360h-181v360h-140v-360h-180
v360h-63v132h63v4c0 66 24 118 64 153c41 38 102 58 171 58c28 0 57 -6 74 -11z" />
    <glyph glyph-name="f_i" unicode="fi" horiz-adv-x="616" 
d="M257 0h-180v360h-63v132h63v18c0 137 117 211 275 211c54 0 121 -11 153 -29l-31 -136c-25 12 -65 23 -115 23c-75 0 -103 -30 -103 -73v-14h305v-492h-181v360h-123v-360z" />
    <glyph glyph-name="f_j" unicode="fj" horiz-adv-x="613" 
d="M257 0h-180v360h-63v132h63v18c0 137 117 211 275 211c54 0 121 -11 153 -29l-31 -136c-25 12 -65 23 -115 23c-75 0 -103 -30 -103 -73v-14h305v-426c0 -112 -27 -179 -74 -220c-48 -42 -122 -62 -206 -62l-17 140c39 3 69 12 87 30c22 21 29 60 29 150v256h-123v-360z
" />
    <glyph glyph-name="f_l" unicode="fl" horiz-adv-x="616" 
d="M257 0h-180v360h-63v132h63v21c0 50 29 113 77 151c52 40 117 57 199 57c80 0 153 -16 208 -45v-676h-181v579c-10 6 -27 9 -51 9c-49 0 -73 -33 -73 -79v-17h78v-132h-77v-360z" />
    <glyph glyph-name=".notdef" horiz-adv-x="500" 
d="M0 0v700h500v-700h-500zM250 395l170 255h-340zM280 350l170 -255v510zM80 50h340l-170 255zM50 605v-510l170 255z" />
    <glyph glyph-name="space" unicode=" " horiz-adv-x="198" 
 />
    <glyph glyph-name="exclam" unicode="!" horiz-adv-x="284" 
d="M209 233h-134l-26 441h185zM141 -11c-60 0 -102 44 -102 103c0 62 42 104 102 104c61 0 102 -42 103 -104c0 -59 -41 -103 -103 -103z" />
    <glyph glyph-name="quotedbl" unicode="&#x22;" horiz-adv-x="423" 
d="M29 692h155l-25 -285h-105zM239 692h156l-26 -285h-104z" />
    <glyph glyph-name="numbersign" unicode="#" horiz-adv-x="573" 
d="M239 278h85l15 98h-86zM195 0h-103l26 171h-81v107h100l15 98h-84v107h100l25 167h102l-26 -167h87l25 167h102l-25 -167h79v-107h-96l-15 -98h81v-107h-99l-25 -171h-103l26 171h-86z" />
    <glyph glyph-name="dollar" unicode="$" horiz-adv-x="573" 
d="M342 -88h-114v93c-70 4 -138 23 -177 43l33 138c45 -22 107 -44 176 -44c50 0 86 14 86 46c0 31 -29 50 -104 73c-109 35 -186 86 -186 187c0 91 63 163 176 186v92h114v-84c69 -3 116 -17 152 -32l-32 -133c-27 11 -75 34 -151 34c-59 0 -77 -21 -77 -43
c0 -25 34 -44 118 -74c126 -41 172 -98 172 -189c0 -93 -66 -169 -186 -191v-102z" />
    <glyph glyph-name="percent" unicode="%" horiz-adv-x="919" 
d="M219 661c120 0 185 -87 185 -193c0 -136 -92 -209 -191 -209c-106 0 -187 78 -187 197c0 111 71 205 193 205zM215 565c-41 0 -57 -46 -57 -105c0 -62 19 -105 59 -105c36 0 55 36 55 105c0 60 -15 105 -57 105zM320 -11h-93l370 670h92zM707 391c120 0 185 -87 185 -193
c0 -135 -92 -208 -191 -208c-106 0 -187 78 -187 197c0 110 71 204 193 204zM703 295c-41 0 -57 -46 -57 -105c0 -62 19 -104 59 -104c36 0 55 36 55 104c0 61 -15 105 -57 105z" />
    <glyph glyph-name="ampersand" unicode="&#x26;" horiz-adv-x="710" 
d="M702 0h-207c-13 13 -26 26 -37 41c-37 -27 -97 -52 -180 -52c-177 0 -247 101 -247 192c0 88 49 153 127 192v4c-27 27 -50 77 -50 125c0 87 71 184 217 184c113 0 197 -64 197 -164c0 -68 -40 -127 -127 -171l-1 -4c30 -33 62 -73 90 -100c26 40 46 101 54 151h160
c-18 -102 -54 -190 -118 -260c39 -46 80 -93 122 -138zM304 119c30 0 56 10 71 22c-42 40 -88 93 -135 145c-24 -19 -39 -42 -39 -75c0 -48 37 -92 103 -92zM319 575c-32 0 -50 -27 -50 -55c0 -29 12 -55 44 -87c41 31 57 54 57 85c0 27 -16 57 -51 57z" />
    <glyph glyph-name="quoteright" unicode="&#x2019;" horiz-adv-x="284" 
d="M97 683l165 9c-35 -104 -78 -197 -132 -285l-108 -9c34 97 60 190 75 285z" />
    <glyph glyph-name="parenleft" unicode="(" horiz-adv-x="328" 
d="M164 690h122c-49 -90 -90 -225 -90 -403c0 -175 41 -311 90 -402h-122c-49 76 -107 210 -107 402c1 194 58 328 107 403z" />
    <glyph glyph-name="parenright" unicode=")" horiz-adv-x="328" 
d="M163 -115h-122c49 90 90 228 90 403c0 176 -41 312 -90 402h122c49 -75 107 -208 107 -402c-1 -193 -58 -326 -107 -403z" />
    <glyph glyph-name="asterisk" unicode="*" horiz-adv-x="471" 
d="M292 686l99 -58l-113 -128l1 -2l163 37v-116l-165 31l-1 -2l115 -125l-100 -58l-57 160l-2 -1l-54 -159l-99 58l113 127l-1 1l-161 -32v116l159 -37l1 2l-111 128l101 58l53 -160h3z" />
    <glyph glyph-name="plus" unicode="+" horiz-adv-x="596" 
d="M242 532h113v-211h202v-108h-202v-213h-113v213h-202v108h202v211z" />
    <glyph glyph-name="comma" unicode="," horiz-adv-x="283" 
d="M114 -108l-119 -10c36 102 63 205 79 304l179 10c-37 -109 -83 -212 -139 -304z" />
    <glyph glyph-name="hyphen" unicode="-" horiz-adv-x="328" 
d="M30 318h268v-117h-268v117z" />
    <glyph glyph-name="period" unicode="." horiz-adv-x="283" 
d="M151 -11c-60 0 -102 43 -102 105s43 105 103 105c61 0 102 -42 103 -105c0 -62 -41 -105 -104 -105z" />
    <glyph glyph-name="slash" unicode="/" horiz-adv-x="326" 
d="M139 -39h-115l186 725h115z" />
    <glyph glyph-name="zero" unicode="0" horiz-adv-x="573" 
d="M287 661c190 0 255 -169 255 -335c0 -192 -81 -337 -256 -337c-186 0 -255 164 -255 335c0 176 73 337 256 337zM287 525c-46 0 -76 -60 -76 -200c-1 -141 29 -201 77 -201c46 0 74 61 74 201c0 137 -27 200 -75 200z" />
    <glyph glyph-name="one" unicode="1" horiz-adv-x="573" 
d="M236 0v491h-2l-128 -57l-29 134l186 82h147v-650h-174z" />
    <glyph glyph-name="two" unicode="2" horiz-adv-x="573" 
d="M522 0h-481v109l90 79c132 114 199 182 200 248c0 47 -31 81 -97 81c-54 0 -103 -27 -139 -53l-49 129c50 37 132 68 224 68c151 0 241 -82 241 -210c0 -104 -74 -188 -151 -251l-64 -50v-2h226v-148z" />
    <glyph glyph-name="three" unicode="3" horiz-adv-x="573" 
d="M36 35l34 135c28 -14 93 -39 155 -39c64 0 106 23 106 69c0 53 -55 78 -115 78h-67v128h64c45 0 102 14 102 59c0 33 -31 55 -87 55c-55 0 -113 -23 -139 -37l-34 129c41 25 124 49 214 49c144 0 229 -72 229 -165c0 -69 -39 -122 -119 -150v-2c77 -13 139 -71 139 -154
c0 -120 -110 -201 -278 -201c-89 0 -163 21 -204 46z" />
    <glyph glyph-name="four" unicode="4" horiz-adv-x="573" 
d="M479 0h-170v146h-282v117l226 387h226v-370h72v-134h-72v-146zM191 280h118v111c0 41 3 84 5 129h-4c-21 -43 -39 -85 -63 -130l-55 -108z" />
    <glyph glyph-name="five" unicode="5" horiz-adv-x="573" 
d="M494 650v-148h-254l-9 -70c14 1 25 1 37 1c67 0 137 -16 185 -52c48 -35 73 -88 73 -161c0 -119 -105 -231 -295 -231c-82 0 -151 17 -189 36l30 134c29 -13 91 -30 149 -30c55 0 120 20 120 81c0 59 -52 92 -181 92c-35 0 -59 -2 -87 -6l43 354h378z" />
    <glyph glyph-name="six" unicode="6" horiz-adv-x="573" 
d="M475 658v-137c-17 2 -34 1 -57 0c-133 -6 -187 -61 -205 -123h3c33 28 74 41 129 41c106 0 203 -74 203 -213c0 -133 -106 -237 -249 -237c-188 0 -270 138 -270 287c0 120 45 222 117 288c70 62 159 93 268 95c29 2 47 0 61 -1zM297 120c43 0 69 42 69 97
c0 46 -22 96 -80 96c-35 0 -63 -21 -74 -48c-4 -8 -5 -19 -5 -38c4 -53 30 -107 90 -107z" />
    <glyph glyph-name="seven" unicode="7" horiz-adv-x="573" 
d="M45 650h481v-112l-261 -538h-192l262 500v2h-290v148z" />
    <glyph glyph-name="eight" unicode="8" horiz-adv-x="573" 
d="M141 330l-1 2c-59 33 -90 85 -90 142c0 113 104 187 241 187c165 0 228 -92 228 -170c0 -56 -32 -110 -90 -140v-2c56 -21 115 -73 115 -159c0 -120 -100 -201 -262 -201c-179 0 -252 98 -252 182c0 78 43 129 111 159zM289 111c42 0 71 29 71 67c0 47 -37 79 -84 91
c-39 -10 -62 -40 -62 -80s30 -78 75 -78zM284 541c-43 0 -64 -29 -64 -63s35 -60 78 -74c26 6 52 35 52 67c0 35 -20 70 -66 70z" />
    <glyph glyph-name="nine" unicode="9" horiz-adv-x="573" 
d="M87 -8v138c20 -2 34 -2 64 -1c45 1 91 11 124 30c43 24 69 61 80 98l-2 1c-26 -24 -64 -37 -120 -37c-107 0 -207 71 -207 204c0 130 107 236 255 236c182 0 259 -137 259 -282c0 -133 -41 -231 -115 -297c-67 -60 -159 -90 -274 -92c-23 -1 -48 1 -64 2zM276 531
c-40 0 -72 -37 -71 -94c0 -46 23 -90 77 -90c35 0 56 15 66 31c5 10 7 21 7 41c1 51 -19 112 -79 112z" />
    <glyph glyph-name="colon" unicode=":" horiz-adv-x="283" 
d="M151 299c-60 0 -101 44 -101 104s42 104 102 104c61 0 101 -42 102 -104c0 -60 -40 -104 -103 -104zM151 -11c-60 0 -101 44 -101 104s42 104 102 104c61 0 101 -42 102 -104c0 -60 -40 -104 -103 -104z" />
    <glyph glyph-name="semicolon" unicode=";" horiz-adv-x="283" 
d="M113 -108l-117 -10c35 102 62 205 78 304l178 10c-37 -109 -83 -212 -139 -304zM155 299c-60 0 -101 44 -101 104s42 104 102 104c61 0 101 -42 102 -104c0 -60 -40 -104 -103 -104z" />
    <glyph glyph-name="less" unicode="&#x3c;" horiz-adv-x="596" 
d="M54 216v100l488 216v-122l-352 -143v-2l352 -143v-122z" />
    <glyph glyph-name="equal" unicode="=" horiz-adv-x="596" 
d="M556 319h-516v108h516v-108zM556 107h-516v108h516v-108z" />
    <glyph glyph-name="greater" unicode="&#x3e;" horiz-adv-x="596" 
d="M542 320v-108l-488 -212v122l362 143v2l-362 144v121z" />
    <glyph glyph-name="question" unicode="?" horiz-adv-x="463" 
d="M294 231h-158v26c-2 50 14 99 57 149c27 32 54 62 54 91c0 27 -19 46 -63 48c-33 0 -72 -11 -99 -29l-38 128c38 21 98 42 178 42c139 0 203 -74 203 -159c0 -81 -52 -130 -86 -167c-32 -35 -47 -71 -48 -114v-15zM211 -11c-60 0 -102 44 -102 103c0 62 43 104 102 104
c61 0 102 -42 103 -104c0 -59 -41 -103 -103 -103z" />
    <glyph glyph-name="at" unicode="@" horiz-adv-x="784" 
d="M440 248l12 86c-7 2 -15 3 -23 3c-56 0 -99 -57 -99 -125c0 -35 14 -55 41 -55c29 0 61 35 69 91zM537 -6l18 -64c-62 -26 -112 -34 -185 -34c-166 0 -316 119 -316 316c0 203 152 380 378 380c177 0 307 -121 307 -290c0 -144 -81 -238 -195 -238c-50 0 -82 24 -90 73
h-3c-29 -47 -72 -73 -123 -73c-67 0 -114 50 -114 133c0 121 87 230 233 230c45 0 100 -12 123 -26l-27 -187c-8 -50 -3 -74 23 -75c39 -2 91 47 91 162c0 124 -82 223 -236 223c-149 0 -282 -115 -282 -301c0 -168 106 -258 255 -258c48 0 103 10 143 29z" />
    <glyph glyph-name="A" unicode="A" horiz-adv-x="675" 
d="M413 156h-174l-38 -156h-187l195 674h241l201 -674h-195zM263 289h125l-31 121c-10 38 -23 94 -34 133h-2c-10 -39 -20 -95 -29 -133z" />
    <glyph glyph-name="B" unicode="B" horiz-adv-x="631" 
d="M62 3v662c41 7 130 14 213 14c96 0 154 -7 206 -33c53 -24 91 -73 91 -139c0 -56 -31 -111 -110 -141v-2c82 -23 132 -84 132 -164c0 -64 -31 -114 -76 -147c-50 -38 -134 -61 -278 -61c-82 0 -142 5 -178 11zM241 545v-130h36c77 0 114 27 114 70c0 39 -30 64 -91 64
c-30 0 -47 -1 -59 -4zM241 287v-161c13 -2 29 -2 52 -2c60 0 111 24 111 84c0 57 -52 79 -120 79h-43z" />
    <glyph glyph-name="C" unicode="C" horiz-adv-x="602" 
d="M541 158l25 -141c-25 -13 -89 -28 -169 -28c-252 0 -363 157 -363 337c0 238 174 359 375 359c77 0 140 -15 168 -30l-35 -142c-29 12 -71 24 -125 24c-103 0 -193 -61 -193 -199c0 -123 73 -199 197 -199c43 0 92 8 120 19z" />
    <glyph glyph-name="D" unicode="D" horiz-adv-x="710" 
d="M62 3v661c57 10 134 15 214 15c130 0 211 -21 278 -67c74 -51 122 -135 122 -259c0 -138 -52 -227 -118 -278c-74 -57 -185 -83 -317 -83c-86 0 -145 6 -179 11zM242 537v-403c9 -2 26 -2 38 -2c117 -1 204 63 204 215c0 132 -78 194 -187 194c-28 0 -46 -2 -55 -4z" />
    <glyph glyph-name="E" unicode="E" horiz-adv-x="552" 
d="M485 418v-146h-242v-124h271v-148h-452v674h438v-148h-257v-108h242z" />
    <glyph glyph-name="F" unicode="F" horiz-adv-x="545" 
d="M62 0v674h433v-148h-252v-124h237v-146h-237v-256h-181z" />
    <glyph glyph-name="G" unicode="G" horiz-adv-x="697" 
d="M646 400v-369c-51 -17 -145 -38 -233 -38c-132 0 -222 33 -283 91c-63 60 -96 147 -96 244c1 234 176 353 394 353c91 0 160 -16 195 -33l-36 -144c-38 16 -84 28 -160 28c-111 0 -203 -58 -203 -195c0 -126 81 -199 191 -199c25 0 48 2 57 6v116h-90v140h264z" />
    <glyph glyph-name="H" unicode="H" horiz-adv-x="705" 
d="M62 674h181v-249h219v249h181v-674h-181v267h-219v-267h-181v674z" />
    <glyph glyph-name="I" unicode="I" horiz-adv-x="305" 
d="M62 674h181v-674h-181v674z" />
    <glyph glyph-name="J" unicode="J" horiz-adv-x="429" 
d="M191 258v416h181v-416c0 -196 -94 -269 -256 -269c-37 0 -86 5 -119 16l19 145c22 -6 50 -11 79 -11c58 0 96 26 96 119z" />
    <glyph glyph-name="K" unicode="K" horiz-adv-x="646" 
d="M62 0v674h179v-286h2c14 25 29 50 43 74l130 212h222l-214 -287l222 -387h-209l-142 273l-54 -69v-204h-179z" />
    <glyph glyph-name="L" unicode="L" horiz-adv-x="528" 
d="M62 0v674h181v-523h259v-151h-440z" />
    <glyph glyph-name="M" unicode="M" horiz-adv-x="865" 
d="M641 0l-8 241c-3 77 -4 167 -4 272h-3c-21 -89 -49 -190 -71 -264l-67 -235h-141l-56 234c-18 73 -38 173 -54 265h-2c-4 -95 -7 -195 -10 -272l-11 -241h-166l42 674h243l44 -181c19 -75 39 -165 53 -247h3c19 82 41 177 61 248l51 180h237l34 -674h-175z" />
    <glyph glyph-name="N" unicode="N" horiz-adv-x="705" 
d="M227 0h-165v674h213l107 -207c37 -67 76 -157 106 -236h3c-10 89 -14 183 -14 284v159h165v-674h-190l-115 224c-37 71 -81 162 -113 243h-4c5 -91 7 -192 7 -302v-165z" />
    <glyph glyph-name="O" unicode="O" horiz-adv-x="730" 
d="M369 686c217 0 327 -161 327 -342c0 -217 -130 -355 -338 -355c-209 0 -324 157 -324 344c0 197 128 353 335 353zM365 543c-85 0 -140 -82 -140 -206c0 -127 55 -205 142 -205s138 85 138 207c0 116 -52 204 -140 204z" />
    <glyph glyph-name="P" unicode="P" horiz-adv-x="602" 
d="M62 0v664c49 8 120 15 222 15c97 0 167 -18 214 -54c46 -34 77 -93 77 -162c0 -68 -23 -127 -66 -166c-54 -48 -133 -70 -224 -70c-18 0 -33 2 -44 2v-229h-179zM241 539v-172c10 -1 22 -2 41 -2c70 0 114 36 114 94c0 50 -33 84 -102 84c-26 0 -44 -2 -53 -4z" />
    <glyph glyph-name="Q" unicode="Q" horiz-adv-x="730" 
d="M698 14l-51 -137c-98 29 -174 60 -270 101c-16 7 -33 10 -49 11c-149 11 -294 121 -294 343c0 197 126 354 337 354c215 0 325 -162 325 -340c0 -145 -67 -252 -145 -292v-4c45 -15 96 -25 147 -36zM365 132h2c87 0 138 84 138 207c0 118 -52 204 -140 204
c-85 0 -140 -86 -140 -205c-1 -122 53 -206 140 -206z" />
    <glyph glyph-name="R" unicode="R" horiz-adv-x="617" 
d="M62 0v665c51 8 128 14 218 14c103 0 177 -14 228 -52c43 -34 66 -82 66 -147c0 -84 -63 -143 -115 -163v-3c44 -20 69 -63 86 -121c20 -69 42 -167 55 -193h-184c-10 20 -28 72 -47 156c-18 80 -43 97 -99 97h-29v-253h-179zM241 541v-158h47c68 0 107 33 107 83
s-33 79 -93 79c-34 0 -52 -1 -61 -4z" />
    <glyph glyph-name="S" unicode="S" horiz-adv-x="561" 
d="M40 31l34 149c41 -21 107 -42 175 -42c62 0 92 21 92 55c0 33 -30 52 -106 78c-114 40 -190 103 -190 203c0 119 101 211 271 211c80 0 138 -15 182 -35l-38 -144c-29 13 -79 32 -146 32c-55 0 -85 -20 -85 -50c0 -34 36 -48 121 -79c121 -45 175 -110 175 -204
c0 -116 -90 -215 -287 -215c-81 0 -160 21 -198 41z" />
    <glyph glyph-name="T" unicode="T" horiz-adv-x="570" 
d="M193 0v522h-172v152h528v-152h-175v-522h-181z" />
    <glyph glyph-name="U" unicode="U" horiz-adv-x="697" 
d="M61 674h181v-383c0 -102 35 -159 106 -159c72 0 107 52 107 159v383h181v-372c0 -208 -104 -313 -293 -313c-184 0 -282 101 -282 317v368z" />
    <glyph glyph-name="V" unicode="V" horiz-adv-x="671" 
d="M440 0h-214l-214 674h198l72 -265c21 -76 39 -149 56 -236h2c16 82 35 160 55 233l73 268h192z" />
    <glyph glyph-name="W" unicode="W" horiz-adv-x="906" 
d="M370 0h-200l-155 674h194l39 -250c12 -78 24 -168 34 -237h2c11 76 25 157 40 239l43 248h193l42 -260c12 -77 21 -146 30 -223h2c10 76 22 156 34 235l40 248h183l-166 -674h-197l-45 264c-10 59 -19 122 -28 202h-2c-11 -80 -20 -143 -32 -203z" />
    <glyph glyph-name="X" unicode="X" horiz-adv-x="631" 
d="M619 0h-209l-49 110c-20 43 -35 78 -52 117h-2c-12 -39 -28 -74 -44 -116l-45 -111h-205l190 341l-183 333h207l46 -107c17 -40 30 -73 45 -112h2c15 44 26 74 40 111l41 108h206l-183 -329z" />
    <glyph glyph-name="Y" unicode="Y" horiz-adv-x="629" 
d="M400 0h-181v272l-212 402h207l57 -152c18 -47 31 -81 46 -125h2c13 41 26 79 43 125l55 152h204l-221 -395v-279z" />
    <glyph glyph-name="Z" unicode="Z" horiz-adv-x="588" 
d="M21 0v96l298 425v4h-270v149h504v-103l-289 -418v-4h294v-149h-537z" />
    <glyph glyph-name="bracketleft" unicode="[" horiz-adv-x="328" 
d="M276 -112h-213v798h213v-97h-86v-604h86v-97z" />
    <glyph glyph-name="backslash" unicode="\" horiz-adv-x="326" 
d="M302 -39h-115l-171 725h115z" />
    <glyph glyph-name="bracketright" unicode="]" horiz-adv-x="328" 
d="M52 686h213v-798h-213v97h86v604h-86v97z" />
    <glyph glyph-name="asciicircum" unicode="^" horiz-adv-x="596" 
d="M562 172h-126l-137 342h-3l-137 -342h-124l211 478h105z" />
    <glyph glyph-name="underscore" unicode="_" horiz-adv-x="500" 
d="M0 -75h500v-50h-500v50z" />
    <glyph glyph-name="quoteleft" unicode="&#x2018;" horiz-adv-x="284" 
d="M188 407l-165 -9c35 103 78 197 132 285l108 9c-34 -97 -60 -191 -75 -285z" />
    <glyph glyph-name="a" unicode="a" horiz-adv-x="548" 
d="M492 286v-166c0 -49 3 -95 8 -120h-162l-9 43h-4c-34 -39 -83 -54 -136 -54c-101 0 -163 73 -163 155c0 132 119 191 286 191v4c0 20 -15 42 -81 42c-52 0 -106 -18 -139 -36l-31 113c31 17 102 45 204 45c169 0 227 -94 227 -217zM318 185v40c-74 0 -115 -20 -115 -64
c0 -31 20 -47 51 -47c26 0 53 18 62 46c2 7 2 16 2 25z" />
    <glyph glyph-name="b" unicode="b" horiz-adv-x="610" 
d="M56 156v554h180v-268h2c28 37 77 61 140 61c116 0 202 -96 201 -247c0 -178 -112 -267 -226 -267c-52 0 -107 19 -140 74h-2l-7 -63h-152c2 32 4 95 4 156zM236 280v-66c0 -9 1 -18 2 -25c7 -32 35 -59 71 -59c53 0 87 40 87 118c0 67 -27 117 -87 117
c-35 0 -65 -26 -71 -61c-1 -8 -2 -16 -2 -24z" />
    <glyph glyph-name="c" unicode="c" horiz-adv-x="452" 
d="M414 143l19 -132c-29 -14 -80 -21 -135 -21c-164 0 -267 96 -267 252c0 141 97 261 289 261c35 0 78 -5 113 -17l-25 -132c-17 7 -41 12 -78 12c-67 0 -115 -46 -114 -117c0 -81 55 -119 119 -119c31 0 56 4 79 13z" />
    <glyph glyph-name="d" unicode="d" horiz-adv-x="610" 
d="M374 710h180v-555c0 -61 2 -122 4 -155h-160l-7 66h-2c-32 -55 -92 -77 -149 -77c-114 0 -209 99 -209 253c-1 166 104 261 220 261c54 0 99 -16 121 -48h2v255zM374 224v55c0 7 0 16 -1 23c-7 35 -34 63 -71 63c-61 0 -88 -54 -88 -118c0 -76 37 -115 87 -115
c36 0 64 26 70 59c3 10 3 21 3 33z" />
    <glyph glyph-name="e" unicode="e" horiz-adv-x="539" 
d="M506 183h-303c6 -39 62 -61 126 -61c46 0 90 5 134 19l23 -121c-59 -23 -123 -31 -184 -31c-173 0 -271 96 -271 252c0 114 74 262 255 262c159 0 227 -117 227 -252c0 -29 -4 -56 -7 -68zM201 305h146c0 28 -13 80 -70 80c-53 0 -73 -49 -76 -80z" />
    <glyph glyph-name="f" unicode="f" horiz-adv-x="363" 
d="M257 0h-180v360h-63v132h63v16c0 55 19 121 64 162c41 38 96 51 143 51c34 0 60 -4 83 -9l-4 -138c-13 3 -28 5 -46 5c-39 0 -61 -28 -61 -63v-24h90v-132h-89v-360z" />
    <glyph glyph-name="g" unicode="g" horiz-adv-x="596" 
d="M540 340v-268c0 -86 -17 -168 -77 -220c-56 -48 -131 -61 -207 -61c-68 0 -137 13 -183 37l34 136c30 -17 86 -36 142 -36c64 0 114 35 114 111v22h-2c-30 -37 -74 -55 -123 -55c-120 0 -207 96 -207 239c0 155 100 258 223 258c60 0 101 -23 127 -64h2l6 53h155
c-2 -31 -4 -73 -4 -152zM360 223v66c0 8 -1 16 -2 23c-8 36 -31 56 -64 56c-43 0 -80 -42 -80 -120c0 -64 30 -111 80 -111c33 0 57 22 63 49c3 10 3 26 3 37z" />
    <glyph glyph-name="h" unicode="h" horiz-adv-x="599" 
d="M55 0v710h181v-270h2c16 20 36 35 58 46s49 17 75 17c111 0 173 -79 173 -218v-285h-181v265c0 58 -19 93 -64 93c-34 0 -50 -20 -59 -39c-3 -8 -4 -21 -4 -29v-290h-181z" />
    <glyph glyph-name="i" unicode="i" horiz-adv-x="292" 
d="M236 0h-181v492h181v-492zM146 713c56 0 91 -36 92 -86c0 -47 -36 -85 -93 -85c-56 0 -91 38 -91 85c0 50 36 86 92 86z" />
    <glyph glyph-name="j" unicode="j" horiz-adv-x="312" 
d="M-20 -216l-17 140c39 3 69 12 87 30c22 21 29 60 29 150v388h181v-426c0 -112 -27 -179 -74 -220c-48 -42 -122 -62 -206 -62zM169 713c56 0 91 -36 92 -86c0 -47 -36 -85 -93 -85c-56 0 -91 38 -91 85c0 50 36 86 92 86z" />
    <glyph glyph-name="k" unicode="k" horiz-adv-x="575" 
d="M236 710v-418h2c11 22 21 42 32 60l81 140h215l-170 -198l195 -294h-222l-97 188l-36 -48v-140h-180v710h180z" />
    <glyph glyph-name="l" unicode="l" horiz-adv-x="292" 
d="M55 0v710h181v-710h-181z" />
    <glyph glyph-name="m" unicode="m" horiz-adv-x="871" 
d="M56 0v324c0 66 -2 122 -4 168h151l7 -62h4c18 25 61 73 146 73c63 0 112 -29 133 -79h2c19 26 42 45 68 59c25 13 54 20 87 20c106 0 167 -77 167 -214v-289h-175v262c0 61 -18 96 -58 96c-29 0 -47 -18 -55 -42c-4 -10 -5 -25 -5 -36v-280h-175v267c0 55 -17 91 -58 91
c-32 0 -48 -24 -55 -40c-4 -12 -5 -25 -5 -37v-281h-175z" />
    <glyph glyph-name="n" unicode="n" horiz-adv-x="599" 
d="M55 0v324c0 66 -2 122 -4 168h156l8 -63h3c18 26 66 74 148 74c115 0 178 -78 178 -213v-290h-181v268c0 57 -19 90 -63 90c-35 0 -51 -24 -59 -43c-4 -9 -5 -23 -5 -36v-279h-181z" />
    <glyph glyph-name="o" unicode="o" horiz-adv-x="589" 
d="M302 503c154 0 256 -104 256 -252c0 -179 -128 -262 -266 -262c-147 0 -261 93 -261 253c0 157 103 261 271 261zM297 376c-60 0 -80 -65 -80 -130c0 -74 24 -130 80 -130c49 0 75 51 75 130c0 68 -22 130 -75 130z" />
    <glyph glyph-name="p" unicode="p" horiz-adv-x="610" 
d="M56 -198v522c0 66 -2 122 -4 168h155l8 -63h2c37 49 92 74 160 74c102 0 202 -91 202 -251c0 -180 -117 -263 -224 -263c-56 0 -99 22 -117 47h-2v-234h-180zM236 276v-61c0 -11 1 -21 3 -30c7 -32 34 -59 70 -59c54 0 87 46 87 117c0 70 -28 119 -85 119
c-36 0 -67 -28 -73 -63c-2 -7 -2 -15 -2 -23z" />
    <glyph glyph-name="q" unicode="q" horiz-adv-x="610" 
d="M374 -198v254h-2c-32 -46 -79 -67 -140 -67c-103 0 -201 92 -201 251c0 172 109 263 215 263c58 0 101 -17 131 -62h2l4 51h174c-1 -51 -3 -103 -3 -153v-537h-180zM374 217v65c0 7 0 14 -2 20c-6 33 -33 61 -71 61c-60 0 -87 -51 -87 -117c0 -75 37 -116 86 -116
c37 0 65 27 71 58c3 9 3 20 3 29z" />
    <glyph glyph-name="r" unicode="r" horiz-adv-x="403" 
d="M55 0v326c0 78 -1 125 -4 166h154l7 -89h4c26 75 88 100 131 100c16 0 23 0 36 -3v-169c-13 3 -27 5 -46 5c-53 0 -89 -22 -99 -62c-1 -8 -2 -19 -2 -31v-243h-181z" />
    <glyph glyph-name="s" unicode="s" horiz-adv-x="451" 
d="M29 24l31 127c28 -17 92 -37 136 -37c39 0 54 8 54 27c0 18 -11 26 -64 42c-109 35 -146 94 -145 151c0 98 84 169 214 169c60 0 114 -14 146 -28l-29 -122c-23 11 -69 27 -109 27c-31 0 -49 -8 -49 -28c0 -16 16 -26 74 -45c97 -32 134 -82 135 -153
c0 -94 -73 -165 -225 -165c-69 0 -130 15 -169 35z" />
    <glyph glyph-name="t" unicode="t" horiz-adv-x="383" 
d="M77 584l176 48v-140h102v-132h-102v-141c0 -59 13 -83 57 -83c21 0 28 0 43 4v-137c-21 -8 -61 -14 -107 -14c-53 0 -97 19 -123 45c-30 30 -46 78 -46 153v173h-61v132h61v92z" />
    <glyph glyph-name="u" unicode="u" horiz-adv-x="598" 
d="M541 492v-324c0 -70 2 -126 4 -168h-156l-8 65h-3c-18 -27 -61 -76 -149 -76c-110 0 -175 71 -175 213v290h181v-261c0 -63 20 -97 63 -97c33 0 51 23 58 42c3 7 4 16 4 26v290h181z" />
    <glyph glyph-name="v" unicode="v" horiz-adv-x="551" 
d="M8 492h196l53 -209c10 -40 17 -78 23 -116h3c6 40 12 75 22 116l49 209h189l-179 -492h-181z" />
    <glyph glyph-name="w" unicode="w" horiz-adv-x="769" 
d="M8 492h184l28 -181c8 -49 17 -105 24 -163h2c9 58 23 115 33 162l39 182h141l38 -175c11 -55 24 -111 32 -169h2c6 58 15 115 25 171l29 173h176l-147 -492h-170l-34 146c-10 46 -17 87 -27 150h-2c-7 -63 -15 -106 -25 -148l-37 -148h-170z" />
    <glyph glyph-name="x" unicode="x" horiz-adv-x="544" 
d="M3 492h201l39 -73c12 -24 25 -48 36 -70h2c11 26 22 50 33 73l33 70h195l-159 -233l160 -259h-204l-40 79c-11 23 -22 46 -32 70h-2c-11 -25 -22 -48 -32 -70l-36 -79h-196l163 250z" />
    <glyph glyph-name="y" unicode="y" horiz-adv-x="545" 
d="M5 492h200l59 -221c7 -27 16 -63 22 -88h3c6 26 13 62 18 87l45 222h192l-105 -313c-74 -206 -122 -281 -175 -328c-57 -50 -118 -67 -164 -72l-37 152c18 3 40 9 62 19c23 9 46 29 58 45c5 7 9 15 9 22c0 6 -1 14 -7 26z" />
    <glyph glyph-name="z" unicode="z" horiz-adv-x="486" 
d="M24 0v103l126 153c31 35 54 60 84 91v2h-194v143h414v-108l-118 -143c-29 -34 -57 -67 -87 -96v-2h214v-143h-439z" />
    <glyph glyph-name="braceleft" unicode="{" horiz-adv-x="328" 
d="M31 243v88c68 4 74 38 74 66c0 23 -2 49 -5 76c-3 26 -5 53 -5 77c0 95 58 136 155 136h42v-98h-18c-39 0 -53 -25 -53 -64c0 -15 2 -31 4 -50s4 -41 4 -66c1 -80 -30 -108 -91 -120v-2c60 -12 92 -39 91 -119c0 -26 -2 -48 -4 -67s-4 -35 -4 -50c0 -39 12 -64 53 -65h18
v-97h-42c-93 0 -155 37 -155 136c0 24 2 50 6 77c2 27 4 53 4 76c0 27 -6 62 -74 66z" />
    <glyph glyph-name="bar" unicode="|" horiz-adv-x="302" 
d="M89 750h123v-1000h-123v1000z" />
    <glyph glyph-name="braceright" unicode="}" horiz-adv-x="328" 
d="M297 331v-88c-68 -4 -74 -39 -74 -66c0 -23 2 -49 4 -76c3 -27 5 -53 5 -77c0 -99 -62 -136 -155 -136h-42v97h18c41 1 53 26 53 65c0 15 -2 31 -3 50c-2 19 -4 41 -4 67c-1 80 30 107 91 119v2c-60 12 -92 40 -91 120c0 25 2 47 3 66c2 19 4 35 4 50c0 39 -14 64 -53 64
h-18v98h42c97 0 155 -41 155 -136c0 -24 -2 -51 -5 -77c-2 -27 -4 -53 -4 -76c0 -28 6 -62 74 -66z" />
    <glyph glyph-name="asciitilde" unicode="~" horiz-adv-x="596" 
d="M151 184h-111c0 149 62 203 149 203c51 0 87 -18 138 -48c42 -25 64 -39 84 -39c18 0 31 18 34 80h111c6 -156 -59 -205 -141 -205c-52 0 -91 20 -138 49c-43 27 -66 41 -84 41c-20 0 -37 -14 -42 -81z" />
    <glyph glyph-name="exclamdown" unicode="&#xa1;" horiz-adv-x="284" 
d="M235 -190h-185l26 442h134zM143 496c60 0 102 -43 102 -103c-1 -61 -41 -104 -102 -104s-103 43 -103 104c0 60 42 103 103 103z" />
    <glyph glyph-name="cent" unicode="&#xa2;" horiz-adv-x="573" 
d="M397 -10h-113v96c-62 11 -114 38 -150 80c-36 41 -55 99 -55 162c0 117 70 223 205 251v94h114v-88c26 -2 60 -7 89 -17l-25 -132c-23 10 -49 15 -83 15c-72 0 -115 -43 -115 -116c0 -81 55 -117 118 -117c36 0 66 5 92 15l20 -129c-26 -12 -60 -18 -97 -21v-93z" />
    <glyph glyph-name="sterling" unicode="&#xa3;" horiz-adv-x="573" 
d="M522 0h-473v94c47 18 111 70 111 136c0 9 0 18 -2 26h-95v121h73c-4 22 -6 46 -6 69c0 128 96 215 241 215c56 0 99 -12 121 -24l-26 -136c-21 11 -48 17 -83 17c-68 0 -86 -42 -86 -81c0 -18 3 -38 8 -60h135v-121h-120c0 -19 -4 -35 -11 -53c-8 -18 -21 -37 -40 -55v-2
h253v-146z" />
    <glyph glyph-name="fraction" unicode="&#x2044;" horiz-adv-x="127" 
d="M-72 -11h-94l365 672h94z" />
    <glyph glyph-name="yen" unicode="&#xa5;" horiz-adv-x="573" 
d="M367 0h-169v153h-156v81h156v60h-156v81h115l-161 275h194l55 -140c18 -42 30 -79 43 -116h1c15 34 27 75 44 117l55 139h190l-168 -275h115v-81h-158v-60h158v-81h-158v-153z" />
    <glyph glyph-name="florin" unicode="&#x192;" horiz-adv-x="573" 
d="M115 292v124h87l3 27c6 53 39 218 228 218c36 0 70 -7 89 -17l-28 -126c-11 5 -26 8 -45 8c-41 0 -62 -24 -68 -69l-6 -41h94v-124h-109l-21 -167c-15 -118 -56 -218 -208 -218c-45 1 -82 9 -97 17l24 124c13 -4 28 -6 43 -7c44 1 58 17 73 136l14 115h-73z" />
    <glyph glyph-name="section" unicode="&#xa7;" horiz-adv-x="579" 
d="M177 338c0 -30 28 -52 79 -70c45 -15 98 -30 120 -40c15 7 26 25 26 42c0 24 -18 45 -61 62c-42 17 -103 36 -132 48c-16 -6 -32 -21 -32 -42zM485 656l-25 -107c-31 14 -75 27 -138 27c-59 0 -83 -15 -83 -37c0 -21 28 -38 99 -59c116 -34 203 -74 203 -183
c0 -53 -32 -96 -77 -122c20 -15 47 -48 47 -95c0 -130 -142 -164 -235 -164c-60 0 -140 9 -200 45l31 107c32 -17 98 -42 160 -42c48 0 81 12 81 38c0 28 -30 42 -99 62c-107 32 -210 74 -210 180c0 46 30 100 87 124c-21 17 -41 56 -41 95c0 106 101 161 233 161
c59 0 114 -7 167 -30z" />
    <glyph glyph-name="currency" unicode="&#xa4;" horiz-adv-x="573" 
d="M288 557c46 0 86 -12 116 -33l79 87l76 -79l-91 -81c13 -25 31 -58 31 -115s-17 -94 -35 -119l89 -85l-75 -75l-75 91c-31 -25 -77 -38 -118 -38c-40 0 -87 13 -116 38l-75 -91l-74 75l87 83c-17 26 -35 62 -35 119c0 59 18 93 33 117l-91 81l76 79l80 -90
c31 24 71 36 118 36zM285 438c-43 0 -81 -38 -81 -103c0 -70 43 -106 82 -106c40 0 81 35 81 106c0 63 -38 103 -82 103z" />
    <glyph glyph-name="quotesingle" unicode="'" horiz-adv-x="213" 
d="M29 692h155l-25 -285h-105z" />
    <glyph glyph-name="quotedblleft" unicode="&#x201c;" horiz-adv-x="497" 
d="M187 407l-165 -9c35 103 78 197 132 285l108 9c-35 -97 -60 -191 -75 -285zM403 407l-165 -9c35 103 78 197 132 285l108 9c-34 -97 -60 -191 -75 -285z" />
    <glyph glyph-name="guillemotleft" unicode="&#xab;" horiz-adv-x="484" 
d="M255 446l-113 -193l113 -194h-121l-108 194l108 193h121zM462 446l-113 -193l113 -194h-121l-108 194l108 193h121z" />
    <glyph glyph-name="guilsinglleft" unicode="&#x2039;" horiz-adv-x="277" 
d="M255 446l-113 -193l113 -194h-121l-108 194l108 193h121z" />
    <glyph glyph-name="guilsinglright" unicode="&#x203a;" horiz-adv-x="277" 
d="M135 253l-113 193h119l110 -193l-110 -194h-119z" />
    <glyph glyph-name="fi" unicode="&#xfb01;" horiz-adv-x="616" 
d="M257 0h-180v360h-63v132h63v18c0 137 117 211 275 211c54 0 121 -11 153 -29l-31 -136c-25 12 -65 23 -115 23c-75 0 -103 -30 -103 -73v-14h305v-492h-181v360h-123v-360z" />
    <glyph glyph-name="fl" unicode="&#xfb02;" horiz-adv-x="616" 
d="M257 0h-180v360h-63v132h63v21c0 50 29 113 77 151c52 40 117 57 199 57c80 0 153 -16 208 -45v-676h-181v579c-10 6 -27 9 -51 9c-49 0 -73 -33 -73 -79v-17h78v-132h-77v-360z" />
    <glyph glyph-name="endash" unicode="&#x2013;" horiz-adv-x="500" 
d="M30 309h440v-109h-440v109z" />
    <glyph glyph-name="dagger" unicode="&#x2020;" horiz-adv-x="534" 
d="M186 674h162l-16 -197l171 14v-137l-171 14l16 -418h-162l16 418l-171 -14v137l171 -14z" />
    <glyph glyph-name="daggerdbl" unicode="&#x2021;" horiz-adv-x="534" 
d="M187 674h160l-12 -179l169 14v-137l-169 14v-138l169 14v-138l-169 14l12 -188h-160l12 188l-169 -14v138l169 -14v138l-169 -14v137l169 -14z" />
    <glyph glyph-name="periodcentered" unicode="&#xb7;" horiz-adv-x="283" 
d="M141 153c-60 0 -102 43 -102 105s43 105 103 105c61 0 102 -42 103 -105c0 -62 -41 -105 -104 -105z" />
    <glyph glyph-name="paragraph" unicode="&#xb6;" horiz-adv-x="556" 
d="M306 -46h-111v310h-6c-48 0 -156 57 -158 186c-2 106 53 229 304 229c63 0 121 -4 154 -12v-713h-111v616h-72v-616z" />
    <glyph glyph-name="bullet" unicode="&#x2022;" horiz-adv-x="362" 
d="M180 119c-77 0 -140 61 -140 142c-1 80 63 142 141 142s141 -61 141 -142c0 -80 -62 -142 -142 -142z" />
    <glyph glyph-name="quotesinglbase" unicode="&#x201a;" horiz-adv-x="284" 
d="M122 -89l-108 -9c34 97 60 190 75 285l165 9c-35 -104 -78 -197 -132 -285z" />
    <glyph glyph-name="quotedblbase" unicode="&#x201e;" horiz-adv-x="503" 
d="M121 -89l-108 -9c34 97 60 190 75 285l165 9c-35 -104 -78 -197 -132 -285zM337 -89l-108 -9c35 97 60 190 75 285l165 9c-35 -104 -78 -197 -132 -285z" />
    <glyph glyph-name="quotedblright" unicode="&#x201d;" horiz-adv-x="497" 
d="M95 683l165 9c-35 -104 -78 -197 -132 -285l-108 -9c34 97 60 190 75 285zM311 683l165 9c-35 -104 -78 -197 -132 -285l-108 -9c35 97 60 190 75 285z" />
    <glyph glyph-name="guillemotright" unicode="&#xbb;" horiz-adv-x="484" 
d="M136 253l-113 193h119l110 -193l-110 -194h-119zM340 253l-113 193h119l110 -193l-110 -194h-119z" />
    <glyph glyph-name="ellipsis" unicode="&#x2026;" horiz-adv-x="1000" 
d="M165 -11c-60 0 -102 43 -102 105s43 105 103 105c61 0 102 -42 103 -105c0 -62 -41 -105 -104 -105zM499 -11c-60 0 -102 43 -102 105s43 105 103 105c61 0 102 -42 103 -105c0 -62 -41 -105 -104 -105zM833 -11c-60 0 -102 43 -102 105s43 105 103 105
c61 0 102 -42 103 -105c0 -62 -41 -105 -104 -105z" />
    <glyph glyph-name="perthousand" unicode="&#x2030;" horiz-adv-x="1340" 
d="M219 661c120 0 185 -87 185 -193c0 -136 -92 -209 -191 -209c-106 0 -187 78 -187 197c0 111 71 205 193 205zM215 565c-41 0 -57 -46 -57 -105c0 -62 19 -105 59 -105c36 0 55 36 55 105c0 60 -15 105 -57 105zM320 -11h-93l370 670h92zM707 391c120 0 185 -87 185 -193
c0 -135 -92 -208 -191 -208c-106 0 -187 78 -187 197c0 110 71 204 193 204zM703 295c-41 0 -57 -46 -57 -105c0 -62 19 -104 59 -104c36 0 55 36 55 104c0 61 -15 105 -57 105zM1128 391c120 0 185 -87 185 -193c0 -135 -92 -208 -191 -208c-107 0 -188 78 -188 197
c0 110 71 204 194 204zM1124 295c-42 0 -58 -46 -58 -105c0 -62 20 -104 60 -104c36 0 55 36 55 104c0 61 -16 105 -57 105z" />
    <glyph glyph-name="questiondown" unicode="&#xbf;" horiz-adv-x="463" 
d="M252 496h2c60 0 101 -43 101 -103c0 -61 -40 -104 -102 -104c-61 0 -102 43 -103 104c0 60 42 103 102 103zM171 255h156v-25c2 -50 -14 -99 -57 -150c-27 -32 -53 -62 -53 -91c0 -27 19 -46 63 -48c32 0 72 11 99 29l37 -128c-37 -21 -98 -42 -177 -42
c-139 0 -203 74 -203 159c0 81 52 130 86 167c33 36 48 72 48 115z" />
    <glyph glyph-name="grave" unicode="`" 
d="M-4 706h160l85 -156h-123z" />
    <glyph glyph-name="acute" unicode="&#xb4;" 
d="M149 706h160l-123 -156h-122z" />
    <glyph glyph-name="circumflex" unicode="&#x2c6;" 
d="M91 706h120l101 -156h-113l-47 84h-2l-47 -84h-114z" />
    <glyph glyph-name="tilde" unicode="&#x2dc;" 
d="M82 554h-82c-4 93 33 143 88 143c26 0 48 -10 66 -20c17 -10 31 -20 43 -20c16 0 22 9 25 45h80c4 -102 -33 -140 -88 -140c-30 0 -51 11 -72 22c-17 9 -24 15 -36 15c-14 0 -23 -14 -24 -45z" />
    <glyph glyph-name="macron" unicode="&#xaf;" 
d="M20 675h261v-96h-261v96z" />
    <glyph glyph-name="breve" unicode="&#x2d8;" 
d="M5 696h91c5 -34 20 -57 53 -57c39 0 55 26 56 57h90c-1 -88 -49 -150 -145 -150s-144 62 -145 150z" />
    <glyph glyph-name="dotaccent" unicode="&#x2d9;" 
d="M114 551c-45 0 -80 35 -80 79c0 46 35 79 81 79c43 0 76 -33 76 -79c0 -44 -33 -79 -77 -79z" />
    <glyph glyph-name="dieresis" unicode="&#xa8;" 
d="M40 551c-45 0 -80 35 -80 79c0 46 35 79 81 79c43 0 76 -33 76 -79c0 -44 -33 -79 -77 -79zM262 551h-2c-44 0 -78 35 -78 79c0 46 34 79 80 79c44 0 77 -33 77 -79c0 -44 -33 -79 -77 -79z" />
    <glyph glyph-name="ring" unicode="&#x2da;" 
d="M142 540c-77 0 -122 43 -122 99c0 57 42 102 123 102c79 0 119 -43 119 -101c0 -57 -45 -100 -120 -100zM141 595c29 0 44 21 44 45c0 23 -14 46 -45 46c-28 0 -42 -24 -42 -47c0 -21 15 -44 43 -44z" />
    <glyph glyph-name="cedilla" unicode="&#xb8;" 
d="M115 5h93l-24 -46c38 -5 73 -32 73 -74c0 -68 -61 -90 -128 -90c-36 0 -66 8 -86 21l22 62c18 -10 40 -17 55 -17c16 0 32 6 32 23c0 16 -19 30 -78 34z" />
    <glyph glyph-name="hungarumlaut" unicode="&#x2dd;" 
d="M35 705h134l-92 -155h-99zM221 705h134l-92 -155h-99z" />
    <glyph glyph-name="ogonek" unicode="&#x2db;" 
d="M64 1h92c-7 -16 -13 -37 -13 -62c0 -29 20 -54 54 -54c19 0 36 5 45 8l24 -83c-30 -23 -76 -35 -111 -35c-75 0 -121 38 -121 115c0 46 22 95 30 111z" />
    <glyph glyph-name="caron" unicode="&#x2c7;" 
d="M209 550h-120l-101 156h113l47 -84h2l47 84h114z" />
    <glyph glyph-name="emdash" unicode="&#x2014;" horiz-adv-x="1000" 
d="M30 309h940v-109h-940v109z" />
    <glyph glyph-name="AE" unicode="&#xc6;" horiz-adv-x="902" 
d="M190 0h-186l278 674h553v-148h-272l14 -112h256v-146h-233l17 -120h259v-148h-414l-22 161h-192zM301 305h119l-19 150c-4 29 -8 60 -12 92h-3c-10 -33 -22 -69 -31 -95z" />
    <glyph glyph-name="ordfeminine" unicode="&#xaa;" horiz-adv-x="392" 
d="M357 266h-109l-7 30h-2c-26 -23 -58 -36 -99 -35c-65 0 -108 43 -108 99c0 79 81 116 197 117v5c0 7 -7 29 -56 29c-38 0 -73 -13 -95 -26l-22 74c24 13 73 32 140 32c113 0 156 -64 156 -140v-107c0 -31 2 -61 5 -78zM233 385v26c-49 0 -82 -15 -82 -40
c0 -18 16 -33 38 -33c16 0 36 11 42 27c2 6 2 14 2 20z" />
    <glyph glyph-name="Lslash" unicode="&#x141;" horiz-adv-x="535" 
d="M510 0h-440v220l-72 -47v122l72 48v331h181v-212l122 80v-123l-122 -80v-188h259v-151z" />
    <glyph glyph-name="Oslash" unicode="&#xd8;" horiz-adv-x="730" 
d="M172 -76l-97 75l55 84c-63 64 -96 155 -96 255c0 191 128 348 332 348c52 0 99 -10 140 -28l54 80l101 -67l-54 -84c60 -64 89 -154 89 -246c0 -214 -134 -352 -331 -352c-48 0 -93 9 -133 25zM232 238l191 293c-16 10 -36 15 -58 15c-90 0 -150 -79 -150 -208
c0 -34 4 -64 16 -100h1zM502 428l-187 -286c13 -9 32 -13 50 -13c92 0 150 79 150 210c0 29 -4 57 -11 88z" />
    <glyph glyph-name="OE" unicode="&#x152;" horiz-adv-x="954" 
d="M916 147v-147h-397c-17 0 -37 -3 -59 -5c-23 -3 -49 -6 -83 -6c-240 0 -343 164 -343 342c0 214 137 355 345 355c37 0 67 -3 92 -6s45 -6 62 -6h369v-148h-257v-108h242v-146h-242v-125h271zM464 143v387c-16 8 -41 13 -67 13c-85 0 -172 -65 -172 -206
c-1 -119 65 -205 183 -205c19 0 41 4 56 11z" />
    <glyph glyph-name="ordmasculine" unicode="&#xba;" horiz-adv-x="399" 
d="M202 591c104 0 170 -69 170 -161c0 -113 -83 -169 -175 -169c-95 0 -171 63 -171 162s69 168 176 168zM198 506c-36 0 -47 -47 -47 -82c0 -41 15 -78 49 -78c32 0 47 34 47 81c0 39 -18 79 -49 79z" />
    <glyph glyph-name="ae" unicode="&#xe6;" horiz-adv-x="816" 
d="M785 190h-303c5 -39 51 -69 122 -69c58 0 96 9 139 26l23 -120c-61 -31 -130 -38 -189 -38c-80 0 -151 27 -187 79h-4c-41 -46 -97 -79 -183 -79c-109 0 -176 71 -176 160c0 123 121 182 287 182v12c0 9 -16 37 -85 37c-52 0 -102 -20 -133 -37l-33 113
c33 16 98 47 181 47c75 0 131 -24 164 -69h2c41 44 97 69 166 69c144 0 213 -117 213 -252c0 -22 -4 -48 -4 -61zM319 180v43c-77 0 -116 -23 -116 -62c0 -32 24 -47 53 -47c27 0 48 18 59 38c4 7 4 17 4 28zM481 310h143c0 24 -8 77 -69 77c-54 0 -74 -50 -74 -77z" />
    <glyph glyph-name="dotlessi" unicode="&#x131;" horiz-adv-x="292" 
d="M236 0h-181v492h181v-492z" />
    <glyph glyph-name="lslash" unicode="&#x142;" horiz-adv-x="307" 
d="M244 0h-181v204l-63 -49v126l63 49v380h181v-248l71 55v-126l-71 -55v-336z" />
    <glyph glyph-name="oslash" unicode="&#xf8;" horiz-adv-x="589" 
d="M295 503c43 0 82 -7 116 -23l49 73l59 -42l-47 -69c55 -44 86 -111 86 -195c0 -173 -129 -258 -262 -258c-41 0 -80 7 -113 22l-51 -75l-57 45l46 67c-57 43 -90 109 -90 197c0 152 103 258 264 258zM216 186l118 177c-11 8 -24 13 -40 13c-67 0 -90 -70 -90 -130
c0 -20 2 -42 10 -59zM375 301l-117 -172c9 -9 23 -13 38 -13c57 0 89 50 89 126c0 19 -2 41 -7 58z" />
    <glyph glyph-name="oe" unicode="&#x153;" horiz-adv-x="871" 
d="M840 186h-301c5 -38 59 -65 121 -65c58 0 96 10 139 26l23 -120c-60 -33 -142 -38 -187 -38c-66 0 -129 17 -176 74h-3c-43 -51 -109 -74 -180 -74c-134 0 -245 94 -245 256c0 154 105 258 256 258c65 0 132 -24 167 -75h2c41 50 101 75 168 75c155 0 221 -117 221 -252
c0 -26 -4 -55 -5 -65zM297 376c-63 0 -80 -69 -80 -131c0 -72 24 -129 78 -129c52 0 77 51 77 130c0 70 -23 130 -75 130zM536 306h143c0 27 -6 79 -71 79c-51 0 -72 -49 -72 -79z" />
    <glyph glyph-name="germandbls" unicode="&#xdf;" horiz-adv-x="622" 
d="M236 0h-181v422c0 113 29 183 79 230c47 44 112 69 196 69c133 0 231 -78 231 -193c0 -28 -8 -62 -24 -81c-38 -20 -52 -44 -52 -65c0 -18 7 -35 28 -57c31 -34 78 -81 78 -158c0 -105 -76 -178 -211 -178c-36 0 -81 4 -108 14l20 132c15 -7 38 -11 64 -11
c33 0 53 15 53 37c0 17 -8 31 -29 53c-28 31 -77 77 -77 145c0 50 27 98 78 125c5 10 7 20 7 32c0 35 -25 68 -67 68c-46 0 -85 -34 -85 -145v-439z" />
    <glyph glyph-name="onesuperior" unicode="&#xb9;" horiz-adv-x="324" 
d="M260 443h-138v280h-1l-83 -35l-17 96l120 49h119v-390z" />
    <glyph glyph-name="logicalnot" unicode="&#xac;" horiz-adv-x="596" 
d="M40 433h516v-333h-112v225h-404v108z" />
    <glyph glyph-name="mu" unicode="&#xb5;" horiz-adv-x="598" 
d="M386 64h-4c-14 -35 -53 -70 -112 -70c-19 0 -39 7 -53 19v-35c0 -52 3 -139 10 -176h-159c-9 22 -13 107 -13 176v514h181v-268c0 -62 21 -92 58 -92c31 0 56 24 63 42c3 8 4 18 4 28v290h181v-322c0 -37 14 -46 39 -47l-9 -122c-13 -8 -38 -12 -65 -12
c-65 0 -103 29 -121 75z" />
    <glyph glyph-name="trademark" unicode="&#x2122;" horiz-adv-x="663" 
d="M25 674h244v-76h-75v-197h-96v197h-73v76zM653 401h-91l-3 102c-1 34 1 72 0 119h-6c-8 -43 -16 -85 -23 -117l-19 -99h-89l-14 99c-4 29 -10 76 -17 117h-5c-1 -42 -1 -85 -3 -119l-4 -102h-89l15 273h148l6 -38c4 -21 8 -44 16 -96h1c7 37 12 65 19 96l9 38h137z" />
    <glyph glyph-name="Eth" unicode="&#xd0;" horiz-adv-x="719" 
d="M4 274v141h67v252c57 10 134 15 214 15c130 0 211 -18 278 -65c74 -51 122 -139 122 -262c0 -139 -52 -230 -118 -281c-74 -59 -185 -84 -317 -84c-86 0 -145 6 -179 10v274h-67zM365 415v-141h-114v-142c9 -2 26 -2 38 -2c120 0 204 62 204 219c0 139 -78 195 -187 195
c-29 0 -46 -2 -55 -4v-125h114z" />
    <glyph glyph-name="onehalf" unicode="&#xbd;" horiz-adv-x="863" 
d="M260 266h-138v280h-1l-83 -35l-17 96l120 49h119v-390zM257 -11h-94l363 672h94zM504 0v65l61 54c73 63 112 91 112 131c0 24 -20 39 -51 39c-32 0 -64 -11 -87 -26l-35 89c36 24 91 43 156 43c102 0 161 -50 161 -124c0 -70 -54 -112 -107 -153l-21 -16v-2h135v-100
h-324z" />
    <glyph glyph-name="plusminus" unicode="&#xb1;" horiz-adv-x="596" 
d="M242 583h113v-164h202v-108h-202v-166h-113v166h-202v108h202v164zM40 108h517v-108h-517v108z" />
    <glyph glyph-name="Thorn" unicode="&#xde;" horiz-adv-x="601" 
d="M62 0v674h178v-117c15 1 32 3 77 3c79 0 141 -15 188 -53c44 -36 69 -91 69 -153c0 -176 -126 -237 -269 -237c-33 0 -54 3 -65 5v-122h-178zM240 420v-159c12 -3 32 -5 57 -5c70 0 99 37 99 85c0 51 -34 83 -99 83c-30 0 -47 -2 -57 -4z" />
    <glyph glyph-name="onequarter" unicode="&#xbc;" horiz-adv-x="863" 
d="M271 266h-138v280h-1l-83 -35l-17 96l120 49h119v-390zM283 -11h-95l364 672h94zM777 0h-126v85h-194v73l161 236h159v-224h50v-85h-50v-85zM651 170v55c0 26 3 52 5 79h-3c-13 -26 -24 -50 -37 -70l-39 -63l3 -1h71z" />
    <glyph glyph-name="divide" unicode="&#xf7;" horiz-adv-x="596" 
d="M297 361c-47 0 -80 33 -80 82c0 50 33 82 82 82c48 0 80 -32 81 -82c0 -49 -32 -82 -83 -82zM556 213h-516v108h516v-108zM297 9c-47 0 -80 33 -80 82c0 50 33 82 82 82c48 0 80 -32 81 -82c0 -49 -32 -82 -83 -82z" />
    <glyph glyph-name="brokenbar" unicode="&#xa6;" horiz-adv-x="302" 
d="M89 174h123v-350h-123v350zM89 674h123v-350h-123v350z" />
    <glyph glyph-name="degree" unicode="&#xb0;" horiz-adv-x="373" 
d="M188 686c92 0 159 -70 159 -153c0 -89 -74 -154 -161 -154c-92 0 -160 67 -160 152c-1 86 71 155 162 155zM186 607c-39 0 -68 -34 -68 -76c0 -41 29 -73 69 -73c39 0 68 32 68 74c0 40 -26 75 -69 75z" />
    <glyph glyph-name="thorn" unicode="&#xfe;" horiz-adv-x="610" 
d="M56 680h180v-241h2c28 38 74 64 138 64c101 3 203 -87 203 -254c0 -182 -123 -260 -220 -260c-58 0 -99 22 -121 49h-2v-236h-180v878zM236 285v-82c0 -14 6 -36 16 -48c14 -16 34 -29 57 -29c53 0 87 46 87 120c0 67 -30 116 -81 116c-31 0 -55 -14 -68 -39
c-6 -9 -11 -26 -11 -38z" />
    <glyph glyph-name="threequarters" unicode="&#xbe;" horiz-adv-x="863" 
d="M64 545l-24 84c31 18 89 32 151 32c101 0 154 -43 154 -100c0 -45 -37 -75 -85 -89v-2c55 -5 99 -39 99 -90c0 -73 -77 -119 -191 -119c-56 0 -111 11 -143 29l25 89c22 -12 65 -26 100 -26c33 0 64 11 64 36c0 26 -37 41 -78 41h-31v78h29c32 0 71 7 71 32
c0 18 -15 29 -48 29c-35 0 -72 -13 -93 -24zM313 -11h-94l362 672h95zM786 0h-126v85h-194v73l161 236h159v-224h50v-85h-50v-85zM660 170v55c0 26 3 52 5 79h-3c-13 -26 -24 -50 -37 -70l-39 -63l3 -1h71z" />
    <glyph glyph-name="twosuperior" unicode="&#xb2;" horiz-adv-x="369" 
d="M17 443v65l61 53c73 64 112 92 112 132c0 24 -20 39 -51 39c-32 0 -64 -11 -87 -26l-35 89c36 24 91 43 156 43c102 0 161 -50 161 -124c0 -70 -54 -112 -107 -153l-21 -16v-2h135v-100h-324z" />
    <glyph glyph-name="registered" unicode="&#xae;" horiz-adv-x="476" 
d="M219 484v-54h-55v156c10 2 39 6 74 6c38 0 55 -5 67 -13c10 -6 17 -18 17 -34c0 -14 -15 -29 -38 -35v-2c19 -6 29 -18 34 -41c5 -22 9 -32 11 -37h-61c-5 6 -8 20 -11 32c-3 15 -10 22 -24 22h-14zM221 554v-34h12c17 0 26 8 26 17c0 12 -10 18 -24 18
c-5 0 -10 -1 -14 -1zM240 686c100 0 180 -79 180 -176s-80 -176 -181 -176s-183 79 -183 176s82 176 184 176zM237 639c-70 0 -123 -58 -123 -130c0 -71 53 -128 124 -128c72 -1 125 57 125 129c0 71 -53 129 -126 129z" />
    <glyph glyph-name="minus" unicode="&#x2212;" horiz-adv-x="596" 
d="M40 321h516v-108h-516v108z" />
    <glyph glyph-name="eth" unicode="&#xf0;" horiz-adv-x="589" 
d="M297 116c51 0 75 50 75 125c0 47 -6 77 -19 94c-14 17 -32 26 -56 26c-62 0 -80 -71 -80 -123c0 -65 23 -122 80 -122zM104 465l-31 68l100 43c-29 18 -58 30 -89 43l78 98c55 -18 112 -46 164 -79l143 59l34 -65l-105 -43c50 -40 90 -90 119 -148
c28 -54 41 -115 41 -182c0 -185 -129 -270 -263 -270c-149 0 -264 95 -264 249c0 137 105 226 236 230c18 1 35 -1 53 -9l2 2c-22 25 -47 49 -74 65z" />
    <glyph glyph-name="multiply" unicode="&#xd7;" horiz-adv-x="596" 
d="M40 450l75 76l183 -187l183 187l75 -76l-183 -187l183 -186l-75 -77l-183 187l-183 -187l-75 77l183 186z" />
    <glyph glyph-name="threesuperior" unicode="&#xb3;" horiz-adv-x="366" 
d="M48 721l-24 84c31 18 89 32 151 32c101 0 154 -43 154 -100c0 -45 -37 -75 -85 -88v-2c55 -5 99 -39 100 -90c0 -73 -77 -119 -191 -119c-56 0 -112 11 -143 28l25 90c22 -12 65 -26 100 -26c33 0 64 11 64 36c0 26 -37 41 -79 40h-31v78h29c32 0 71 7 71 32
c0 18 -15 29 -48 29c-35 0 -72 -13 -93 -24z" />
    <glyph glyph-name="copyright" unicode="&#xa9;" horiz-adv-x="677" 
d="M341 648c170 0 306 -138 306 -308c0 -172 -136 -310 -307 -310c-172 0 -310 138 -310 310c0 170 138 308 311 308zM338 584c-130 0 -235 -110 -235 -245c0 -136 105 -245 236 -245c129 -1 235 109 235 245c0 135 -106 245 -236 245zM474 492l-16 -60c-12 7 -52 22 -94 22
c-71 0 -118 -40 -118 -117c0 -70 49 -118 116 -118c41 0 77 10 99 24l16 -58c-35 -23 -80 -32 -123 -32c-119 0 -186 79 -186 181c0 115 93 186 196 186c47 0 98 -14 110 -28z" />
    <glyph glyph-name="Aacute" unicode="&#xc1;" horiz-adv-x="675" 
d="M413 156h-174l-38 -156h-187l195 674h241l201 -674h-195zM263 289h125l-31 121c-10 38 -23 94 -34 133h-2c-10 -39 -20 -95 -29 -133zM333 836h183l-120 -126h-144z" />
    <glyph glyph-name="Acircumflex" unicode="&#xc2;" horiz-adv-x="675" 
d="M413 156h-174l-38 -156h-187l195 674h241l201 -674h-195zM263 289h125l-31 121c-10 38 -23 94 -34 133h-2c-10 -39 -20 -95 -29 -133zM269 836h135l99 -126h-121l-45 59h-2l-44 -59h-121z" />
    <glyph glyph-name="Adieresis" unicode="&#xc4;" horiz-adv-x="675" 
d="M413 156h-174l-38 -156h-187l195 674h241l201 -674h-195zM263 289h125l-31 121c-10 38 -23 94 -34 133h-2c-10 -39 -20 -95 -29 -133zM232 709c-43 0 -77 35 -77 77c0 43 34 76 78 76c41 0 74 -33 74 -76c0 -42 -33 -77 -75 -77zM449 709c-43 0 -76 35 -76 77
c0 43 33 76 77 76c42 0 75 -33 75 -76c0 -42 -33 -77 -76 -77z" />
    <glyph glyph-name="Agrave" unicode="&#xc0;" horiz-adv-x="675" 
d="M413 156h-174l-38 -156h-187l195 674h241l201 -674h-195zM263 289h125l-31 121c-10 38 -23 94 -34 133h-2c-10 -39 -20 -95 -29 -133zM149 836h183l81 -124h-144z" />
    <glyph glyph-name="Aring" unicode="&#xc5;" horiz-adv-x="675" 
d="M413 156h-174l-38 -156h-187l195 674h241l201 -674h-195zM263 289h125l-31 121c-10 38 -23 94 -34 133h-2c-10 -39 -20 -95 -29 -133zM333 906c81 0 120 -45 120 -102s-43 -101 -121 -101s-122 45 -122 100c0 56 42 103 123 103zM329 849c-27 0 -41 -23 -41 -46
c0 -22 15 -43 42 -43c29 0 44 19 44 44c0 23 -16 45 -45 45z" />
    <glyph glyph-name="Atilde" unicode="&#xc3;" horiz-adv-x="675" 
d="M414 156h-175l-38 -156h-187l195 674h241l201 -674h-195zM263 289h126l-32 121c-10 38 -23 94 -34 133h-2c-10 -39 -20 -95 -29 -133zM273 714h-80c-3 95 31 139 81 139c29 0 49 -10 66 -20c17 -11 32 -20 43 -20c17 0 23 10 27 44h78c3 -101 -29 -136 -84 -136
c-29 0 -51 9 -67 18c-17 10 -28 18 -41 18c-11 0 -21 -13 -23 -43z" />
    <glyph glyph-name="Ccedilla" unicode="&#xc7;" horiz-adv-x="602" 
d="M542 158l25 -141c-24 -12 -80 -25 -151 -27l-16 -32c38 -10 74 -35 74 -85c0 -74 -68 -97 -127 -97c-32 0 -67 6 -92 20l22 69c15 -8 39 -14 57 -14s33 6 33 23s-20 28 -80 35l39 86c-203 27 -292 168 -292 331c0 238 174 359 376 359c77 0 140 -15 168 -30l-35 -142
c-29 12 -71 24 -125 24c-104 0 -194 -61 -194 -199c0 -123 73 -199 197 -199c44 0 93 8 121 19z" />
    <glyph glyph-name="Eacute" unicode="&#xc9;" horiz-adv-x="552" 
d="M485 418v-146h-242v-124h271v-148h-452v674h438v-148h-257v-108h242zM284 836h183l-120 -126h-144z" />
    <glyph glyph-name="Ecircumflex" unicode="&#xca;" horiz-adv-x="552" 
d="M485 418v-146h-242v-124h271v-148h-452v674h438v-148h-257v-108h242zM221 836h135l99 -126h-121l-45 59h-2l-44 -59h-121z" />
    <glyph glyph-name="Edieresis" unicode="&#xcb;" horiz-adv-x="552" 
d="M485 418v-146h-242v-124h271v-148h-452v674h438v-148h-257v-108h242zM170 709c-43 0 -77 35 -77 77c0 43 34 76 78 76c41 0 74 -33 74 -76c0 -42 -33 -77 -75 -77zM387 709c-43 0 -76 35 -76 77c0 43 33 76 77 76c43 0 75 -33 75 -76c0 -42 -32 -77 -76 -77z" />
    <glyph glyph-name="Egrave" unicode="&#xc8;" horiz-adv-x="552" 
d="M485 418v-146h-242v-124h271v-148h-452v674h438v-148h-257v-108h242zM107 836h183l81 -124h-144z" />
    <glyph glyph-name="Iacute" unicode="&#xcd;" horiz-adv-x="305" 
d="M62 674h181v-674h-181v674zM150 836h183l-120 -126h-144z" />
    <glyph glyph-name="Icircumflex" unicode="&#xce;" horiz-adv-x="305" 
d="M62 674h181v-674h-181v674zM85 836h135l99 -126h-121l-45 59h-2l-44 -59h-121z" />
    <glyph glyph-name="Idieresis" unicode="&#xcf;" horiz-adv-x="305" 
d="M62 674h181v-674h-181v674zM44 709c-43 0 -77 35 -77 77c0 43 34 76 78 76c41 0 74 -33 74 -76c0 -42 -33 -77 -75 -77zM261 709c-43 0 -76 35 -76 77c0 43 33 76 77 76c42 0 75 -33 75 -76c0 -42 -33 -77 -76 -77z" />
    <glyph glyph-name="Igrave" unicode="&#xcc;" horiz-adv-x="305" 
d="M62 674h181v-674h-181v674zM-28 836h183l81 -124h-144z" />
    <glyph glyph-name="Ntilde" unicode="&#xd1;" horiz-adv-x="705" 
d="M227 0h-165v674h213l107 -207c37 -67 76 -157 106 -236h3c-10 89 -14 183 -14 284v159h165v-674h-190l-115 224c-37 71 -81 162 -113 243h-4c5 -91 7 -192 7 -302v-165zM286 714h-80c-3 95 31 139 81 139c29 0 49 -10 66 -20c17 -11 32 -20 43 -20c17 0 23 10 27 44h78
c3 -101 -29 -136 -84 -136c-29 0 -50 9 -67 18c-17 10 -28 18 -41 18c-11 0 -21 -13 -23 -43z" />
    <glyph glyph-name="Oacute" unicode="&#xd3;" horiz-adv-x="730" 
d="M369 686c217 0 327 -161 327 -342c0 -217 -130 -355 -338 -355c-209 0 -324 157 -324 344c0 197 128 353 335 353zM365 543c-85 0 -140 -82 -140 -206c0 -127 55 -205 142 -205s138 85 138 207c0 116 -52 204 -140 204zM369 836h183l-120 -126h-144z" />
    <glyph glyph-name="Ocircumflex" unicode="&#xd4;" horiz-adv-x="730" 
d="M369 686c217 0 327 -161 327 -342c0 -217 -130 -355 -338 -355c-209 0 -324 157 -324 344c0 197 128 353 335 353zM365 543c-85 0 -140 -82 -140 -206c0 -127 55 -205 142 -205s138 85 138 207c0 116 -52 204 -140 204zM298 836h135l99 -126h-121l-45 59h-2l-44 -59h-121
z" />
    <glyph glyph-name="Odieresis" unicode="&#xd6;" horiz-adv-x="730" 
d="M369 686c217 0 327 -161 327 -342c0 -217 -130 -355 -338 -355c-209 0 -324 157 -324 344c0 197 128 353 335 353zM365 543c-85 0 -140 -82 -140 -206c0 -127 55 -205 142 -205s138 85 138 207c0 116 -52 204 -140 204zM257 709c-43 0 -77 35 -77 77c0 43 34 76 78 76
c41 0 74 -33 74 -76c0 -42 -33 -77 -75 -77zM474 709c-43 0 -76 35 -76 77c0 43 33 76 77 76c42 0 75 -33 75 -76c0 -42 -33 -77 -76 -77z" />
    <glyph glyph-name="Ograve" unicode="&#xd2;" horiz-adv-x="730" 
d="M369 686c217 0 327 -161 327 -342c0 -217 -130 -355 -338 -355c-209 0 -324 157 -324 344c0 197 128 353 335 353zM365 543c-85 0 -140 -82 -140 -206c0 -127 55 -205 142 -205s138 85 138 207c0 116 -52 204 -140 204zM183 836h183l81 -124h-144z" />
    <glyph glyph-name="Otilde" unicode="&#xd5;" horiz-adv-x="730" 
d="M369 686c217 0 327 -161 327 -342c0 -217 -130 -355 -338 -355c-209 0 -324 157 -324 344c0 197 128 353 335 353zM365 543c-85 0 -140 -82 -140 -206c0 -127 55 -205 142 -205s138 85 138 207c0 116 -52 204 -140 204zM298 713h-80c-3 95 31 139 81 139
c29 0 49 -10 66 -20c17 -11 32 -20 43 -20c17 0 23 10 27 44h78c3 -101 -29 -136 -84 -136c-29 0 -50 9 -67 18c-17 10 -28 18 -41 18c-11 0 -21 -13 -23 -43z" />
    <glyph glyph-name="Scaron" unicode="&#x160;" horiz-adv-x="561" 
d="M40 31l34 149c41 -21 107 -42 175 -42c62 0 92 21 92 55c0 33 -30 52 -106 78c-114 40 -190 103 -190 203c0 119 101 211 271 211c80 0 138 -15 182 -35l-38 -144c-29 13 -79 32 -146 32c-55 0 -85 -20 -85 -50c0 -34 36 -48 121 -79c121 -45 175 -110 175 -204
c0 -116 -90 -215 -287 -215c-81 0 -160 21 -198 41zM356 710h-135l-99 126h121l45 -59h2l44 59h121z" />
    <glyph glyph-name="Uacute" unicode="&#xda;" horiz-adv-x="697" 
d="M61 674h181v-383c0 -102 35 -159 106 -159c72 0 107 52 107 159v383h181v-372c0 -208 -104 -313 -293 -313c-184 0 -282 101 -282 317v368zM341 836h183l-120 -126h-144z" />
    <glyph glyph-name="Ucircumflex" unicode="&#xdb;" horiz-adv-x="697" 
d="M61 674h181v-383c0 -102 35 -159 106 -159c72 0 107 52 107 159v383h181v-372c0 -208 -104 -313 -293 -313c-184 0 -282 101 -282 317v368zM294 836h135l99 -126h-121l-45 59h-2l-44 -59h-121z" />
    <glyph glyph-name="Udieresis" unicode="&#xdc;" horiz-adv-x="697" 
d="M61 674h181v-383c0 -102 35 -159 106 -159c72 0 107 52 107 159v383h181v-372c0 -208 -104 -313 -293 -313c-184 0 -282 101 -282 317v368zM248 709c-43 0 -77 35 -77 77c0 43 34 76 78 76c41 0 74 -33 74 -76c0 -42 -33 -77 -75 -77zM464 709c-43 0 -76 35 -76 77
c0 43 33 76 77 76c42 0 75 -33 75 -76c0 -42 -33 -77 -76 -77z" />
    <glyph glyph-name="Ugrave" unicode="&#xd9;" horiz-adv-x="697" 
d="M61 674h181v-383c0 -102 35 -159 106 -159c72 0 107 52 107 159v383h181v-372c0 -208 -104 -313 -293 -313c-184 0 -282 101 -282 317v368zM170 836h183l81 -124h-144z" />
    <glyph glyph-name="Yacute" unicode="&#xdd;" horiz-adv-x="629" 
d="M400 0h-181v272l-212 402h207l57 -152c18 -47 31 -81 46 -125h2c13 41 26 79 43 125l55 152h204l-221 -395v-279zM319 836h183l-120 -126h-144z" />
    <glyph glyph-name="Ydieresis" unicode="&#x178;" horiz-adv-x="629" 
d="M400 0h-181v272l-212 402h207l57 -152c18 -47 31 -81 46 -125h2c13 41 26 79 43 125l55 152h204l-221 -395v-279zM215 709c-43 0 -77 35 -77 77c0 43 34 76 78 76c41 0 74 -33 74 -76c0 -42 -33 -77 -75 -77zM432 709c-43 0 -76 35 -76 77c0 43 33 76 77 76
c42 0 75 -33 75 -76c0 -42 -33 -77 -76 -77z" />
    <glyph glyph-name="Zcaron" unicode="&#x17d;" horiz-adv-x="588" 
d="M21 0v96l298 425v4h-270v149h504v-103l-289 -418v-4h294v-149h-537zM366 710h-135l-99 126h121l45 -59h2l44 59h121z" />
    <glyph glyph-name="aacute" unicode="&#xe1;" horiz-adv-x="548" 
d="M492 286v-166c0 -49 3 -95 8 -120h-162l-9 43h-4c-34 -39 -83 -54 -136 -54c-101 0 -163 73 -163 155c0 132 119 191 286 191v4c0 20 -15 42 -81 42c-52 0 -106 -18 -139 -36l-31 113c31 17 102 45 204 45c169 0 227 -94 227 -217zM318 185v40c-74 0 -115 -20 -115 -64
c0 -31 20 -47 51 -47c26 0 53 18 62 46c2 7 2 16 2 25zM283 706h160l-123 -156h-122z" />
    <glyph glyph-name="acircumflex" unicode="&#xe2;" horiz-adv-x="548" 
d="M492 286v-166c0 -49 3 -95 8 -120h-162l-9 43h-4c-34 -39 -83 -54 -136 -54c-101 0 -163 73 -163 155c0 132 119 191 286 191v4c0 20 -15 42 -81 42c-52 0 -106 -18 -139 -36l-31 113c31 17 102 45 204 45c169 0 227 -94 227 -217zM318 185v40c-74 0 -115 -20 -115 -64
c0 -31 20 -47 51 -47c26 0 53 18 62 46c2 7 2 16 2 25zM211 706h120l101 -156h-113l-47 84h-2l-47 -84h-114z" />
    <glyph glyph-name="adieresis" unicode="&#xe4;" horiz-adv-x="548" 
d="M492 286v-166c0 -49 3 -95 8 -120h-162l-9 43h-4c-34 -39 -83 -54 -136 -54c-101 0 -163 73 -163 155c0 132 119 191 286 191v4c0 20 -15 42 -81 42c-52 0 -106 -18 -139 -36l-31 113c31 17 102 45 204 45c169 0 227 -94 227 -217zM318 185v40c-74 0 -115 -20 -115 -64
c0 -31 20 -47 51 -47c26 0 53 18 62 46c2 7 2 16 2 25zM164 551c-45 0 -80 35 -80 79c0 46 35 79 81 79c43 0 76 -33 76 -79c0 -44 -33 -79 -77 -79zM386 551h-2c-44 0 -78 35 -78 79c0 46 34 79 80 79c44 0 77 -33 77 -79c0 -44 -33 -79 -77 -79z" />
    <glyph glyph-name="agrave" unicode="&#xe0;" horiz-adv-x="548" 
d="M492 286v-166c0 -49 3 -95 8 -120h-162l-9 43h-4c-34 -39 -83 -54 -136 -54c-101 0 -163 73 -163 155c0 132 119 191 286 191v4c0 20 -15 42 -81 42c-52 0 -106 -18 -139 -36l-31 113c31 17 102 45 204 45c169 0 227 -94 227 -217zM318 185v40c-74 0 -115 -20 -115 -64
c0 -31 20 -47 51 -47c26 0 53 18 62 46c2 7 2 16 2 25zM103 706h160l85 -156h-123z" />
    <glyph glyph-name="aring" unicode="&#xe5;" horiz-adv-x="548" 
d="M492 286v-166c0 -49 3 -95 8 -120h-162l-9 43h-4c-34 -39 -83 -54 -136 -54c-101 0 -163 73 -163 155c0 132 119 191 286 191v4c0 20 -15 42 -81 42c-52 0 -106 -18 -139 -36l-31 113c31 17 102 45 204 45c169 0 227 -94 227 -217zM318 185v40c-74 0 -115 -20 -115 -64
c0 -31 20 -47 51 -47c25 0 53 18 62 46c2 7 2 16 2 25zM276 540c-76 0 -121 43 -121 99c0 57 42 102 122 102c79 0 119 -43 119 -101c0 -57 -45 -100 -120 -100zM275 595c29 0 44 21 44 45c0 23 -14 46 -44 46c-28 0 -42 -24 -42 -47c0 -21 15 -44 42 -44z" />
    <glyph glyph-name="atilde" unicode="&#xe3;" horiz-adv-x="548" 
d="M492 286v-166c0 -49 3 -95 8 -120h-162l-9 43h-4c-34 -39 -83 -54 -136 -54c-101 0 -163 73 -163 155c0 132 119 191 286 191v4c0 20 -15 42 -81 42c-52 0 -106 -18 -139 -36l-31 113c31 17 102 45 204 45c169 0 227 -94 227 -217zM318 185v40c-74 0 -115 -20 -115 -64
c0 -31 20 -47 51 -47c26 0 53 18 62 46c2 7 2 16 2 25zM194 554h-82c-4 93 33 143 88 143c26 0 48 -10 66 -20c17 -10 31 -20 43 -20c16 0 22 9 25 45h80c4 -102 -33 -140 -88 -140c-30 0 -51 11 -72 22c-17 9 -24 15 -36 15c-14 0 -23 -14 -24 -45z" />
    <glyph glyph-name="ccedilla" unicode="&#xe7;" horiz-adv-x="452" 
d="M414 142l19 -132c-23 -11 -62 -18 -106 -20l-16 -32c38 -10 74 -35 74 -84c0 -75 -68 -98 -127 -98c-32 0 -66 6 -91 20l21 69c15 -8 40 -14 57 -14c18 0 33 6 33 23s-20 29 -79 35l38 86c-128 21 -206 111 -206 246c0 142 97 262 289 262c35 0 78 -5 113 -17l-25 -132
c-17 7 -41 12 -78 12c-67 0 -115 -46 -114 -118c0 -80 55 -119 119 -119c30 0 56 4 79 13z" />
    <glyph glyph-name="eacute" unicode="&#xe9;" horiz-adv-x="539" 
d="M506 183h-303c6 -39 62 -61 126 -61c46 0 90 5 134 19l23 -121c-59 -23 -123 -31 -184 -31c-173 0 -271 96 -271 252c0 114 74 262 255 262c159 0 227 -117 227 -252c0 -29 -4 -56 -7 -68zM201 305h146c0 28 -13 80 -70 80c-53 0 -73 -49 -76 -80zM299 706h159l-123 -156
h-122z" />
    <glyph glyph-name="ecircumflex" unicode="&#xea;" horiz-adv-x="539" 
d="M506 183h-303c6 -39 62 -61 126 -61c46 0 90 5 134 19l23 -121c-59 -23 -123 -31 -184 -31c-173 0 -271 96 -271 252c0 114 74 262 255 262c159 0 227 -117 227 -252c0 -29 -4 -56 -7 -68zM201 305h146c0 28 -13 80 -70 80c-53 0 -73 -49 -76 -80zM221 706h120l101 -156
h-113l-47 84h-2l-47 -84h-114z" />
    <glyph glyph-name="edieresis" unicode="&#xeb;" horiz-adv-x="539" 
d="M506 183h-303c6 -39 62 -61 126 -61c46 0 90 5 134 19l23 -121c-59 -23 -123 -31 -184 -31c-173 0 -271 96 -271 252c0 114 74 262 255 262c159 0 227 -117 227 -252c0 -29 -4 -56 -7 -68zM201 305h146c0 28 -13 80 -70 80c-53 0 -73 -49 -76 -80zM175 551
c-45 0 -80 35 -80 79c0 46 35 79 81 79c43 0 76 -33 76 -79c0 -44 -33 -79 -77 -79zM398 551h-2c-44 0 -78 35 -78 79c0 46 34 79 80 79c44 0 77 -33 77 -79c0 -44 -33 -79 -77 -79z" />
    <glyph glyph-name="egrave" unicode="&#xe8;" horiz-adv-x="539" 
d="M506 183h-303c6 -39 62 -61 126 -61c46 0 90 5 134 19l23 -121c-59 -23 -123 -31 -184 -31c-173 0 -271 96 -271 252c0 114 74 262 255 262c159 0 227 -117 227 -252c0 -29 -4 -56 -7 -68zM201 305h146c0 28 -13 80 -70 80c-53 0 -73 -49 -76 -80zM113 706h160l85 -156
h-123z" />
    <glyph glyph-name="iacute" unicode="&#xed;" horiz-adv-x="292" 
d="M236 0h-181v492h181v-492zM160 706h160l-123 -156h-122z" />
    <glyph glyph-name="icircumflex" unicode="&#xee;" horiz-adv-x="292" 
d="M236 0h-181v492h181v-492zM86 706h121l101 -156h-113l-48 84h-2l-46 -84h-114z" />
    <glyph glyph-name="idieresis" unicode="&#xef;" horiz-adv-x="292" 
d="M236 0h-181v492h181v-492zM35 551c-45 0 -80 35 -80 79c0 46 35 79 81 79c43 0 76 -33 76 -79c0 -44 -33 -79 -77 -79zM258 551h-2c-44 0 -78 35 -78 79c0 46 34 79 80 79c44 0 77 -33 77 -79c0 -44 -33 -79 -77 -79z" />
    <glyph glyph-name="igrave" unicode="&#xec;" horiz-adv-x="292" 
d="M236 0h-181v492h181v-492zM-31 706h160l85 -156h-123z" />
    <glyph glyph-name="ntilde" unicode="&#xf1;" horiz-adv-x="599" 
d="M55 0v324c0 66 -2 122 -4 168h156l8 -63h3c18 26 66 74 148 74c115 0 178 -78 178 -213v-290h-181v268c0 57 -19 90 -63 90c-35 0 -51 -24 -59 -43c-4 -9 -5 -23 -5 -36v-279h-181zM232 554h-82c-4 93 33 143 88 143c27 0 48 -10 66 -20c16 -10 31 -20 43 -20
c16 0 22 9 25 45h80c4 -102 -33 -140 -88 -140c-31 0 -51 11 -72 22c-17 9 -24 15 -36 15c-14 0 -23 -14 -24 -45z" />
    <glyph glyph-name="oacute" unicode="&#xf3;" horiz-adv-x="589" 
d="M302 503c154 0 256 -104 256 -252c0 -179 -128 -262 -266 -262c-147 0 -261 93 -261 253c0 157 103 261 271 261zM297 376c-60 0 -80 -65 -80 -130c0 -74 24 -130 80 -130c49 0 75 51 75 130c0 68 -22 130 -75 130zM307 706h159l-123 -156h-122z" />
    <glyph glyph-name="ocircumflex" unicode="&#xf4;" horiz-adv-x="589" 
d="M302 503c154 0 256 -104 256 -252c0 -179 -128 -262 -266 -262c-147 0 -261 93 -261 253c0 157 103 261 271 261zM297 376c-60 0 -80 -65 -80 -130c0 -74 24 -130 80 -130c49 0 75 51 75 130c0 68 -22 130 -75 130zM235 706h120l101 -156h-113l-46 84h-2l-48 -84h-114z
" />
    <glyph glyph-name="odieresis" unicode="&#xf6;" horiz-adv-x="589" 
d="M302 503c154 0 256 -104 256 -252c0 -179 -128 -262 -266 -262c-147 0 -261 93 -261 253c0 157 103 261 271 261zM297 376c-60 0 -80 -65 -80 -130c0 -74 24 -130 80 -130c49 0 75 51 75 130c0 68 -22 130 -75 130zM184 551c-45 0 -80 35 -80 79c0 46 35 79 81 79
c43 0 76 -33 76 -79c0 -44 -33 -79 -77 -79zM406 551h-2c-44 0 -78 35 -78 79c0 46 34 79 80 79c44 0 77 -33 77 -79c0 -44 -33 -79 -77 -79z" />
    <glyph glyph-name="ograve" unicode="&#xf2;" horiz-adv-x="589" 
d="M302 503c154 0 256 -104 256 -252c0 -179 -128 -262 -266 -262c-147 0 -261 93 -261 253c0 157 103 261 271 261zM297 376c-60 0 -80 -65 -80 -130c0 -74 24 -130 80 -130c49 0 75 51 75 130c0 68 -22 130 -75 130zM127 706h160l85 -156h-123z" />
    <glyph glyph-name="otilde" unicode="&#xf5;" horiz-adv-x="589" 
d="M302 503c154 0 256 -104 256 -252c0 -179 -128 -262 -266 -262c-147 0 -261 93 -261 253c0 157 103 261 271 261zM297 376c-60 0 -80 -65 -80 -130c0 -74 24 -130 80 -130c49 0 75 51 75 130c0 68 -22 130 -75 130zM226 554h-82c-4 93 33 143 88 143c26 0 48 -10 66 -20
c17 -10 31 -20 43 -20c16 0 22 9 25 45h80c4 -102 -33 -140 -88 -140c-30 0 -51 11 -72 22c-17 9 -24 15 -36 15c-14 0 -23 -14 -24 -45z" />
    <glyph glyph-name="scaron" unicode="&#x161;" horiz-adv-x="451" 
d="M29 24l31 127c28 -17 92 -37 136 -37c39 0 54 8 54 27c0 18 -11 26 -64 42c-109 35 -146 94 -145 151c0 98 84 169 214 169c60 0 114 -14 146 -28l-29 -122c-23 11 -69 27 -109 27c-31 0 -49 -8 -49 -28c0 -16 16 -26 74 -45c97 -32 134 -82 135 -153
c0 -94 -73 -165 -225 -165c-69 0 -130 15 -169 35zM288 550h-120l-101 156h113l47 -84h2l47 84h114z" />
    <glyph glyph-name="uacute" unicode="&#xfa;" horiz-adv-x="598" 
d="M541 492v-324c0 -70 2 -126 4 -168h-156l-8 65h-3c-18 -27 -61 -76 -149 -76c-110 0 -175 71 -175 213v290h181v-261c0 -63 20 -97 63 -97c33 0 51 23 58 42c3 7 4 16 4 26v290h181zM313 706h160l-123 -156h-122z" />
    <glyph glyph-name="ucircumflex" unicode="&#xfb;" horiz-adv-x="598" 
d="M541 492v-324c0 -70 2 -126 4 -168h-156l-8 65h-3c-18 -27 -61 -76 -149 -76c-110 0 -175 71 -175 213v290h181v-261c0 -63 20 -97 63 -97c33 0 51 23 58 42c3 7 4 16 4 26v290h181zM240 706h120l101 -156h-113l-48 84h-2l-46 -84h-114z" />
    <glyph glyph-name="udieresis" unicode="&#xfc;" horiz-adv-x="598" 
d="M541 492v-324c0 -70 2 -126 4 -168h-156l-8 65h-3c-18 -27 -61 -76 -149 -76c-110 0 -175 71 -175 213v290h181v-261c0 -63 20 -97 63 -97c33 0 51 23 58 42c3 7 4 16 4 26v290h181zM192 551c-45 0 -80 35 -80 79c0 46 35 79 81 79c43 0 76 -33 76 -79
c0 -44 -33 -79 -77 -79zM412 551c-44 0 -78 35 -78 79c0 46 34 79 80 79c44 0 77 -33 77 -79c0 -44 -33 -79 -79 -79z" />
    <glyph glyph-name="ugrave" unicode="&#xf9;" horiz-adv-x="598" 
d="M541 492v-324c0 -70 2 -126 4 -168h-156l-8 65h-3c-18 -27 -61 -76 -149 -76c-110 0 -175 71 -175 213v290h181v-261c0 -63 20 -97 63 -97c33 0 51 23 58 42c3 7 4 16 4 26v290h181zM128 706h160l85 -156h-123z" />
    <glyph glyph-name="yacute" unicode="&#xfd;" horiz-adv-x="545" 
d="M5 492h200l59 -221c7 -27 16 -63 22 -88h3c6 26 13 62 18 87l45 222h192l-105 -313c-74 -206 -122 -281 -175 -328c-57 -50 -118 -67 -164 -72l-37 152c18 3 40 9 62 19c23 9 46 29 58 45c5 7 9 15 9 22c0 6 -1 14 -7 26zM302 706h160l-123 -156h-122z" />
    <glyph glyph-name="ydieresis" unicode="&#xff;" horiz-adv-x="545" 
d="M5 492h200l59 -221c7 -27 16 -63 22 -88h3c6 26 13 62 18 87l45 222h192l-105 -313c-74 -206 -122 -281 -175 -328c-57 -50 -118 -67 -164 -72l-37 152c18 3 40 9 62 19c23 9 46 29 58 45c5 7 9 15 9 22c0 6 -1 14 -7 26zM174 551c-45 0 -80 35 -80 79c0 46 35 79 81 79
c43 0 76 -33 76 -79c0 -44 -33 -79 -77 -79zM396 551h-2c-44 0 -78 35 -78 79c0 46 34 79 80 79c44 0 77 -33 77 -79c0 -44 -33 -79 -77 -79z" />
    <glyph glyph-name="zcaron" unicode="&#x17e;" horiz-adv-x="486" 
d="M24 0v103l126 153c31 35 54 60 84 91v2h-194v143h414v-108l-118 -143c-29 -34 -57 -67 -87 -96v-2h214v-143h-439zM306 550h-121l-101 156h113l48 -84h2l46 84h114z" />
    <glyph glyph-name="Dcroat" unicode="&#x110;" horiz-adv-x="719" 
d="M4 274v141h67v252c57 10 134 15 214 15c130 0 211 -18 278 -65c74 -51 122 -139 122 -262c0 -139 -52 -230 -118 -281c-74 -59 -185 -84 -317 -84c-86 0 -145 6 -179 10v274h-67zM365 415v-141h-114v-142c9 -2 26 -2 38 -2c120 0 204 62 204 219c0 139 -78 195 -187 195
c-29 0 -46 -2 -55 -4v-125h114z" />
    <glyph glyph-name="Eng" unicode="&#x14a;" horiz-adv-x="705" 
d="M227 0h-165v674h213l107 -207c37 -67 76 -157 106 -236h3c-10 89 -14 183 -14 284v159h165v-621c0 -186 -103 -261 -243 -275l-40 136c60 16 94 34 105 67l-127 243c-37 71 -81 162 -113 243h-4c5 -91 7 -192 7 -301v-166z" />
    <glyph glyph-name="Hbar" unicode="&#x126;" horiz-adv-x="720" 
d="M717 468h-67v-468h-181v236h-218v-236h-181v468h-67v104h67v102h181v-102h218v102h181v-102h67v-104zM469 394v74h-218v-74h218z" />
    <glyph glyph-name="Tbar" unicode="&#x166;" horiz-adv-x="570" 
d="M549 522h-175v-141h110v-104h-110v-277h-181v277h-112v104h112v141h-172v152h528v-152z" />
    <glyph glyph-name="uni021C" unicode="&#x21c;" horiz-adv-x="562" 
d="M80 -130l-19 137c72 3 270 62 270 166c0 36 -27 80 -105 81c-20 0 -71 -6 -103 -17l-20 120c85 14 184 61 184 132c0 34 -33 59 -81 60c-47 0 -99 -18 -133 -35l-33 118c52 30 127 54 208 54c124 0 218 -61 218 -160c0 -71 -47 -128 -118 -161v-2
c93 -15 175 -74 176 -180c0 -180 -212 -311 -444 -313z" />
    <glyph glyph-name="dcroat" unicode="&#x111;" horiz-adv-x="610" 
d="M636 535h-82v-380c0 -61 2 -122 4 -155h-160l-7 66h-2c-32 -55 -92 -77 -149 -77c-114 0 -209 99 -209 253c-1 166 104 261 220 261c54 0 99 -16 121 -48h2v80h-174v96h174v79h180v-79h82v-96zM374 224v55c0 7 0 16 -1 23c-7 35 -34 63 -71 63c-61 0 -88 -54 -88 -118
c0 -76 37 -115 87 -115c36 0 64 26 70 59c3 10 3 21 3 33z" />
    <glyph glyph-name="eng" unicode="&#x14b;" horiz-adv-x="599" 
d="M55 0v324c0 66 -2 122 -4 168h156l8 -63h3c18 26 66 74 148 74c115 0 178 -78 178 -213v-231c0 -187 -96 -248 -215 -261l-36 139c50 8 70 31 70 91v240c0 57 -19 90 -63 90c-35 0 -51 -24 -59 -43c-4 -9 -5 -23 -5 -36v-279h-181z" />
    <glyph glyph-name="hbar" unicode="&#x127;" horiz-adv-x="599" 
d="M544 0h-181v265c0 58 -19 93 -64 93c-34 0 -50 -20 -59 -39c-3 -8 -4 -21 -4 -29v-290h-181v535h-79v96h79v79h181v-79h178v-96h-178v-95h2c16 20 36 35 58 46c22 10 49 17 75 17c111 0 173 -79 173 -218v-285z" />
    <glyph glyph-name="kgreenlandic" unicode="&#x138;" horiz-adv-x="575" 
d="M236 492v-200h2c11 22 21 42 32 60l81 140h215l-170 -198l195 -294h-222l-97 188l-36 -48v-140h-180v492h180z" />
    <glyph glyph-name="napostrophe" unicode="&#x149;" horiz-adv-x="599" 
d="M55 0v324c0 66 -2 122 -4 168h156l8 -63h3c18 26 66 74 148 74c115 0 178 -78 178 -213v-290h-181v268c0 57 -19 90 -63 90c-35 0 -51 -24 -59 -43c-4 -9 -5 -23 -5 -36v-279h-181zM83 519l-79 47c18 30 28 60 28 88c0 21 -7 41 -15 54l112 28c13 -9 30 -38 30 -77
c0 -72 -54 -122 -76 -140z" />
    <glyph glyph-name="tbar" unicode="&#x167;" horiz-adv-x="383" 
d="M355 360h-102v-51h76v-91h-76v-13c0 -51 19 -69 57 -69c21 0 28 0 43 4v-137c-21 -8 -61 -14 -107 -14c-53 0 -97 19 -123 45c-30 30 -46 78 -46 153v31h-61v91h61v51h-61v132h61v92l176 48v-140h102v-132z" />
    <glyph glyph-name="uni021D" unicode="&#x21d;" horiz-adv-x="495" 
d="M54 -209l-21 137c66 0 244 20 244 125c0 26 -11 66 -88 66c-20 0 -58 -8 -85 -16l-24 121c84 16 164 45 164 95c0 30 -27 47 -75 47c-44 0 -86 -17 -119 -33l-31 116c46 33 123 54 198 54c124 0 201 -54 201 -147c0 -55 -30 -94 -102 -126v-2c94 -15 149 -74 149 -158
c0 -182 -217 -280 -411 -279z" />
    <glyph glyph-name="IJ" unicode="&#x132;" horiz-adv-x="734" 
d="M62 674h181v-674h-181v674zM496 258v416h181v-416c0 -196 -94 -269 -256 -269c-37 0 -86 5 -119 16l19 145c22 -6 50 -11 79 -11c58 0 96 26 96 119z" />
    <glyph glyph-name="ij" unicode="&#x133;" horiz-adv-x="604" 
d="M236 0h-181v492h181v-492zM146 713c56 0 91 -36 92 -86c0 -47 -36 -85 -93 -85c-56 0 -91 38 -91 85c0 50 36 86 92 86zM271 -216l-16 140c38 3 68 12 87 30c21 21 28 60 28 150v388h181v-426c0 -112 -27 -179 -74 -220c-48 -42 -122 -62 -206 -62zM460 713
c56 0 91 -36 92 -86c0 -47 -36 -85 -93 -85c-56 0 -91 38 -91 85c0 50 36 86 92 86z" />
    <glyph glyph-name="zero.slash" unicode="&#xf638;" horiz-adv-x="573" 
d="M203 271l140 217c-9 22 -28 37 -56 37c-54 0 -86 -67 -86 -200c0 -15 0 -32 2 -54zM371 385l-142 -225c13 -25 29 -36 57 -36c50 0 86 61 86 201c0 16 -1 32 -1 60zM540 637l-55 -80c41 -63 57 -148 57 -231c0 -192 -81 -337 -255 -337c-61 0 -110 18 -148 48l-41 -59
l-64 48l51 72c-37 60 -54 144 -54 226c0 180 73 337 256 337c60 0 108 -17 143 -44l44 66z" />
    <glyph glyph-name="Euro" unicode="&#x20ac;" horiz-adv-x="573" 
d="M512 158l27 -132c-35 -19 -96 -37 -159 -37c-106 0 -203 43 -262 125c-22 31 -40 67 -50 112h-65v81h54v17c0 8 1 15 2 23h-56v81h68c13 47 35 88 63 122c59 70 145 111 246 111c60 0 117 -13 157 -30l-32 -134c-26 10 -67 23 -111 23c-45 0 -89 -16 -118 -55
c-8 -10 -14 -23 -20 -37h236v-81h-254c-1 -8 -1 -17 -1 -26v-14h255v-81h-238c6 -18 14 -32 24 -44c30 -34 75 -48 124 -48c42 0 89 13 110 24z" />
    <glyph glyph-name="Aringacute" unicode="&#x1fa;" horiz-adv-x="675" 
d="M336 694c-72 0 -114 42 -114 93s39 95 115 95c77 0 113 -43 113 -94c0 -54 -40 -94 -114 -94zM335 750c28 0 44 16 44 38c0 21 -16 40 -45 40c-28 0 -41 -19 -41 -40c0 -20 15 -38 42 -38zM363 995h189l-150 -96h-147zM413 156h-174l-38 -156h-187l195 674h241l201 -674
h-195zM263 289h125l-31 121c-10 38 -23 94 -34 133h-2c-10 -39 -20 -95 -29 -133z" />
    <glyph glyph-name="estimated" unicode="&#x212e;" horiz-adv-x="817" 
d="M782 316h-605c-3 0 -5 -1 -5 -4v-183c0 -8 4 -15 9 -21c57 -61 139 -99 229 -99c96 0 182 43 240 111h55c-68 -79 -176 -131 -296 -131c-206 0 -374 150 -374 336s168 336 374 336s373 -150 373 -336v-9zM646 340v184c0 9 -4 16 -10 22c-58 58 -138 95 -226 95
c-90 0 -170 -38 -228 -98c-6 -6 -10 -14 -10 -23v-180c0 -3 2 -5 5 -5h464c3 0 5 2 5 5z" />
    <glyph glyph-name="zero.oldstyle" unicode="&#xf730;" horiz-adv-x="575" 
d="M288 -11h-2c-175 0 -258 126 -258 257c0 130 83 257 260 257c176 0 259 -127 259 -257c0 -131 -83 -257 -259 -257zM289 119c54 0 87 45 87 127s-33 127 -88 127c-56 0 -89 -45 -89 -127s33 -127 90 -127z" />
    <glyph glyph-name="one.oldstyle" unicode="&#xf731;" horiz-adv-x="434" 
d="M354 0h-174v334h-2l-123 -56l-29 133l184 81h144v-492z" />
    <glyph glyph-name="two.oldstyle" unicode="&#xf732;" horiz-adv-x="488" 
d="M466 0h-444v97l66 41c114 70 163 113 163 162c0 42 -28 63 -80 63c-37 0 -79 -13 -109 -30l-40 115c34 22 109 56 203 56c132 0 208 -67 208 -168c0 -85 -67 -146 -125 -183l-39 -23v-3c41 7 93 11 116 11h81v-138z" />
    <glyph glyph-name="three.oldstyle" unicode="&#xf733;" horiz-adv-x="488" 
d="M21 -106l19 130c28 -10 70 -17 120 -17c65 0 113 21 113 67c0 38 -42 62 -112 62c-18 0 -38 -1 -55 -2v125l31 2c67 5 122 20 122 57c0 30 -27 48 -76 48c-44 0 -95 -17 -127 -33l-30 118c47 32 125 52 200 52c125 0 213 -58 213 -152c0 -67 -54 -123 -121 -138v-2
c78 -13 142 -61 142 -142c0 -126 -135 -199 -280 -199c-72 0 -129 11 -159 24z" />
    <glyph glyph-name="four.oldstyle" unicode="&#xf734;" horiz-adv-x="566" 
d="M544 23h-72v-151h-167v151h-281v116l223 353h225v-339h72v-130zM305 153v98c0 39 1 82 4 120h-5c-18 -39 -41 -86 -65 -125l-54 -88l2 -5h118z" />
    <glyph glyph-name="five.oldstyle" unicode="&#xf735;" horiz-adv-x="476" 
d="M18 -109l19 124c22 -6 66 -12 109 -12c64 0 116 26 116 73c0 16 -5 31 -17 42c-23 23 -69 37 -206 35l54 339h344l-19 -145h-209l-13 -73c86 -3 159 -22 204 -65c30 -30 48 -68 48 -121c0 -119 -93 -218 -282 -218c-62 0 -119 11 -148 21z" />
    <glyph glyph-name="six.oldstyle" unicode="&#xf736;" horiz-adv-x="563" 
d="M476 620l10 -127c-173 -3 -245 -62 -262 -114l2 -1c21 17 59 36 111 36c110 0 197 -70 197 -195c0 -130 -113 -230 -253 -230c-159 0 -252 108 -252 264c0 213 163 369 447 367zM285 121c34 0 70 28 70 89c0 52 -30 89 -73 89c-30 0 -51 -12 -68 -33c-6 -7 -9 -24 -9 -38
c0 -67 28 -107 80 -107z" />
    <glyph glyph-name="seven.oldstyle" unicode="&#xf737;" horiz-adv-x="496" 
d="M470 492v-108c-57 -143 -165 -357 -265 -511l-174 18c87 130 199 318 255 452v2h-268v147h452z" />
    <glyph glyph-name="eight.oldstyle" unicode="&#xf738;" horiz-adv-x="569" 
d="M428 333v-5c55 -25 111 -69 111 -145c0 -114 -107 -194 -262 -194c-150 0 -248 73 -248 178c0 66 42 118 105 146v5c-53 28 -85 70 -85 125c0 104 91 179 241 179c155 0 225 -81 225 -160c0 -67 -44 -107 -87 -129zM289 513c-43 0 -64 -29 -64 -60s30 -61 80 -75
c26 10 49 37 49 69c0 42 -30 66 -65 66zM283 108c41 0 69 28 69 64c0 41 -37 75 -86 88c-37 -12 -58 -43 -58 -79c0 -40 31 -73 75 -73z" />
    <glyph glyph-name="nine.oldstyle" unicode="&#xf739;" horiz-adv-x="563" 
d="M81 -124l-10 126c166 6 241 50 270 121l-2 1c-22 -19 -66 -38 -118 -38c-114 0 -193 84 -193 193c0 134 112 230 257 230c158 0 249 -118 249 -264c0 -273 -219 -373 -453 -369zM282 203c23 0 50 14 64 35c6 8 9 25 9 43c0 53 -28 94 -75 94c-40 0 -73 -31 -73 -87
c0 -52 31 -85 75 -85z" />
    <glyph glyph-name="percent.oldstyle" unicode="&#xf642;" horiz-adv-x="923" 
d="M210 622c120 0 185 -87 185 -193c0 -135 -92 -208 -191 -208c-106 0 -187 78 -187 197c0 110 71 204 193 204zM206 526c-41 0 -57 -46 -57 -105c0 -62 19 -104 59 -104c36 0 55 36 55 104c0 61 -15 105 -57 105zM333 -11h-92l348 633h93zM721 391c120 0 185 -87 185 -193
c0 -135 -92 -208 -191 -208c-107 0 -188 78 -188 197c0 110 71 204 194 204zM717 295c-42 0 -58 -46 -58 -105c0 -62 20 -104 60 -104c36 0 55 36 55 104c0 61 -16 105 -57 105z" />
    <glyph glyph-name="zero.fitted" unicode="&#xf639;" horiz-adv-x="573" 
d="M287 661c190 0 255 -169 255 -335c0 -192 -81 -337 -256 -337c-186 0 -255 164 -255 335c0 176 73 337 256 337zM287 525c-46 0 -76 -60 -76 -200c-1 -141 29 -201 77 -201c46 0 74 61 74 201c0 137 -27 200 -75 200z" />
    <glyph glyph-name="one.fitted" unicode="&#xf6dc;" horiz-adv-x="404" 
d="M158 0v491h-2l-128 -57l-29 134l186 82h147v-650h-174z" />
    <glyph glyph-name="two.fitted" unicode="&#xf63a;" horiz-adv-x="513" 
d="M484 0h-481v109l90 79c132 114 199 182 200 248c0 47 -31 81 -97 81c-54 0 -103 -27 -139 -53l-49 129c50 37 132 68 224 68c151 0 241 -82 241 -210c0 -104 -74 -188 -151 -251l-64 -50v-2h226v-148z" />
    <glyph glyph-name="three.fitted" unicode="&#xf63b;" horiz-adv-x="519" 
d="M7 35l34 135c28 -14 93 -39 155 -39c64 0 106 23 106 69c0 53 -55 78 -116 78h-67v128h64c45 0 102 14 102 59c0 33 -31 55 -87 55c-55 0 -113 -23 -139 -37l-34 129c41 25 124 49 214 49c144 0 229 -72 229 -165c0 -69 -39 -122 -119 -150v-2c77 -13 139 -71 140 -154
c0 -120 -110 -201 -278 -201c-89 0 -163 21 -204 46z" />
    <glyph glyph-name="four.fitted" unicode="&#xf63c;" horiz-adv-x="564" 
d="M471 0h-170v146h-282v117l226 387h226v-370h72v-134h-72v-146zM183 280h118v111c0 41 3 84 5 129h-4c-21 -43 -39 -85 -63 -130l-55 -108z" />
    <glyph glyph-name="five.fitted" unicode="&#xf63d;" horiz-adv-x="526" 
d="M462 650v-148h-254l-9 -70c14 1 25 1 37 1c67 0 137 -16 185 -52c48 -35 73 -88 73 -161c0 -119 -105 -231 -295 -231c-82 0 -151 17 -189 36l30 134c29 -13 91 -30 149 -30c55 0 120 20 120 81c0 59 -52 92 -181 92c-35 0 -59 -2 -87 -6l43 354h378z" />
    <glyph glyph-name="six.fitted" unicode="&#xf63e;" horiz-adv-x="573" 
d="M475 658v-137c-17 2 -34 1 -57 0c-133 -6 -187 -61 -205 -123h3c33 28 74 41 129 41c106 0 203 -74 203 -213c0 -133 -106 -237 -249 -237c-188 0 -270 138 -270 287c0 120 45 222 117 288c70 62 159 93 268 95c29 2 47 0 61 -1zM297 120c43 0 69 42 69 97
c0 46 -22 96 -80 96c-35 0 -63 -21 -74 -48c-4 -8 -5 -19 -5 -38c4 -53 30 -107 90 -107z" />
    <glyph glyph-name="seven.fitted" unicode="&#xf63f;" horiz-adv-x="486" 
d="M4 650h481v-112l-261 -538h-192l262 500v2h-290v148z" />
    <glyph glyph-name="eight.fitted" unicode="&#xf640;" horiz-adv-x="573" 
d="M141 330l-1 2c-59 33 -90 85 -90 142c0 113 104 187 241 187c165 0 228 -92 228 -170c0 -56 -32 -110 -90 -140v-2c56 -21 115 -73 115 -159c0 -120 -100 -201 -262 -201c-179 0 -252 98 -252 182c0 78 43 129 111 159zM289 111c42 0 71 29 71 67c0 47 -37 79 -84 91
c-39 -10 -62 -40 -62 -80s30 -78 75 -78zM284 541c-43 0 -64 -29 -64 -63s35 -60 78 -74c26 6 52 35 52 67c0 35 -20 70 -66 70z" />
    <glyph glyph-name="nine.fitted" unicode="&#xf641;" horiz-adv-x="573" 
d="M87 -8v138c20 -2 34 -2 64 -1c45 1 91 11 124 30c43 24 69 61 80 98l-2 1c-26 -24 -64 -37 -120 -37c-107 0 -207 71 -207 204c0 130 107 236 255 236c182 0 259 -137 259 -282c0 -133 -41 -231 -115 -297c-67 -60 -159 -90 -274 -92c-23 -1 -48 1 -64 2zM276 531
c-40 0 -72 -37 -71 -94c0 -46 23 -90 77 -90c35 0 56 15 66 31c5 10 7 21 7 41c1 51 -19 112 -79 112z" />
    <glyph glyph-name="zero.slashfitted" unicode="&#xe008;" horiz-adv-x="573" 
d="M203 271l140 217c-9 22 -28 37 -56 37c-54 0 -86 -67 -86 -200c0 -15 0 -32 2 -54zM371 385l-142 -225c13 -25 29 -36 57 -36c50 0 86 61 86 201c0 16 -1 32 -1 60zM540 637l-55 -80c41 -63 57 -148 57 -231c0 -192 -81 -337 -255 -337c-61 0 -110 18 -148 48l-41 -59
l-64 48l51 72c-37 60 -54 144 -54 226c0 180 73 337 256 337c60 0 108 -17 143 -44l44 66z" />
    <glyph glyph-name="zero.taboldstyle" unicode="&#xf643;" horiz-adv-x="575" 
d="M288 -11h-2c-175 0 -258 126 -258 257c0 130 83 257 260 257c176 0 259 -127 259 -257c0 -131 -83 -257 -259 -257zM289 119c54 0 87 45 87 127s-33 127 -88 127c-56 0 -89 -45 -89 -127s33 -127 90 -127z" />
    <glyph glyph-name="one.taboldstyle" unicode="&#xf644;" horiz-adv-x="575" 
d="M434 0h-174v341h-2l-167 -64l-22 133l221 82h144v-492z" />
    <glyph glyph-name="two.taboldstyle" unicode="&#xf645;" horiz-adv-x="575" 
d="M502 0h-444v97l66 41c114 70 163 113 163 162c0 42 -28 63 -80 63c-37 0 -79 -13 -109 -30l-40 115c34 22 109 56 203 56c132 0 208 -67 208 -168c0 -85 -67 -146 -125 -183l-39 -23v-3c41 7 93 11 116 11h81v-138z" />
    <glyph glyph-name="three.taboldstyle" unicode="&#xf646;" horiz-adv-x="575" 
d="M58 -106l19 130c28 -10 70 -17 120 -17c65 0 113 21 113 67c0 38 -42 62 -112 62c-18 0 -38 -1 -55 -2v125l31 2c67 5 122 20 122 57c0 30 -27 48 -76 48c-44 0 -95 -17 -127 -33l-30 118c47 32 125 52 200 52c125 0 213 -58 213 -152c0 -67 -54 -123 -121 -138v-2
c78 -13 142 -61 142 -142c0 -126 -135 -199 -280 -199c-72 0 -129 11 -159 24z" />
    <glyph glyph-name="four.taboldstyle" unicode="&#xf647;" horiz-adv-x="575" 
d="M546 23h-72v-151h-167v151h-281v116l223 353h225v-339h72v-130zM307 153v98c0 39 1 82 4 120h-5c-18 -39 -41 -86 -65 -125l-54 -88l2 -5h118z" />
    <glyph glyph-name="five.taboldstyle" unicode="&#xf648;" horiz-adv-x="575" 
d="M66 -109l19 124c22 -6 66 -12 109 -12c64 0 116 26 116 73c0 16 -5 31 -17 42c-23 23 -69 37 -206 35l54 339h344l-19 -145h-209l-13 -73c86 -3 159 -22 204 -65c30 -30 48 -68 48 -121c0 -119 -93 -218 -282 -218c-62 0 -119 11 -148 21z" />
    <glyph glyph-name="six.taboldstyle" unicode="&#xf649;" horiz-adv-x="575" 
d="M483 620l10 -127c-174 -3 -246 -62 -263 -114l2 -1c21 17 60 36 112 36c110 0 197 -70 197 -195c0 -130 -113 -230 -254 -230c-159 0 -252 108 -252 264c0 213 163 369 448 367zM292 121c34 0 70 28 70 89c0 52 -30 89 -73 89c-31 0 -52 -12 -69 -33c-6 -7 -9 -24 -9 -38
c0 -67 28 -107 81 -107z" />
    <glyph glyph-name="seven.taboldstyle" unicode="&#xf64a;" horiz-adv-x="575" 
d="M508 492v-108c-57 -143 -165 -357 -265 -511l-174 18c87 130 199 318 255 452v2h-268v147h452z" />
    <glyph glyph-name="eight.taboldstyle" unicode="&#xf64b;" horiz-adv-x="575" 
d="M431 333v-5c55 -25 111 -69 111 -145c0 -114 -107 -194 -263 -194c-150 0 -248 73 -248 178c0 66 42 118 106 146v5c-53 28 -85 70 -85 125c0 104 91 179 241 179c155 0 225 -81 225 -160c0 -67 -44 -107 -87 -129zM292 513c-43 0 -64 -29 -64 -60s30 -61 80 -75
c26 10 49 37 49 69c0 42 -30 66 -65 66zM286 108c40 0 69 28 69 64c0 41 -37 75 -86 88c-38 -12 -59 -43 -59 -79c0 -40 31 -73 76 -73z" />
    <glyph glyph-name="nine.taboldstyle" unicode="&#xf64c;" horiz-adv-x="575" 
d="M82 -124l-10 126c166 6 241 50 270 121l-2 1c-22 -19 -66 -38 -118 -38c-114 0 -193 84 -193 193c0 134 112 230 257 230c158 0 249 -118 249 -264c0 -273 -219 -373 -453 -369zM283 203c23 0 50 14 64 35c6 8 9 25 9 43c0 53 -28 94 -75 94c-40 0 -73 -31 -73 -87
c0 -52 31 -85 75 -85z" />
    <glyph glyph-name="dollar.taboldstyle" unicode="&#xf653;" horiz-adv-x="575" 
d="M337 -90h-102v86c-65 4 -130 23 -169 47l35 118c34 -20 103 -41 152 -41c41 0 64 7 64 27c0 14 -9 25 -77 47c-120 37 -161 80 -161 152s60 125 160 143v96h103v-90c58 -3 109 -17 141 -33l-34 -115c-26 14 -77 32 -126 32c-38 0 -63 -8 -63 -25s10 -24 84 -47
c124 -37 163 -84 163 -152c0 -70 -56 -133 -170 -153v-92z" />
    <glyph glyph-name="cent.taboldstyle" unicode="&#xf654;" horiz-adv-x="575" 
d="M439 164l18 -112c-21 -8 -58 -16 -92 -17v-74h-100v77c-112 17 -188 94 -188 208c0 101 66 192 188 216v75h100v-70c27 -1 61 -7 86 -14l-23 -114c-18 8 -46 13 -77 13c-66 0 -108 -37 -108 -100c0 -70 51 -100 110 -100c35 0 63 4 86 12z" />
    <glyph glyph-name="Euro.taboldstyle" unicode="&#xf64e;" horiz-adv-x="575" 
d="M510 141l15 -119c-31 -18 -88 -33 -151 -33c-80 0 -150 27 -198 77c-29 29 -51 67 -64 111h-67v77h55c0 9 -1 16 -1 20s0 13 1 20h-54v76h67c12 43 36 80 64 110c52 51 128 80 211 80c61 0 112 -15 136 -25l-32 -120c-16 7 -48 17 -87 17c-38 0 -72 -11 -96 -35
c-7 -7 -13 -17 -18 -27h190v-76h-210c-1 -8 -1 -15 -1 -19c0 -6 1 -12 0 -21h210v-77h-189c5 -9 10 -16 17 -23c23 -24 59 -34 98 -34c38 0 82 9 104 21z" />
    <glyph glyph-name="florin.taboldstyle" unicode="&#xf64f;" horiz-adv-x="575" 
d="M117 250v104h85l6 50c5 53 39 218 228 218c35 0 70 -7 88 -17l-27 -126c-11 5 -26 8 -45 8c-41 0 -63 -24 -69 -69l-8 -64h97v-104h-109l-21 -161c-15 -119 -56 -220 -208 -219c-45 0 -82 9 -97 17l24 124c13 -4 28 -6 43 -7c44 1 59 17 74 136l12 110h-73z" />
    <glyph glyph-name="sterling.taboldstyle" unicode="&#xf651;" horiz-adv-x="575" 
d="M530 0h-473v94c58 22 105 63 105 119c0 8 0 14 -1 21h-91v96h71c-3 12 -4 26 -4 39c0 115 84 215 241 215c50 0 97 -11 121 -24l-26 -130c-21 11 -54 17 -83 17c-58 0 -86 -36 -86 -82c0 -13 0 -24 2 -35h141v-96h-124c0 -2 -1 -5 -1 -8c-5 -43 -32 -70 -51 -84v-2h259
v-140z" />
    <glyph glyph-name="yen.taboldstyle" unicode="&#xf652;" horiz-adv-x="575" 
d="M367 0h-169v100h-149v81h149v48h-149v81h112l-145 238h185l44 -113c17 -42 29 -71 43 -109h1c15 36 27 69 43 109l45 113h180l-151 -238h112v-81h-151v-48h151v-81h-151v-100z" />
    <glyph glyph-name="numbersign.taboldstyle" unicode="&#xf650;" horiz-adv-x="575" 
d="M243 250h85l15 98h-86zM202 -10h-103l23 153h-81v107h100l15 98h-84v107h100l22 148h101l-22 -148h87l22 148h102l-22 -148h79v-107h-96l-15 -98h81v-107h-99l-22 -153h-103l23 153h-86z" />
    <glyph glyph-name="zero.superior" unicode="&#x2070;" horiz-adv-x="396" 
d="M197 437c-126 0 -177 96 -177 202c0 101 48 199 176 199c125 0 180 -95 180 -202c0 -96 -48 -199 -179 -199zM199 527c27 0 47 31 47 110c0 80 -21 111 -49 111c-29 0 -47 -33 -47 -111c0 -77 19 -110 49 -110z" />
    <glyph glyph-name="one.superior" horiz-adv-x="324" 
d="M260 443h-138v280h-1l-83 -35l-17 96l120 49h119v-390z" />
    <glyph glyph-name="two.superior" horiz-adv-x="369" 
d="M17 443v65l61 53c73 64 112 92 112 132c0 24 -20 39 -51 39c-32 0 -64 -11 -87 -26l-35 89c36 24 91 43 156 43c102 0 161 -50 161 -124c0 -70 -54 -112 -107 -153l-21 -16v-2h135v-100h-324z" />
    <glyph glyph-name="three.superior" horiz-adv-x="366" 
d="M48 721l-24 84c31 18 89 32 151 32c101 0 154 -43 154 -100c0 -45 -37 -75 -85 -88v-2c55 -5 99 -39 100 -90c0 -73 -77 -119 -191 -119c-56 0 -112 11 -143 28l25 90c22 -12 65 -26 100 -26c33 0 64 11 64 36c0 26 -37 41 -79 40h-31v78h29c32 0 71 7 71 32
c0 18 -15 29 -48 29c-35 0 -72 -13 -93 -24z" />
    <glyph glyph-name="four.superior" unicode="&#x2074;" horiz-adv-x="413" 
d="M341 443h-126v85h-193v73l160 235h159v-223h50v-85h-50v-85zM215 613v54c0 27 3 52 5 79h-3c-13 -26 -25 -50 -37 -69l-38 -63l3 -1h70z" />
    <glyph glyph-name="five.superior" unicode="&#x2075;" horiz-adv-x="365" 
d="M313 833v-98h-164l-5 -34c6 1 18 1 24 1c42 0 90 -8 122 -31c28 -20 45 -53 45 -94c0 -77 -69 -139 -189 -139c-45 0 -99 10 -124 21l19 90c19 -8 60 -19 98 -19c28 0 70 8 70 41c0 30 -28 48 -113 48c-19 0 -40 -2 -56 -3l27 217h246z" />
    <glyph glyph-name="six.superior" unicode="&#x2076;" horiz-adv-x="376" 
d="M307 835v-91c-9 2 -24 3 -36 2c-71 -1 -111 -21 -127 -59l2 -1c20 12 51 21 82 21c74 0 128 -46 128 -124c0 -95 -82 -145 -161 -145c-126 0 -174 91 -174 173c0 66 25 127 70 167c44 39 97 57 177 58c15 1 31 0 39 -1zM193 527c23 0 40 22 40 49c0 23 -10 51 -48 51
c-22 0 -38 -14 -43 -29c-1 -5 -2 -11 -2 -19c0 -23 18 -52 53 -52z" />
    <glyph glyph-name="seven.superior" unicode="&#x2077;" horiz-adv-x="350" 
d="M25 833h309v-74l-162 -316h-132l164 291v1h-179v98z" />
    <glyph glyph-name="eight.superior" unicode="&#x2078;" horiz-adv-x="375" 
d="M189 838c102 0 146 -54 146 -103c0 -37 -24 -67 -56 -82v-1c30 -11 73 -39 73 -93c0 -69 -60 -121 -169 -121c-120 0 -160 65 -160 109c0 46 31 74 71 90v2c-36 18 -59 49 -59 85c0 69 67 114 154 114zM189 520c21 0 39 13 39 34c0 29 -27 42 -47 47
c-24 -9 -36 -21 -36 -42c0 -20 18 -39 44 -39zM184 758c-23 0 -36 -14 -36 -32c0 -17 19 -32 46 -41c16 4 29 19 29 36c0 20 -14 37 -39 37z" />
    <glyph glyph-name="nine.superior" unicode="&#x2079;" horiz-adv-x="372" 
d="M58 440v91c11 -2 27 -2 37 -2c29 1 60 5 81 14c27 12 45 32 51 50l-2 1c-13 -10 -38 -20 -73 -20c-65 0 -131 39 -131 123c0 81 71 141 161 141c122 0 169 -90 169 -171c0 -73 -23 -133 -68 -172c-46 -40 -108 -56 -189 -57c-12 0 -28 1 -36 2zM183 749
c-20 0 -40 -18 -40 -47c0 -22 12 -49 45 -49c20 0 32 9 37 18c3 5 4 13 4 23c0 26 -11 55 -46 55z" />
    <glyph glyph-name="period.superior" unicode="&#xf6e8;" horiz-adv-x="189" 
d="M94 438c-43 0 -72 30 -72 72c0 43 30 72 73 72c44 0 73 -29 73 -72c0 -42 -30 -72 -74 -72z" />
    <glyph glyph-name="comma.superior" unicode="&#xf6e2;" horiz-adv-x="189" 
d="M75 383l-86 -6c25 71 41 131 52 198l128 5c-25 -72 -53 -132 -94 -197z" />
    <glyph glyph-name="dollar.superior" unicode="&#xf6e4;" horiz-adv-x="368" 
d="M220 392h-74v53c-47 3 -92 15 -117 28l21 90c32 -15 71 -28 117 -28c35 0 52 7 52 23s-12 21 -66 37c-74 23 -121 49 -121 114c0 57 41 101 115 115v53h74v-48c39 -1 78 -11 99 -20l-21 -88c-17 7 -52 23 -101 23c-37 0 -45 -11 -45 -21c0 -15 13 -22 76 -40
c83 -23 112 -58 112 -115s-43 -104 -121 -117v-59z" />
    <glyph glyph-name="cent.superior" unicode="&#xf6e0;" horiz-adv-x="336" 
d="M239 439h-75v56c-39 6 -71 24 -94 49c-22 25 -34 60 -34 97c0 67 41 134 128 152v53h75v-49c14 -1 34 -3 54 -9l-18 -88c-12 5 -28 8 -47 8c-43 0 -67 -22 -67 -62c0 -46 33 -64 69 -64c20 0 38 3 54 8l14 -85c-18 -8 -39 -11 -59 -13v-53z" />
    <glyph glyph-name="hyphen.superior" unicode="&#xf6e6;" horiz-adv-x="213" 
d="M18 671h177v-82h-177v82z" />
    <glyph glyph-name="parenleft.superior" unicode="&#x207d;" horiz-adv-x="215" 
d="M108 868h86c-23 -49 -53 -135 -53 -237c0 -106 29 -186 53 -238h-86c-28 43 -66 124 -66 238s39 196 66 237z" />
    <glyph glyph-name="parenright.superior" unicode="&#x207e;" horiz-adv-x="215" 
d="M107 393h-86c24 54 53 135 53 238s-29 187 -53 237h86c28 -43 66 -123 66 -238c0 -112 -38 -192 -66 -237z" />
    <glyph glyph-name="zero.inferior" unicode="&#x2080;" horiz-adv-x="396" 
d="M197 -152c-126 0 -177 95 -177 201c0 101 48 199 176 199c125 0 180 -94 180 -202c0 -96 -48 -198 -179 -198zM199 -62c27 0 47 31 47 109c0 80 -21 111 -49 111c-29 0 -47 -33 -47 -111c0 -77 19 -109 49 -109z" />
    <glyph glyph-name="one.inferior" unicode="&#x2081;" horiz-adv-x="324" 
d="M260 -147h-138v280h-1l-83 -35l-17 96l120 49h119v-390z" />
    <glyph glyph-name="two.inferior" unicode="&#x2082;" horiz-adv-x="369" 
d="M17 -147v65l61 54c73 63 112 91 112 131c0 24 -20 39 -51 39c-32 0 -64 -11 -87 -26l-35 89c36 24 91 43 156 43c102 0 161 -50 161 -124c0 -70 -54 -112 -107 -153l-21 -16v-2h135v-100h-324z" />
    <glyph glyph-name="three.inferior" unicode="&#x2083;" horiz-adv-x="366" 
d="M48 132l-24 84c31 18 89 32 151 32c101 0 154 -43 154 -100c0 -45 -37 -75 -85 -89v-2c55 -5 99 -39 100 -90c0 -73 -77 -119 -191 -119c-56 0 -112 11 -143 29l25 89c22 -12 65 -26 100 -26c33 0 64 11 64 36c0 26 -37 41 -79 41h-31v78h29c32 0 71 7 71 32
c0 18 -15 29 -48 29c-35 0 -72 -13 -93 -24z" />
    <glyph glyph-name="four.inferior" unicode="&#x2084;" horiz-adv-x="413" 
d="M341 -147h-126v85h-193v73l160 236h159v-224h50v-85h-50v-85zM215 23v55c0 26 3 52 5 79h-3c-13 -26 -25 -50 -37 -70l-38 -63l3 -1h70z" />
    <glyph glyph-name="five.inferior" unicode="&#x2085;" horiz-adv-x="365" 
d="M313 243v-98h-164l-5 -33c6 1 18 1 24 1c42 0 90 -8 122 -31c28 -20 45 -53 45 -95c0 -77 -69 -139 -189 -139c-45 0 -99 10 -124 21l19 90c19 -8 60 -19 98 -19c28 0 70 8 70 42c0 30 -28 48 -113 48c-19 0 -40 -2 -56 -3l27 216h246z" />
    <glyph glyph-name="six.inferior" unicode="&#x2086;" horiz-adv-x="376" 
d="M307 246v-91c-9 2 -24 3 -36 3c-71 -2 -111 -22 -127 -60l2 -1c20 12 51 21 82 21c74 0 128 -46 128 -125c0 -95 -82 -145 -161 -145c-126 0 -174 91 -174 174c0 66 25 127 70 167c44 39 97 57 177 59c15 0 31 0 39 -2zM193 -63c23 0 40 22 40 49c0 24 -10 52 -48 52
c-22 0 -38 -14 -43 -29c-1 -5 -2 -11 -2 -19c0 -24 18 -53 53 -53z" />
    <glyph glyph-name="seven.inferior" unicode="&#x2087;" horiz-adv-x="350" 
d="M25 243h309v-74l-162 -316h-132l164 291v1h-179v98z" />
    <glyph glyph-name="eight.inferior" unicode="&#x2088;" horiz-adv-x="375" 
d="M189 248c102 0 146 -54 146 -103c0 -37 -24 -67 -56 -82v-1c30 -11 73 -39 73 -93c0 -69 -60 -121 -169 -121c-120 0 -160 65 -160 109c0 46 31 74 71 90v2c-36 18 -59 49 -59 85c0 69 67 114 154 114zM189 -70c21 0 39 13 39 34c0 29 -27 42 -47 47
c-24 -9 -36 -21 -36 -42c0 -20 18 -39 44 -39zM184 168c-23 0 -36 -14 -36 -32c0 -17 19 -32 46 -41c16 4 29 19 29 36c0 20 -14 37 -39 37z" />
    <glyph glyph-name="nine.inferior" unicode="&#x2089;" horiz-adv-x="372" 
d="M58 -150v91c11 -2 27 -3 37 -2c29 0 60 5 81 14c27 13 45 33 51 51l-2 1c-13 -10 -38 -20 -73 -20c-65 0 -131 39 -131 122c0 81 71 141 161 141c122 0 169 -90 169 -170c0 -73 -23 -134 -68 -173c-46 -40 -108 -56 -189 -57c-12 -1 -28 1 -36 2zM183 159
c-20 0 -40 -17 -40 -46c0 -22 12 -49 45 -49c20 0 32 9 37 18c3 5 4 13 4 23c0 25 -11 54 -46 54z" />
    <glyph glyph-name="period.inferior" unicode="&#xf6e7;" horiz-adv-x="189" 
d="M94 -152c-43 0 -72 30 -72 72c0 43 30 72 73 72c44 0 73 -29 73 -72c0 -42 -30 -72 -74 -72z" />
    <glyph glyph-name="comma.inferior" unicode="&#xf6e1;" horiz-adv-x="189" 
d="M75 -206l-86 -6c25 71 41 131 52 198l128 5c-25 -72 -53 -132 -94 -197z" />
    <glyph glyph-name="dollar.inferior" unicode="&#xf6e3;" horiz-adv-x="368" 
d="M220 -198h-74v53c-47 3 -92 15 -117 28l21 90c32 -15 71 -28 117 -28c35 0 52 7 52 23s-12 21 -66 37c-74 23 -121 49 -121 114c0 57 41 101 115 115v53h74v-48c39 -1 78 -11 99 -20l-21 -88c-17 7 -52 23 -101 23c-37 0 -45 -11 -45 -21c0 -15 13 -22 76 -40
c83 -23 112 -58 112 -115s-43 -104 -121 -117v-59z" />
    <glyph glyph-name="cent.inferior" unicode="&#xf6df;" horiz-adv-x="336" 
d="M239 -151h-75v56c-39 6 -71 24 -94 49c-22 25 -34 60 -34 97c0 68 41 135 128 153v53h75v-50c14 -1 34 -3 54 -9l-18 -88c-12 5 -28 8 -47 8c-43 0 -67 -22 -67 -62c0 -46 33 -64 69 -62c20 0 38 2 54 8l14 -85c-18 -8 -39 -11 -59 -13v-55z" />
    <glyph glyph-name="hyphen.inferior" unicode="&#xf6e5;" horiz-adv-x="213" 
d="M18 82h177v-82h-177v82z" />
    <glyph glyph-name="parenleft.inferior" unicode="&#x208d;" horiz-adv-x="215" 
d="M108 279h86c-23 -49 -53 -135 -53 -237c0 -106 29 -186 53 -238h-86c-28 43 -66 124 -66 238s39 196 66 237z" />
    <glyph glyph-name="parenright.inferior" unicode="&#x208e;" horiz-adv-x="215" 
d="M107 -196h-86c24 54 53 135 53 238s-29 187 -53 237h86c28 -43 66 -123 66 -238c0 -112 -38 -192 -66 -237z" />
    <glyph glyph-name="zero.numerator" unicode="&#xf661;" horiz-adv-x="396" 
d="M197 261c-126 0 -177 95 -177 201c0 101 48 199 176 199c125 0 180 -95 180 -202c0 -96 -48 -198 -179 -198zM199 351c27 0 47 31 47 109c0 80 -21 111 -49 111c-29 0 -47 -33 -47 -111c0 -77 19 -109 49 -109z" />
    <glyph glyph-name="one.numerator" unicode="&#xf662;" horiz-adv-x="324" 
d="M260 266h-138v280h-1l-83 -35l-17 96l120 49h119v-390z" />
    <glyph glyph-name="two.numerator" unicode="&#xf663;" horiz-adv-x="369" 
d="M17 266v65l61 53c73 64 112 92 112 132c0 24 -20 39 -51 39c-32 0 -64 -11 -87 -26l-35 89c36 24 91 43 156 43c102 0 161 -50 161 -124c0 -70 -54 -112 -107 -153l-21 -16v-2h135v-100h-324z" />
    <glyph glyph-name="three.numerator" unicode="&#xf664;" horiz-adv-x="366" 
d="M48 545l-24 84c31 18 89 32 151 32c101 0 154 -43 154 -100c0 -45 -37 -75 -85 -89v-2c55 -5 99 -39 100 -90c0 -73 -77 -119 -191 -119c-56 0 -112 11 -143 29l25 89c22 -12 65 -26 100 -26c33 0 64 11 64 36c0 26 -37 41 -79 41h-31v78h29c32 0 71 7 71 32
c0 18 -15 29 -48 29c-35 0 -72 -13 -93 -24z" />
    <glyph glyph-name="four.numerator" unicode="&#xf665;" horiz-adv-x="413" 
d="M341 266h-126v85h-193v73l160 236h159v-224h50v-85h-50v-85zM215 436v55c0 26 3 52 5 79h-3c-13 -26 -25 -50 -37 -70l-38 -63l3 -1h70z" />
    <glyph glyph-name="five.numerator" unicode="&#xf666;" horiz-adv-x="365" 
d="M313 656v-98h-164l-5 -33c6 1 18 1 24 1c42 0 90 -8 122 -31c28 -20 45 -53 45 -95c0 -77 -69 -139 -189 -139c-45 0 -99 10 -124 21l19 90c19 -8 60 -19 98 -19c28 0 70 8 70 42c0 30 -28 48 -113 48c-19 0 -40 -2 -56 -3l27 216h246z" />
    <glyph glyph-name="six.numerator" unicode="&#xf667;" horiz-adv-x="376" 
d="M307 659v-91c-9 2 -24 3 -36 3c-71 -2 -111 -22 -127 -60l2 -1c20 12 51 21 82 21c74 0 128 -46 128 -125c0 -95 -82 -145 -161 -145c-126 0 -174 91 -174 174c0 66 25 127 70 167c44 39 97 57 177 59c15 0 31 0 39 -2zM193 350c23 0 40 22 40 49c0 24 -10 52 -48 52
c-22 0 -38 -14 -43 -29c-1 -5 -2 -11 -2 -19c0 -24 18 -53 53 -53z" />
    <glyph glyph-name="seven.numerator" unicode="&#xf668;" horiz-adv-x="350" 
d="M25 656h309v-74l-162 -316h-132l164 291v1h-179v98z" />
    <glyph glyph-name="eight.numerator" unicode="&#xf669;" horiz-adv-x="375" 
d="M189 661c102 0 146 -54 146 -103c0 -37 -24 -67 -56 -82v-1c30 -11 73 -39 73 -93c0 -69 -60 -121 -169 -121c-120 0 -160 65 -160 109c0 46 31 74 71 90v2c-36 18 -59 49 -59 85c0 69 67 114 154 114zM189 343c21 0 39 13 39 34c0 29 -27 42 -47 47
c-24 -9 -36 -21 -36 -42c0 -20 18 -39 44 -39zM184 581c-23 0 -36 -14 -36 -32c0 -17 19 -32 46 -41c16 4 29 19 29 36c0 20 -14 37 -39 37z" />
    <glyph glyph-name="nine.numerator" unicode="&#xf66a;" horiz-adv-x="372" 
d="M58 263v91c11 -2 27 -3 37 -2c29 0 60 5 81 14c27 13 45 33 51 51l-2 1c-13 -10 -38 -20 -73 -20c-65 0 -131 39 -131 122c0 81 71 141 161 141c122 0 169 -90 169 -170c0 -73 -23 -134 -68 -173c-46 -40 -108 -56 -189 -57c-12 -1 -28 1 -36 2zM183 572
c-20 0 -40 -18 -40 -46c0 -23 12 -49 45 -49c20 0 32 9 37 18c3 5 4 13 4 23c0 25 -11 54 -46 54z" />
    <glyph glyph-name="period.numerator" unicode="&#xf66c;" horiz-adv-x="189" 
d="M94 261c-43 0 -72 30 -72 72c0 43 30 72 73 72c44 0 73 -29 73 -72c0 -42 -30 -72 -74 -72z" />
    <glyph glyph-name="comma.numerator" unicode="&#xf66b;" horiz-adv-x="189" 
d="M75 207l-86 -6c25 71 41 131 52 198l128 5c-25 -72 -53 -132 -94 -197z" />
    <glyph glyph-name="dollar.numerator" unicode="&#xf62f;" horiz-adv-x="368" 
d="M220 215h-74v53c-47 3 -92 15 -117 28l21 90c32 -15 71 -28 117 -28c35 0 52 7 52 23s-12 22 -66 37c-74 23 -121 49 -121 114c0 57 41 101 115 115v53h74v-48c39 -1 78 -11 99 -20l-21 -87c-17 7 -52 22 -101 22c-37 0 -45 -10 -45 -21c0 -14 13 -22 76 -40
c83 -23 112 -58 112 -115s-43 -104 -121 -117v-59z" />
    <glyph glyph-name="cent.numerator" unicode="&#xf62e;" horiz-adv-x="336" 
d="M239 263h-75v56c-39 6 -71 24 -94 49c-22 25 -34 60 -34 97c0 67 41 134 128 152v53h75v-50c14 -1 34 -3 54 -9l-18 -88c-12 5 -28 8 -47 8c-43 0 -67 -22 -67 -61c0 -46 33 -64 69 -64c20 0 38 3 54 8l14 -85c-18 -8 -39 -11 -59 -13v-53z" />
    <glyph glyph-name="hyphen.numerator" unicode="&#xf630;" horiz-adv-x="213" 
d="M18 493h177v-82h-177v82z" />
    <glyph glyph-name="parenleft.numerator" unicode="&#xf631;" horiz-adv-x="215" 
d="M108 692h86c-23 -49 -53 -135 -53 -237c0 -106 29 -186 53 -238h-86c-28 43 -66 124 -66 238s39 196 66 237z" />
    <glyph glyph-name="parenright.numerator" unicode="&#xf632;" horiz-adv-x="215" 
d="M107 217h-86c24 54 53 135 53 238s-29 187 -53 237h86c28 -43 66 -123 66 -238c0 -112 -38 -192 -66 -237z" />
    <glyph glyph-name="zero.denominator" unicode="&#xf655;" horiz-adv-x="396" 
d="M197 -5c-126 0 -177 95 -177 201c0 101 48 199 176 199c125 0 180 -95 180 -202c0 -96 -48 -198 -179 -198zM199 85c27 0 47 31 47 109c0 80 -21 111 -49 111c-29 0 -47 -33 -47 -111c0 -77 19 -109 49 -109z" />
    <glyph glyph-name="one.denominator" unicode="&#xf656;" horiz-adv-x="324" 
d="M260 0h-138v280h-1l-83 -35l-17 96l120 49h119v-390z" />
    <glyph glyph-name="two.denominator" unicode="&#xf657;" horiz-adv-x="369" 
d="M17 0v65l61 54c73 63 112 91 112 131c0 24 -20 39 -51 39c-32 0 -64 -11 -87 -26l-35 89c36 24 91 43 156 43c102 0 161 -50 161 -124c0 -70 -54 -112 -107 -153l-21 -16v-2h135v-100h-324z" />
    <glyph glyph-name="three.denominator" unicode="&#xf658;" horiz-adv-x="366" 
d="M48 279l-24 84c31 18 89 32 151 32c101 0 154 -43 154 -100c0 -45 -37 -75 -85 -89v-2c55 -5 99 -39 100 -90c0 -73 -77 -119 -191 -119c-56 0 -112 11 -143 29l25 89c22 -12 65 -26 100 -26c33 0 64 11 64 36c0 26 -37 41 -79 41h-31v78h29c32 0 71 7 71 32
c0 18 -15 29 -48 29c-35 0 -72 -13 -93 -24z" />
    <glyph glyph-name="four.denominator" unicode="&#xf659;" horiz-adv-x="413" 
d="M341 0h-126v85h-193v73l160 236h159v-224h50v-85h-50v-85zM215 170v55c0 26 3 52 5 79h-3c-13 -26 -25 -50 -37 -70l-38 -63l3 -1h70z" />
    <glyph glyph-name="five.denominator" unicode="&#xf65a;" horiz-adv-x="365" 
d="M313 390v-98h-164l-5 -33c6 1 18 1 24 1c42 0 90 -8 122 -31c28 -20 45 -53 45 -95c0 -77 -69 -139 -189 -139c-45 0 -99 10 -124 21l19 90c19 -8 60 -19 98 -19c28 0 70 8 70 42c0 30 -28 48 -113 48c-19 0 -40 -2 -56 -3l27 216h246z" />
    <glyph glyph-name="six.denominator" unicode="&#xf65b;" horiz-adv-x="376" 
d="M307 393v-91c-9 2 -24 3 -36 2c-71 -1 -111 -21 -127 -59l2 -1c20 12 51 21 82 21c74 0 128 -46 128 -125c0 -95 -82 -145 -161 -145c-126 0 -174 91 -174 174c0 66 25 127 70 167c44 39 97 57 177 58c15 1 31 0 39 -1zM193 84c23 0 40 22 40 49c0 24 -10 52 -48 52
c-22 0 -38 -14 -43 -29c-1 -5 -2 -11 -2 -19c0 -24 18 -53 53 -53z" />
    <glyph glyph-name="seven.denominator" unicode="&#xf65c;" horiz-adv-x="350" 
d="M25 390h309v-74l-162 -316h-132l164 291v1h-179v98z" />
    <glyph glyph-name="eight.denominator" unicode="&#xf65d;" horiz-adv-x="375" 
d="M189 395c102 0 146 -54 146 -103c0 -36 -24 -66 -56 -81v-1c30 -11 73 -39 73 -93c0 -70 -60 -122 -169 -122c-120 0 -160 65 -160 109c0 46 31 74 71 91v2c-36 18 -59 49 -59 84c0 69 67 114 154 114zM189 77c21 0 39 13 39 35c0 28 -27 41 -47 46
c-24 -8 -36 -21 -36 -42c0 -20 18 -39 44 -39zM184 315c-23 0 -36 -14 -36 -31c0 -18 19 -32 46 -41c16 4 29 19 29 36c0 20 -14 36 -39 36z" />
    <glyph glyph-name="nine.denominator" unicode="&#xf65e;" horiz-adv-x="372" 
d="M58 -3v91c11 -2 27 -3 37 -2c29 0 60 5 81 14c27 13 45 33 51 51l-2 1c-13 -10 -38 -20 -73 -20c-65 0 -131 39 -131 122c0 81 71 141 161 141c122 0 169 -90 169 -170c0 -73 -23 -134 -68 -173c-46 -40 -108 -56 -189 -57c-12 -1 -28 1 -36 2zM183 306
c-20 0 -40 -18 -40 -46c0 -23 12 -49 45 -49c20 0 32 9 37 18c3 5 4 13 4 23c0 25 -11 54 -46 54z" />
    <glyph glyph-name="period.denominator" unicode="&#xf660;" horiz-adv-x="189" 
d="M94 -5c-43 0 -72 30 -72 72c0 43 30 72 73 72c44 0 73 -29 73 -72c0 -42 -30 -72 -74 -72z" />
    <glyph glyph-name="comma.denominator" unicode="&#xf65f;" horiz-adv-x="189" 
d="M75 -59l-86 -6c25 71 41 131 52 198l128 5c-25 -72 -53 -132 -94 -197z" />
    <glyph glyph-name="dollar.denominator" unicode="&#xf62a;" horiz-adv-x="368" 
d="M220 -51h-74v53c-47 3 -92 15 -117 28l21 90c32 -15 71 -28 117 -28c35 0 52 7 52 23s-12 21 -66 37c-74 23 -121 49 -121 114c0 57 41 101 115 115v53h74v-48c39 -1 78 -11 99 -20l-21 -88c-17 7 -52 23 -101 23c-37 0 -45 -11 -45 -21c0 -15 13 -22 76 -40
c83 -23 112 -58 112 -115s-43 -104 -121 -117v-59z" />
    <glyph glyph-name="cent.denominator" unicode="&#xf629;" horiz-adv-x="336" 
d="M239 -4h-75v56c-39 6 -71 24 -94 49c-22 25 -34 60 -34 97c0 68 41 135 128 153v53h75v-50c14 -1 34 -3 54 -9l-18 -88c-12 5 -28 8 -47 8c-43 0 -67 -22 -67 -62c0 -46 33 -64 69 -63c20 0 38 3 54 8l14 -85c-18 -8 -39 -11 -59 -13v-54z" />
    <glyph glyph-name="hyphen.denominator" unicode="&#xf62b;" horiz-adv-x="213" 
d="M18 228h177v-82h-177v82z" />
    <glyph glyph-name="parenleft.denominator" unicode="&#xf62c;" horiz-adv-x="215" 
d="M108 426h86c-23 -49 -53 -135 -53 -237c0 -106 29 -186 53 -238h-86c-28 43 -66 124 -66 238s39 196 66 237z" />
    <glyph glyph-name="parenright.denominator" unicode="&#xf62d;" horiz-adv-x="215" 
d="M107 -49h-86c24 54 53 135 53 238s-29 187 -53 237h86c28 -43 66 -123 66 -238c0 -112 -38 -192 -66 -237z" />
    <glyph glyph-name="at.cap" unicode="&#xf633;" horiz-adv-x="784" 
d="M440 341l12 86c-7 2 -15 3 -23 3c-56 0 -99 -57 -99 -125c0 -35 14 -55 41 -55c29 0 61 35 69 91zM537 87l18 -64c-62 -26 -112 -34 -185 -34c-166 0 -316 119 -316 316c0 203 152 381 378 381c177 0 307 -122 307 -291c0 -144 -81 -238 -195 -238c-50 0 -82 24 -90 73
h-3c-29 -47 -72 -73 -123 -73c-67 0 -114 50 -114 133c0 121 87 230 233 230c45 0 100 -12 123 -26l-27 -187c-8 -50 -3 -74 23 -75c39 -2 91 47 91 162c0 124 -82 224 -236 224c-149 0 -282 -116 -282 -302c0 -168 106 -258 255 -258c48 0 103 10 143 29z" />
    <glyph glyph-name="emdash.cap" unicode="&#xf6bc;" horiz-adv-x="1000" 
d="M30 384h940v-109h-940v109z" />
    <glyph glyph-name="endash.cap" unicode="&#xf6bb;" horiz-adv-x="500" 
d="M30 384h440v-109h-440v109z" />
    <glyph glyph-name="exclamdown.cap" unicode="&#xf6b4;" horiz-adv-x="284" 
d="M235 0h-185l26 441h134zM143 686c60 0 102 -43 102 -103c-1 -61 -41 -104 -102 -104s-103 43 -103 104c0 60 42 103 103 103z" />
    <glyph glyph-name="guillemotleft.cap" unicode="&#xf6b6;" horiz-adv-x="484" 
d="M255 521l-113 -193l113 -194h-121l-108 194l108 193h121zM462 521l-113 -193l113 -194h-121l-108 194l108 193h121z" />
    <glyph glyph-name="guillemotright.cap" unicode="&#xf6b7;" horiz-adv-x="484" 
d="M136 328l-113 193h119l110 -193l-110 -194h-119zM340 328l-113 193h119l110 -193l-110 -194h-119z" />
    <glyph glyph-name="guilsinglleft.cap" unicode="&#xf6b8;" horiz-adv-x="277" 
d="M255 521l-113 -193l113 -194h-121l-108 194l108 193h121z" />
    <glyph glyph-name="guilsinglright.cap" unicode="&#xf6b9;" horiz-adv-x="277" 
d="M135 328l-113 193h119l110 -193l-110 -194h-119z" />
    <glyph glyph-name="hyphen.cap" unicode="&#xf6ba;" horiz-adv-x="328" 
d="M30 393h268v-117h-268v117z" />
    <glyph glyph-name="questiondown.cap" unicode="&#xf6b5;" horiz-adv-x="463" 
d="M252 686h2c60 0 101 -43 101 -103c0 -61 -40 -104 -102 -104c-61 0 -102 43 -103 104c0 60 42 103 102 103zM171 445h156v-25c2 -50 -14 -100 -57 -151c-27 -32 -53 -62 -53 -91c0 -28 19 -47 63 -48c32 0 72 11 99 29l37 -129c-37 -20 -98 -41 -177 -41
c-139 0 -203 74 -203 159c0 81 52 131 86 168c33 35 48 72 48 115z" />
    <glyph glyph-name="braceleft.cap" unicode="&#xf6b2;" horiz-adv-x="328" 
d="M31 280v88c68 4 74 38 74 66c0 23 -2 49 -5 75c-3 27 -5 53 -5 77c0 96 58 137 155 137h42v-98h-18c-39 -1 -53 -25 -53 -64c0 -15 2 -32 4 -51c2 -18 4 -40 4 -65c1 -80 -30 -108 -91 -120v-2c60 -12 92 -39 91 -119c0 -26 -2 -48 -4 -67s-4 -35 -4 -49
c0 -40 12 -65 53 -66h18v-97h-42c-93 0 -155 37 -155 136c0 24 2 50 6 77c2 27 4 53 4 77c0 26 -6 61 -74 65z" />
    <glyph glyph-name="braceright.cap" unicode="&#xf6b3;" horiz-adv-x="328" 
d="M297 368v-88c-68 -4 -74 -39 -74 -65c0 -24 2 -50 4 -77c3 -27 5 -53 5 -77c0 -99 -62 -136 -155 -136h-42v97h18c41 1 53 26 53 66c0 14 -2 30 -3 49c-2 19 -4 41 -4 67c-1 80 30 107 91 119v2c-60 12 -92 40 -91 120c0 25 2 47 3 65c2 19 4 36 4 51c0 39 -14 63 -53 64
h-18v98h42c97 0 155 -41 155 -137c0 -24 -2 -50 -5 -77c-2 -26 -4 -52 -4 -75c0 -28 6 -62 74 -66z" />
    <glyph glyph-name="bracketleft.cap" unicode="&#xf6b0;" horiz-adv-x="328" 
d="M276 -75h-213v798h213v-97h-86v-604h86v-97z" />
    <glyph glyph-name="bracketright.cap" unicode="&#xf6b1;" horiz-adv-x="328" 
d="M52 723h213v-798h-213v97h86v604h-86v97z" />
    <glyph glyph-name="parenleft.cap" unicode="&#xf6ae;" horiz-adv-x="328" 
d="M164 727h122c-49 -90 -90 -225 -90 -403c0 -175 41 -311 90 -402h-122c-49 76 -107 210 -107 402c1 194 58 328 107 403z" />
    <glyph glyph-name="parenright.cap" unicode="&#xf6af;" horiz-adv-x="328" 
d="M163 -78h-122c49 90 90 228 90 403c0 176 -41 312 -90 402h122c49 -75 107 -208 107 -402c-1 -193 -58 -326 -107 -403z" />
    <glyph glyph-name="periodcentered.cap" unicode="&#xf6bd;" horiz-adv-x="283" 
d="M141 228c-60 0 -102 43 -102 105s43 105 103 105c61 0 102 -42 103 -105c0 -62 -41 -105 -104 -105z" />
    <glyph glyph-name="lessequal" unicode="&#x2264;" horiz-adv-x="596" 
d="M541 125l-486 170v105l486 169v-116l-336 -105v-2l336 -104v-117zM541 0h-486v100h486v-100z" />
    <glyph glyph-name="greaterequal" unicode="&#x2265;" horiz-adv-x="596" 
d="M541 295l-486 -170v117l336 104v2l-336 105v116l486 -169v-105zM541 0h-486v100h486v-100z" />
    <glyph glyph-name="approxequal" unicode="&#x2248;" horiz-adv-x="596" 
d="M514 443l65 -67c-35 -62 -95 -106 -166 -106c-52 0 -90 21 -122 36c-30 13 -61 34 -107 34c-50 0 -85 -35 -109 -65l-58 71c36 54 94 102 169 102c53 0 87 -21 119 -36c30 -13 61 -34 106 -34c51 0 86 43 103 65zM518 225l62 -63c-36 -65 -97 -110 -169 -110
c-49 0 -87 21 -119 36c-30 13 -62 34 -110 34c-45 0 -83 -35 -107 -65l-58 73c36 56 98 100 167 100c54 0 90 -21 122 -36c30 -13 61 -34 105 -34c52 0 87 36 107 65z" />
    <glyph glyph-name="notequal" unicode="&#x2260;" horiz-adv-x="596" 
d="M556 104h-309l-56 -93h-111l58 93h-98v108h167l70 110h-237v108h306l56 93h112l-59 -93h101v-108h-170l-70 -110h240v-108z" />
    <glyph glyph-name="infinity" unicode="&#x221e;" horiz-adv-x="763" 
d="M561 88c-74 0 -132 53 -182 101c-51 -48 -99 -101 -188 -101c-101 0 -168 77 -168 175c0 94 68 177 176 177c75 0 133 -53 183 -101c51 48 99 101 188 101c101 0 168 -77 168 -177c0 -92 -68 -175 -177 -175zM559 194c36 0 66 31 66 69c0 42 -29 71 -64 71
c-42 0 -76 -37 -109 -70c28 -27 63 -70 107 -70zM201 194c41 0 75 36 108 68c-28 28 -63 72 -106 72c-37 0 -67 -31 -67 -71c0 -41 29 -69 65 -69z" />
    <glyph glyph-name="lozenge" unicode="&#x25ca;" horiz-adv-x="596" 
d="M558 324l-195 -365h-131l-194 365l194 365h131zM416 320l-104 209c-5 9 -12 24 -15 33h-2c-4 -9 -11 -24 -16 -33l-100 -202l104 -208c5 -10 12 -25 15 -33h3c4 8 11 23 15 33z" />
    <glyph glyph-name="integral" unicode="&#x222b;" horiz-adv-x="377" 
d="M369 805l-15 -105c-11 3 -24 5 -37 5c-22 0 -40 -12 -49 -29c-12 -23 -18 -67 -18 -144c0 -155 16 -256 16 -433c0 -77 -10 -143 -30 -183c-32 -64 -89 -88 -147 -88c-31 0 -62 5 -78 13l19 109c10 -4 25 -6 39 -6c18 0 32 7 43 22c14 19 23 57 23 127
c0 181 -16 284 -16 450c0 112 21 174 64 222c31 33 76 48 123 48c26 0 51 -4 63 -8z" />
    <glyph glyph-name="partialdiff" unicode="&#x2202;" horiz-adv-x="375" 
d="M93 554l-51 121c28 18 100 59 208 59c180 0 312 -144 312 -362c0 -251 -142 -383 -311 -383c-158 0 -230 129 -230 228c0 139 84 250 223 250c75 0 120 -42 139 -69h1v8c0 97 -54 183 -159 183c-66 0 -112 -24 -132 -35zM272 132c49 0 88 68 95 134c-6 25 -33 63 -78 63
c-53 0 -87 -51 -87 -115c0 -53 31 -82 70 -82z" />
    <glyph glyph-name="product" unicode="&#x220f;" horiz-adv-x="684" 
d="M671 502h-93v-592h-166v592h-142v-592h-166v592h-93v148h660v-148z" />
    <glyph glyph-name="radical" unicode="&#x221a;" horiz-adv-x="601" 
d="M627 845l-227 -918h-119l-158 404l-80 -31l-27 77l193 79l99 -277c11 -32 19 -64 26 -89h2c4 23 10 57 19 94l154 661h118z" />
    <glyph glyph-name="summation" unicode="&#x2211;" horiz-adv-x="559" 
d="M548 -90h-531v101l204 266l-193 256v117h498v-148h-269v-3l156 -215l-167 -222v-4h302v-148z" />
    <glyph glyph-name="Delta" unicode="&#x2206;" horiz-adv-x="658" 
d="M609 0h-560v88l174 562h218l168 -561v-89zM416 146l-56 201c-10 43 -28 120 -37 161h-3c-7 -33 -23 -111 -35 -154l-55 -208h186z" />
    <glyph glyph-name="Omega" unicode="&#x2126;" horiz-adv-x="761" 
d="M598 139v-3h129v-136h-316v104c64 51 119 128 119 246c0 110 -59 193 -147 193s-151 -81 -151 -193c0 -103 53 -206 120 -246v-104h-319v136h127v3c-51 41 -115 121 -115 235c0 169 136 312 342 312c215 0 329 -152 329 -300c0 -126 -70 -205 -118 -247z" />
    <glyph glyph-name="pi" unicode="&#x3c0;" horiz-adv-x="620" 
d="M590 356h-56v-198c0 -62 5 -125 11 -158h-172c-14 20 -18 90 -18 146v210h-82c-1 -106 -19 -281 -49 -356h-173c27 99 50 263 47 356c-24 0 -57 0 -83 -6l-17 105c22 24 85 37 190 37h418z" />
    <glyph glyph-name="aringacute" unicode="&#x1fb;" horiz-adv-x="548" 
d="M318 874h160l-150 -122h-122zM492 286v-166c0 -49 3 -95 9 -120h-163l-9 43h-4c-34 -39 -83 -54 -136 -54c-101 0 -163 73 -163 155c0 132 119 191 286 191v4c0 20 -15 42 -80 42c-52 0 -107 -18 -139 -36l-31 113c31 17 101 45 203 45c169 0 227 -94 227 -217zM318 185
v40c-74 0 -115 -20 -115 -64c0 -31 20 -47 51 -47c26 0 53 18 62 45c2 8 2 17 2 26zM275 527c-76 0 -121 43 -121 100s42 102 122 102c79 0 119 -43 119 -102c0 -57 -45 -100 -120 -100zM274 582c29 0 44 21 44 46c0 23 -15 46 -44 46s-42 -24 -42 -48c0 -21 15 -44 42 -44z
" />
    <glyph glyph-name="Abreve" unicode="&#x102;" horiz-adv-x="675" 
d="M413 156h-174l-38 -156h-187l195 674h241l201 -674h-195zM263 289h125l-31 121c-10 38 -23 94 -34 133h-2c-10 -39 -20 -95 -29 -133zM188 841h93c2 -22 15 -45 53 -45c39 0 54 21 59 45h89c-2 -79 -47 -135 -147 -135c-103 0 -145 56 -147 135z" />
    <glyph glyph-name="Amacron" unicode="&#x100;" horiz-adv-x="675" 
d="M413 156h-174l-38 -156h-187l195 674h241l201 -674h-195zM263 289h125l-31 121c-10 38 -23 94 -34 133h-2c-10 -39 -20 -95 -29 -133zM198 827h268v-92h-268v92z" />
    <glyph glyph-name="Aogonek" unicode="&#x104;" horiz-adv-x="675" 
d="M450 674l201 -674h-100c-7 -16 -13 -36 -13 -57c0 -33 24 -58 56 -58c19 0 34 3 43 6l24 -81c-30 -23 -76 -35 -111 -35c-75 0 -121 38 -121 115c0 46 22 95 27 110l-43 156h-174l-38 -156h-187l196 674h240zM263 289h125l-31 121c-10 38 -23 94 -33 133h-2
c-10 -39 -20 -95 -30 -133z" />
    <glyph glyph-name="i.dot" horiz-adv-x="292" 
d="M236 0h-181v492h181v-492zM146 713c56 0 91 -36 92 -86c0 -47 -36 -85 -93 -85c-56 0 -91 38 -91 85c0 50 36 86 92 86z" />
    <glyph glyph-name="Cacute" unicode="&#x106;" horiz-adv-x="602" 
d="M541 158l25 -141c-25 -13 -89 -28 -169 -28c-252 0 -363 157 -363 337c0 238 174 359 375 359c77 0 140 -15 168 -30l-35 -142c-29 12 -71 24 -125 24c-103 0 -193 -61 -193 -199c0 -123 73 -199 197 -199c43 0 92 8 120 19zM368 836h183l-120 -126h-144z" />
    <glyph glyph-name="Ccaron" unicode="&#x10c;" horiz-adv-x="602" 
d="M541 158l25 -141c-25 -13 -89 -28 -169 -28c-252 0 -363 157 -363 337c0 238 174 359 375 359c77 0 140 -15 168 -30l-35 -142c-29 12 -71 24 -125 24c-103 0 -193 -61 -193 -199c0 -123 73 -199 197 -199c43 0 92 8 120 19zM433 710h-135l-99 126h121l45 -59h2l44 59
h121z" />
    <glyph glyph-name="Ccircumflex" unicode="&#x108;" horiz-adv-x="602" 
d="M541 158l25 -141c-25 -13 -89 -28 -169 -28c-252 0 -363 157 -363 337c0 238 174 359 375 359c77 0 140 -15 168 -30l-35 -142c-29 12 -71 24 -125 24c-103 0 -193 -61 -193 -199c0 -123 73 -199 197 -199c43 0 92 8 120 19zM296 840h135l99 -126h-121l-45 59h-2l-44 -59
h-121z" />
    <glyph glyph-name="Cdotaccent" unicode="&#x10a;" horiz-adv-x="602" 
d="M541 158l25 -141c-25 -13 -89 -28 -169 -28c-252 0 -363 157 -363 337c0 238 174 359 375 359c77 0 140 -15 168 -30l-35 -142c-29 12 -71 24 -125 24c-103 0 -193 -61 -193 -199c0 -123 73 -199 197 -199c43 0 92 8 120 19zM364 709c-44 0 -78 35 -78 76
c0 44 35 77 79 77c42 0 75 -33 75 -77c0 -41 -33 -76 -76 -76z" />
    <glyph glyph-name="Dcaron" unicode="&#x10e;" horiz-adv-x="710" 
d="M62 3v661c57 10 134 15 214 15c130 0 211 -21 278 -67c74 -51 122 -135 122 -259c0 -138 -52 -227 -118 -278c-74 -57 -185 -83 -317 -83c-86 0 -145 6 -179 11zM242 537v-403c9 -2 26 -2 38 -2c117 -1 204 63 204 215c0 132 -78 194 -187 194c-28 0 -46 -2 -55 -4z
M395 710h-135l-99 126h121l45 -59h2l44 59h121z" />
    <glyph glyph-name="Ebreve" unicode="&#x114;" horiz-adv-x="552" 
d="M485 418v-146h-242v-124h271v-148h-452v674h438v-148h-257v-108h242zM138 842h93c2 -22 15 -45 54 -45s54 21 59 45h89c-2 -79 -47 -135 -147 -135c-104 0 -146 56 -148 135z" />
    <glyph glyph-name="Ecaron" unicode="&#x11a;" horiz-adv-x="552" 
d="M485 418v-146h-242v-124h271v-148h-452v674h438v-148h-257v-108h242zM344 710h-135l-99 126h121l45 -59h2l44 59h121z" />
    <glyph glyph-name="Edotaccent" unicode="&#x116;" horiz-adv-x="552" 
d="M485 418v-146h-242v-124h271v-148h-452v674h438v-148h-257v-108h242zM277 709c-44 0 -78 35 -78 76c0 44 35 77 79 77c42 0 75 -33 75 -77c0 -41 -33 -76 -76 -76z" />
    <glyph glyph-name="Emacron" unicode="&#x112;" horiz-adv-x="552" 
d="M485 418v-146h-242v-124h271v-148h-452v674h438v-148h-257v-108h242zM142 827h268v-92h-268v92z" />
    <glyph glyph-name="Eogonek" unicode="&#x118;" horiz-adv-x="552" 
d="M497 -107l25 -82c-31 -24 -72 -36 -120 -36c-68 0 -109 36 -109 98c0 58 36 102 67 127h-298v674h438v-148h-257v-108h242v-146h-242v-124h270v-148h-29c-29 -20 -62 -55 -62 -86c0 -18 14 -29 34 -29c13 0 28 3 41 8z" />
    <glyph glyph-name="Gbreve" unicode="&#x11e;" horiz-adv-x="697" 
d="M646 400v-369c-51 -17 -145 -38 -233 -38c-132 0 -222 33 -283 91c-63 60 -96 147 -96 244c1 234 176 353 394 353c91 0 160 -16 195 -33l-36 -144c-38 16 -84 28 -160 28c-111 0 -203 -58 -203 -195c0 -126 81 -199 191 -199c25 0 48 2 57 6v116h-90v140h264zM240 847
h93c2 -22 15 -45 53 -45c39 0 54 21 59 45h89c-2 -79 -47 -135 -147 -135c-103 0 -145 56 -147 135z" />
    <glyph glyph-name="Gcircumflex" unicode="&#x11c;" horiz-adv-x="697" 
d="M646 400v-369c-51 -17 -145 -38 -233 -38c-132 0 -222 33 -283 91c-63 60 -96 147 -96 244c1 234 176 353 394 353c91 0 160 -16 195 -33l-36 -144c-38 16 -84 28 -160 28c-111 0 -203 -58 -203 -195c0 -126 81 -199 191 -199c25 0 48 2 57 6v116h-90v140h264zM312 840
h135l99 -126h-121l-45 59h-2l-44 -59h-121z" />
    <glyph glyph-name="Gcommaaccent" unicode="&#x122;" horiz-adv-x="697" 
d="M646 400v-369c-51 -17 -145 -38 -233 -38c-132 0 -222 33 -283 91c-63 60 -96 147 -96 244c1 234 176 353 394 353c91 0 160 -16 195 -33l-36 -144c-38 16 -84 28 -160 28c-111 0 -203 -58 -203 -195c0 -126 81 -199 191 -199c25 0 48 2 57 6v116h-90v140h264zM283 -250
l-25 75c30 7 61 28 61 58c0 24 -16 45 -27 60l123 19c20 -16 39 -45 39 -82c0 -87 -73 -128 -171 -130z" />
    <glyph glyph-name="Gdotaccent" unicode="&#x120;" horiz-adv-x="697" 
d="M646 400v-369c-51 -17 -145 -38 -233 -38c-132 0 -222 33 -283 91c-63 60 -96 147 -96 244c1 234 176 353 394 353c91 0 160 -16 195 -33l-36 -144c-38 16 -84 28 -160 28c-111 0 -203 -58 -203 -195c0 -126 81 -199 191 -199c25 0 48 2 57 6v116h-90v140h264zM381 709
c-44 0 -78 35 -78 76c0 44 35 77 79 77c42 0 75 -33 75 -77c0 -41 -33 -76 -76 -76z" />
    <glyph glyph-name="G_tildecomb" unicode="&#xe000;" horiz-adv-x="697" 
d="M646 400v-369c-51 -17 -145 -38 -233 -38c-132 0 -222 33 -283 91c-63 60 -96 147 -96 244c1 234 176 353 394 353c91 0 160 -16 195 -33l-36 -144c-38 16 -84 28 -160 28c-111 0 -203 -58 -203 -195c0 -126 81 -199 191 -199c25 0 48 2 57 6v116h-90v140h264zM327 714
h-80c-3 95 31 139 81 139c29 0 48 -10 66 -20c17 -11 31 -20 42 -20c17 0 23 10 27 44h78c3 -101 -29 -136 -84 -136c-29 0 -50 9 -67 18c-17 10 -27 18 -40 18c-11 0 -21 -13 -23 -43z" />
    <glyph glyph-name="Hcircumflex" unicode="&#x124;" horiz-adv-x="705" 
d="M62 674h181v-249h219v249h181v-674h-181v267h-219v-267h-181v674zM285 836h135l99 -126h-121l-45 59h-2l-44 -59h-121z" />
    <glyph glyph-name="Ibreve" unicode="&#x12c;" horiz-adv-x="305" 
d="M62 674h181v-674h-181v674zM5 846h93c2 -22 15 -45 53 -45c39 0 54 21 59 45h89c-2 -79 -47 -135 -147 -135c-103 0 -145 56 -147 135z" />
    <glyph glyph-name="Idotaccent" unicode="&#x130;" horiz-adv-x="305" 
d="M62 674h181v-674h-181v674zM153 709c-44 0 -78 35 -78 76c0 44 35 77 79 77c42 0 75 -33 75 -77c0 -41 -33 -76 -76 -76z" />
    <glyph glyph-name="Imacron" unicode="&#x12a;" horiz-adv-x="305" 
d="M62 674h181v-674h-181v674zM19 827h268v-92h-268v92z" />
    <glyph glyph-name="Iogonek" unicode="&#x12e;" horiz-adv-x="305" 
d="M243 674v-674h-86c-7 -16 -13 -36 -13 -56c0 -35 24 -59 56 -59c19 0 34 3 43 6l24 -81c-30 -23 -76 -35 -111 -35c-75 0 -121 38 -121 114c0 47 22 96 27 111v674h181z" />
    <glyph glyph-name="Itilde" unicode="&#x128;" horiz-adv-x="305" 
d="M62 674h181v-674h-181v674zM86 714h-80c-3 95 31 139 81 139c29 0 49 -10 66 -20c17 -11 31 -20 42 -20c17 0 23 10 27 44h78c3 -101 -29 -136 -84 -136c-29 0 -50 9 -66 18c-17 10 -28 18 -41 18c-11 0 -21 -13 -23 -43z" />
    <glyph glyph-name="Jcircumflex" unicode="&#x134;" horiz-adv-x="429" 
d="M191 258v416h181v-416c0 -196 -94 -269 -256 -269c-37 0 -86 5 -119 16l19 145c22 -6 50 -11 79 -11c58 0 96 26 96 119zM213 836h135l99 -126h-121l-45 59h-2l-44 -59h-121z" />
    <glyph glyph-name="Kcommaaccent" unicode="&#x136;" horiz-adv-x="646" 
d="M62 0v674h179v-286h2c14 25 29 50 43 74l130 212h222l-214 -287l222 -387h-209l-142 273l-54 -69v-204h-179zM251 -250l-25 75c31 7 62 28 62 58c0 24 -16 45 -27 60l123 19c20 -16 39 -45 39 -82c0 -87 -73 -128 -172 -130z" />
    <glyph glyph-name="Lacute" unicode="&#x139;" horiz-adv-x="528" 
d="M62 0v674h181v-523h259v-151h-440zM159 836h183l-120 -126h-144z" />
    <glyph glyph-name="Lcaron" unicode="&#x13d;" horiz-adv-x="528" 
d="M62 0v674h181v-523h259v-151h-440zM308 477l-25 75c31 7 62 28 62 58c0 24 -16 45 -27 60l123 19c20 -16 39 -45 39 -82c0 -87 -73 -128 -172 -130z" />
    <glyph glyph-name="Lcommaaccent" unicode="&#x13b;" horiz-adv-x="528" 
d="M62 0v674h181v-523h259v-151h-440zM190 -250l-25 75c31 7 62 28 62 58c0 24 -16 45 -27 60l123 19c20 -16 39 -45 39 -82c0 -87 -73 -128 -172 -130z" />
    <glyph glyph-name="Ldot" unicode="&#x13f;" horiz-adv-x="528" 
d="M62 0v674h181v-523h259v-151h-440zM401 305c-44 0 -78 35 -78 76c0 44 35 77 79 77c42 0 75 -33 75 -77c0 -41 -33 -76 -76 -76z" />
    <glyph glyph-name="M_uni0302" unicode="&#xe001;" horiz-adv-x="865" 
d="M641 0l-8 241c-3 77 -4 167 -4 272h-3c-21 -89 -49 -190 -71 -264l-67 -235h-141l-56 234c-18 73 -38 173 -54 265h-2c-4 -95 -7 -195 -10 -272l-11 -241h-166l42 674h243l44 -181c19 -75 39 -165 53 -247h3c19 82 41 177 61 248l51 180h237l34 -674h-175zM365 836h135
l99 -126h-121l-45 59h-2l-44 -59h-121z" />
    <glyph glyph-name="Nacute" unicode="&#x143;" horiz-adv-x="705" 
d="M227 0h-165v674h213l107 -207c37 -67 76 -157 106 -236h3c-10 89 -14 183 -14 284v159h165v-674h-190l-115 224c-37 71 -81 162 -113 243h-4c5 -91 7 -192 7 -302v-165zM344 836h184l-120 -126h-144z" />
    <glyph glyph-name="Ncaron" unicode="&#x147;" horiz-adv-x="705" 
d="M227 0h-165v674h213l107 -207c37 -67 76 -157 106 -236h3c-10 89 -14 183 -14 284v159h165v-674h-190l-115 224c-37 71 -81 162 -113 243h-4c5 -91 7 -192 7 -302v-165zM424 710h-135l-99 126h121l45 -59h2l44 59h121z" />
    <glyph glyph-name="N_uni0302" unicode="&#xe002;" horiz-adv-x="705" 
d="M227 0h-165v674h213l107 -207c37 -67 76 -157 106 -236h3c-10 89 -14 183 -14 284v159h165v-674h-190l-115 224c-37 71 -81 162 -113 243h-4c5 -91 7 -192 7 -302v-165zM285 836h135l99 -126h-121l-45 59h-2l-44 -59h-121z" />
    <glyph glyph-name="Ncommaaccent" unicode="&#x145;" horiz-adv-x="705" 
d="M227 0h-165v674h213l107 -207c37 -67 76 -157 106 -236h3c-10 89 -14 183 -14 284v159h165v-674h-190l-115 224c-37 71 -81 162 -113 243h-4c5 -91 7 -192 7 -302v-165zM279 -247l-25 75c31 7 62 28 62 58c0 24 -16 45 -27 60l123 19c20 -16 39 -45 39 -82
c0 -87 -73 -128 -172 -130z" />
    <glyph glyph-name="Obreve" unicode="&#x14e;" horiz-adv-x="730" 
d="M369 686c217 0 327 -161 327 -342c0 -217 -130 -355 -338 -355c-209 0 -324 157 -324 344c0 197 128 353 335 353zM365 543c-85 0 -140 -82 -140 -206c0 -127 55 -205 142 -205s138 85 138 207c0 116 -52 204 -140 204zM218 849h93c2 -22 15 -45 53 -45c39 0 54 21 59 45
h89c-2 -79 -47 -135 -147 -135c-103 0 -145 56 -147 135z" />
    <glyph glyph-name="Ohungarumlaut" unicode="&#x150;" horiz-adv-x="730" 
d="M369 686c217 0 327 -161 327 -342c0 -217 -130 -355 -338 -355c-209 0 -324 157 -324 344c0 197 128 353 335 353zM365 543c-85 0 -140 -82 -140 -206c0 -127 55 -205 142 -205s138 85 138 207c0 116 -52 204 -140 204zM266 838h161l-98 -118h-122zM463 838h160l-97 -118
h-122z" />
    <glyph glyph-name="Omacron" unicode="&#x14c;" horiz-adv-x="730" 
d="M369 686c217 0 327 -161 327 -342c0 -217 -130 -355 -338 -355c-209 0 -324 157 -324 344c0 197 128 353 335 353zM365 543c-85 0 -140 -82 -140 -206c0 -127 55 -205 142 -205s138 85 138 207c0 116 -52 204 -140 204zM232 827h268v-92h-268v92z" />
    <glyph glyph-name="Oslashacute" unicode="&#x1fe;" horiz-adv-x="730" 
d="M172 -76l-97 75l55 84c-63 64 -96 155 -96 255c0 191 128 348 332 348c52 0 99 -10 140 -28l54 81l101 -68l-54 -84c60 -64 89 -154 89 -246c0 -214 -134 -352 -331 -352c-48 0 -93 9 -133 25zM232 238l191 293c-16 10 -36 15 -58 15c-90 0 -150 -79 -150 -208
c0 -34 4 -64 16 -100h1zM502 428l-187 -286c13 -9 32 -13 50 -13c92 0 150 79 150 210c0 29 -4 57 -11 88zM358 840h183l-120 -126h-144z" />
    <glyph glyph-name="Racute" unicode="&#x154;" horiz-adv-x="617" 
d="M62 0v665c51 8 128 14 218 14c103 0 177 -14 228 -52c43 -34 66 -82 66 -147c0 -84 -63 -143 -115 -163v-3c44 -20 69 -63 86 -121c20 -69 42 -167 55 -193h-184c-10 20 -28 72 -47 156c-18 80 -43 97 -99 97h-29v-253h-179zM241 541v-158h47c68 0 107 33 107 83
s-33 79 -93 79c-34 0 -52 -1 -61 -4zM293 836h183l-120 -126h-144z" />
    <glyph glyph-name="Rcaron" unicode="&#x158;" horiz-adv-x="617" 
d="M62 0v665c51 8 128 14 218 14c103 0 177 -14 228 -52c43 -34 66 -82 66 -147c0 -84 -63 -143 -115 -163v-3c44 -20 69 -63 86 -121c20 -69 42 -167 55 -193h-184c-10 20 -28 72 -47 156c-18 80 -43 97 -99 97h-29v-253h-179zM241 541v-158h47c68 0 107 33 107 83
s-33 79 -93 79c-34 0 -52 -1 -61 -4zM370 710h-135l-99 126h121l45 -59h2l44 59h121z" />
    <glyph glyph-name="Rcommaaccent" unicode="&#x156;" horiz-adv-x="617" 
d="M62 0v665c51 8 128 14 218 14c103 0 177 -14 228 -52c43 -34 66 -82 66 -147c0 -84 -63 -143 -115 -163v-3c44 -20 69 -63 86 -121c20 -69 42 -167 55 -193h-184c-10 20 -28 72 -47 156c-18 80 -43 97 -99 97h-29v-253h-179zM241 541v-158h47c68 0 107 33 107 83
s-33 79 -93 79c-34 0 -52 -1 -61 -4zM234 -250l-25 75c31 7 62 28 62 58c0 24 -16 45 -27 60l123 19c20 -16 39 -45 39 -82c0 -87 -73 -128 -172 -130z" />
    <glyph glyph-name="Sacute" unicode="&#x15a;" horiz-adv-x="561" 
d="M40 31l34 149c41 -21 107 -42 175 -42c62 0 92 21 92 55c0 33 -30 52 -106 78c-114 40 -190 103 -190 203c0 119 101 211 271 211c80 0 138 -15 182 -35l-38 -144c-29 13 -79 32 -146 32c-55 0 -85 -20 -85 -50c0 -34 36 -48 121 -79c121 -45 175 -110 175 -204
c0 -116 -90 -215 -287 -215c-81 0 -160 21 -198 41zM290 836h184l-120 -126h-144z" />
    <glyph glyph-name="Scedilla" unicode="&#x15e;" horiz-adv-x="561" 
d="M40 31l34 149c41 -21 107 -42 175 -42c62 0 92 21 92 55c0 33 -30 52 -106 78c-114 40 -190 103 -190 203c0 119 101 211 271 211c80 0 138 -15 183 -35l-39 -144c-29 13 -79 32 -146 32c-55 0 -85 -20 -85 -50c0 -34 36 -48 121 -79c121 -45 175 -110 175 -204
c0 -96 -63 -182 -199 -207l-20 -39c38 -4 73 -32 73 -71c0 -69 -63 -93 -129 -93c-36 0 -65 8 -86 21l22 62c18 -10 41 -17 55 -17c16 0 33 6 33 23c0 16 -20 30 -78 34l34 72h-1c-58 0 -143 18 -189 41z" />
    <glyph glyph-name="Scircumflex" unicode="&#x15c;" horiz-adv-x="561" 
d="M40 31l34 149c41 -21 107 -42 175 -42c62 0 92 21 92 55c0 33 -30 52 -106 78c-114 40 -190 103 -190 203c0 119 101 211 271 211c80 0 138 -15 182 -35l-38 -144c-29 13 -79 32 -146 32c-55 0 -85 -20 -85 -50c0 -34 36 -48 121 -79c121 -45 175 -110 175 -204
c0 -116 -90 -215 -287 -215c-81 0 -160 21 -198 41zM215 836h135l99 -126h-121l-45 59h-2l-44 -59h-121z" />
    <glyph glyph-name="Scommaaccent" unicode="&#x218;" horiz-adv-x="561" 
d="M40 31l34 149c41 -21 107 -42 175 -42c62 0 92 21 92 55c0 33 -30 52 -106 78c-114 40 -190 103 -190 203c0 119 101 211 271 211c80 0 138 -15 182 -35l-38 -144c-29 13 -79 32 -146 32c-55 0 -85 -20 -85 -50c0 -34 36 -48 121 -79c121 -45 175 -110 175 -204
c0 -116 -90 -215 -287 -215c-81 0 -160 21 -198 41zM204 -250l-25 75c31 7 62 28 62 58c0 24 -16 45 -27 60l123 19c20 -16 39 -45 39 -82c0 -87 -73 -128 -172 -130z" />
    <glyph glyph-name="Tcaron" unicode="&#x164;" horiz-adv-x="570" 
d="M193 0v522h-172v152h528v-152h-175v-522h-181zM352 710h-135l-99 126h121l45 -59h2l44 59h121z" />
    <glyph glyph-name="Tcommaaccent" unicode="&#x162;" horiz-adv-x="570" 
d="M193 0v522h-172v152h528v-152h-175v-522h-181zM197 -250l-25 75c31 7 62 28 62 58c0 24 -16 45 -27 60l123 19c20 -16 39 -45 39 -82c0 -87 -73 -128 -172 -130z" />
    <glyph glyph-name="Ubreve" unicode="&#x16c;" horiz-adv-x="697" 
d="M61 674h181v-383c0 -102 35 -159 106 -159c72 0 107 52 107 159v383h181v-372c0 -208 -104 -313 -293 -313c-184 0 -282 101 -282 317v368zM201 840h93c2 -22 15 -45 53 -45c39 0 54 21 59 45h89c-2 -79 -47 -135 -147 -135c-103 0 -145 56 -147 135z" />
    <glyph glyph-name="Uhungarumlaut" unicode="&#x170;" horiz-adv-x="697" 
d="M61 674h181v-383c0 -102 35 -159 106 -159c72 0 107 52 107 159v383h181v-372c0 -208 -104 -313 -293 -313c-184 0 -282 101 -282 317v368zM247 838h161l-98 -118h-122zM444 838h160l-97 -118h-122z" />
    <glyph glyph-name="Umacron" unicode="&#x16a;" horiz-adv-x="697" 
d="M61 674h181v-383c0 -102 35 -159 106 -159c72 0 107 52 107 159v383h181v-372c0 -208 -104 -313 -293 -313c-184 0 -282 101 -282 317v368zM215 827h268v-92h-268v92z" />
    <glyph glyph-name="Uogonek" unicode="&#x172;" horiz-adv-x="697" 
d="M469 -107l25 -82c-33 -23 -75 -36 -120 -36c-72 0 -109 37 -109 93c0 53 35 97 58 122h-6c-164 7 -256 107 -256 316v368h181v-383c0 -102 35 -159 106 -159c72 0 107 52 107 159v383h181v-372c0 -170 -69 -271 -197 -301c-24 -23 -50 -55 -50 -82c0 -22 18 -34 38 -34
c13 0 28 3 42 8z" />
    <glyph glyph-name="Uring" unicode="&#x16e;" horiz-adv-x="697" 
d="M61 674h181v-383c0 -102 35 -159 106 -159c72 0 107 52 107 159v383h181v-372c0 -208 -104 -313 -293 -313c-184 0 -282 101 -282 317v368zM350 891c81 0 120 -45 120 -102c0 -56 -43 -100 -121 -100s-122 45 -122 99c0 56 42 103 123 103zM346 834
c-27 0 -41 -23 -41 -45s15 -43 42 -43c29 0 44 19 44 43c0 23 -16 45 -45 45z" />
    <glyph glyph-name="Utilde" unicode="&#x168;" horiz-adv-x="697" 
d="M61 674h181v-383c0 -102 35 -159 106 -159c72 0 107 52 107 159v383h181v-372c0 -208 -104 -313 -293 -313c-184 0 -282 101 -282 317v368zM282 714h-80c-3 95 31 139 81 139c29 0 49 -10 66 -20c17 -11 31 -20 42 -20c17 0 23 10 27 44h78c3 -101 -29 -136 -84 -136
c-29 0 -50 9 -66 18c-17 10 -28 18 -41 18c-11 0 -21 -13 -23 -43z" />
    <glyph glyph-name="Wacute" unicode="&#x1e82;" horiz-adv-x="906" 
d="M370 0h-200l-155 674h194l39 -250c12 -78 24 -168 34 -237h2c11 76 25 157 40 239l43 248h193l42 -260c12 -77 21 -146 30 -223h2c10 76 22 156 34 235l40 248h183l-166 -674h-197l-45 264c-10 59 -19 122 -28 202h-2c-11 -80 -20 -143 -32 -203zM465 836h183l-120 -126
h-144z" />
    <glyph glyph-name="Wcircumflex" unicode="&#x174;" horiz-adv-x="906" 
d="M370 0h-200l-155 674h194l39 -250c12 -78 24 -168 34 -237h2c11 76 25 157 40 239l43 248h193l42 -260c12 -77 21 -146 30 -223h2c10 76 22 156 34 235l40 248h183l-166 -674h-197l-45 264c-10 59 -19 122 -28 202h-2c-11 -80 -20 -143 -32 -203zM393 836h135l99 -126
h-121l-45 59h-2l-44 -59h-121z" />
    <glyph glyph-name="Wdieresis" unicode="&#x1e84;" horiz-adv-x="906" 
d="M370 0h-200l-155 674h194l39 -250c12 -78 24 -168 34 -237h2c11 76 25 157 40 239l43 248h193l42 -260c12 -77 21 -146 30 -223h2c10 76 22 156 34 235l40 248h183l-166 -674h-197l-45 264c-10 59 -19 122 -28 202h-2c-11 -80 -20 -143 -32 -203zM357 709
c-43 0 -77 35 -77 77c0 43 34 76 78 76c41 0 74 -33 74 -76c0 -42 -33 -77 -75 -77zM574 709c-43 0 -76 35 -76 77c0 43 33 76 77 76c42 0 75 -33 75 -76c0 -42 -33 -77 -76 -77z" />
    <glyph glyph-name="Wgrave" unicode="&#x1e80;" horiz-adv-x="906" 
d="M370 0h-200l-155 674h194l39 -250c12 -78 24 -168 34 -237h2c11 76 25 157 40 239l43 248h193l42 -260c12 -77 21 -146 30 -223h2c10 76 22 156 34 235l40 248h183l-166 -674h-197l-45 264c-10 59 -19 122 -28 202h-2c-11 -80 -20 -143 -32 -203zM274 836h183l81 -124
h-144z" />
    <glyph glyph-name="Ycircumflex" unicode="&#x176;" horiz-adv-x="629" 
d="M400 0h-181v272l-212 402h207l57 -152c18 -47 31 -81 46 -125h2c13 41 26 79 43 125l55 152h204l-221 -395v-279zM247 836h135l99 -126h-121l-45 59h-2l-44 -59h-121z" />
    <glyph glyph-name="Ygrave" unicode="&#x1ef2;" horiz-adv-x="629" 
d="M400 0h-181v272l-212 402h207l57 -152c18 -47 31 -81 46 -125h2c13 41 26 79 43 125l55 152h204l-221 -395v-279zM143 836h183l81 -124h-144z" />
    <glyph glyph-name="uni0232" unicode="&#x232;" horiz-adv-x="629" 
d="M400 0h-181v272l-212 402h207l57 -152c18 -47 31 -81 46 -125h2c13 41 26 79 43 125l55 152h204l-221 -395v-279zM181 827h268v-92h-268v92z" />
    <glyph glyph-name="Zacute" unicode="&#x179;" horiz-adv-x="588" 
d="M21 0v96l298 425v4h-270v149h504v-103l-289 -418v-4h294v-149h-537zM287 836h183l-120 -126h-144z" />
    <glyph glyph-name="Zdotaccent" unicode="&#x17b;" horiz-adv-x="588" 
d="M21 0v96l298 425v4h-270v149h504v-103l-289 -418v-4h294v-149h-537zM299 709h-2c-44 0 -78 35 -78 76c0 44 35 77 79 77c42 0 75 -33 75 -77c0 -41 -33 -76 -74 -76z" />
    <glyph glyph-name="AEacute" unicode="&#x1fc;" horiz-adv-x="902" 
d="M190 0h-186l278 674h553v-148h-272l14 -112h256v-146h-233l17 -120h259v-148h-414l-22 161h-192zM301 305h119l-19 150c-4 29 -8 60 -12 92h-3c-10 -33 -22 -69 -31 -95zM477 836h184l-120 -126h-144z" />
    <glyph glyph-name="abreve" unicode="&#x103;" horiz-adv-x="548" 
d="M492 286v-166c0 -49 3 -95 8 -120h-162l-9 43h-4c-34 -39 -83 -54 -136 -54c-101 0 -163 73 -163 155c0 132 119 191 286 191v4c0 20 -15 42 -81 42c-52 0 -106 -18 -139 -36l-31 113c31 17 102 45 204 45c169 0 227 -94 227 -217zM318 185v40c-74 0 -115 -20 -115 -64
c0 -31 20 -47 51 -47c26 0 53 18 62 46c2 7 2 16 2 25zM129 696h91c5 -34 20 -57 53 -57c39 0 55 26 56 57h90c-1 -88 -49 -150 -145 -150s-144 62 -145 150z" />
    <glyph glyph-name="amacron" unicode="&#x101;" horiz-adv-x="548" 
d="M492 286v-166c0 -49 3 -95 8 -120h-162l-9 43h-4c-34 -39 -83 -54 -136 -54c-101 0 -163 73 -163 155c0 132 119 191 286 191v4c0 20 -15 42 -81 42c-52 0 -106 -18 -139 -36l-31 113c31 17 102 45 204 45c169 0 227 -94 227 -217zM318 185v40c-74 0 -115 -20 -115 -64
c0 -31 20 -47 51 -47c26 0 53 18 62 46c2 7 2 16 2 25zM144 675h261v-96h-261v96z" />
    <glyph glyph-name="aogonek" unicode="&#x105;" horiz-adv-x="548" 
d="M492 286v-166c0 -49 3 -95 9 -120h-67c-7 -17 -13 -39 -13 -60c0 -33 19 -52 47 -52c17 0 31 3 44 9l25 -82c-38 -29 -77 -39 -116 -39c-63 0 -109 38 -109 109c0 51 20 96 26 115l-9 43h-4c-34 -39 -83 -54 -136 -54c-101 0 -163 73 -163 155c0 132 119 191 286 191v4
c0 20 -15 42 -81 42c-52 0 -106 -18 -139 -36l-31 113c31 17 102 45 204 45c169 0 227 -94 227 -217zM318 185v40c-74 0 -115 -20 -115 -64c0 -31 20 -47 51 -47c26 0 53 18 62 45c2 8 2 17 2 26z" />
    <glyph glyph-name="a.superior" horiz-adv-x="392" 
d="M357 266h-109l-7 30h-2c-26 -23 -58 -36 -99 -35c-65 0 -108 43 -108 99c0 79 81 116 197 117v5c0 7 -7 29 -56 29c-38 0 -73 -13 -95 -26l-22 74c24 13 73 32 140 32c113 0 156 -64 156 -140v-107c0 -31 2 -61 5 -78zM233 385v26c-49 0 -82 -15 -82 -40
c0 -18 16 -33 38 -33c16 0 36 11 42 27c2 6 2 14 2 20z" />
    <glyph glyph-name="cacute" unicode="&#x107;" horiz-adv-x="452" 
d="M414 143l19 -132c-29 -14 -80 -21 -135 -21c-164 0 -267 96 -267 252c0 141 97 261 289 261c35 0 78 -5 113 -17l-25 -132c-17 7 -41 12 -78 12c-67 0 -115 -46 -114 -117c0 -81 55 -119 119 -119c31 0 56 4 79 13zM287 706h159l-123 -156h-122z" />
    <glyph glyph-name="ccaron" unicode="&#x10d;" horiz-adv-x="452" 
d="M414 143l19 -132c-29 -14 -80 -21 -135 -21c-164 0 -267 96 -267 252c0 141 97 261 289 261c35 0 78 -5 113 -17l-25 -132c-17 7 -41 12 -78 12c-67 0 -115 -46 -114 -117c0 -81 55 -119 119 -119c31 0 56 4 79 13zM332 550h-120l-101 156h113l47 -84h2l47 84h114z" />
    <glyph glyph-name="ccircumflex" unicode="&#x109;" horiz-adv-x="452" 
d="M414 143l19 -132c-29 -14 -80 -21 -135 -21c-164 0 -267 96 -267 252c0 141 97 261 289 261c35 0 78 -5 113 -17l-25 -132c-17 7 -41 12 -78 12c-67 0 -115 -46 -114 -117c0 -81 55 -119 119 -119c31 0 56 4 79 13zM208 706h120l101 -156h-113l-47 84h-2l-47 -84h-114z
" />
    <glyph glyph-name="cdotaccent" unicode="&#x10b;" horiz-adv-x="452" 
d="M414 143l19 -132c-29 -14 -80 -21 -135 -21c-164 0 -267 96 -267 252c0 141 97 261 289 261c35 0 78 -5 113 -17l-25 -132c-17 7 -41 12 -78 12c-67 0 -115 -46 -114 -117c0 -81 55 -119 119 -119c31 0 56 4 79 13zM283 551c-45 0 -80 35 -80 79c0 46 35 79 81 79
c43 0 76 -33 76 -79c0 -44 -33 -79 -77 -79z" />
    <glyph glyph-name="dcaron" unicode="&#x10f;" horiz-adv-x="620" 
d="M374 710h180v-555c0 -61 2 -122 4 -155h-160l-7 66h-2c-32 -55 -92 -77 -149 -77c-114 0 -209 99 -209 253c-1 166 104 261 220 261c54 0 99 -16 121 -48h2v255zM374 224v55c0 7 0 16 -1 23c-7 35 -34 63 -71 63c-61 0 -88 -54 -88 -118c0 -76 37 -115 87 -115
c36 0 64 26 70 59c3 10 3 21 3 33zM669 484l-77 45c14 28 24 70 24 107c0 26 -7 52 -15 70l110 17c16 -13 30 -45 30 -76c0 -95 -55 -148 -72 -163z" />
    <glyph glyph-name="ebreve" unicode="&#x115;" horiz-adv-x="539" 
d="M506 183h-303c6 -39 62 -61 126 -61c46 0 90 5 134 19l23 -121c-59 -23 -123 -31 -184 -31c-173 0 -271 96 -271 252c0 114 74 262 255 262c159 0 227 -117 227 -252c0 -29 -4 -56 -7 -68zM201 305h146c0 28 -13 80 -70 80c-53 0 -73 -49 -76 -80zM129 696h91
c5 -34 20 -57 53 -57c39 0 55 26 56 57h90c-1 -88 -49 -150 -145 -150s-144 62 -145 150z" />
    <glyph glyph-name="ecaron" unicode="&#x11b;" horiz-adv-x="539" 
d="M506 183h-303c6 -39 62 -61 126 -61c46 0 90 5 134 19l23 -121c-59 -23 -123 -31 -184 -31c-173 0 -271 96 -271 252c0 114 74 262 255 262c159 0 227 -117 227 -252c0 -29 -4 -56 -7 -68zM201 305h146c0 28 -13 80 -70 80c-53 0 -73 -49 -76 -80zM334 550h-121l-101 156
h113l48 -84h2l46 84h114z" />
    <glyph glyph-name="edotaccent" unicode="&#x117;" horiz-adv-x="539" 
d="M506 183h-303c6 -39 62 -61 126 -61c46 0 90 5 134 19l23 -121c-59 -23 -123 -31 -184 -31c-173 0 -271 96 -271 252c0 114 74 262 255 262c159 0 227 -117 227 -252c0 -29 -4 -56 -7 -68zM201 305h146c0 28 -13 80 -70 80c-53 0 -73 -49 -76 -80zM277 551
c-45 0 -80 35 -80 79c0 46 35 79 81 79c43 0 76 -33 76 -79c0 -44 -33 -79 -77 -79z" />
    <glyph glyph-name="emacron" unicode="&#x113;" horiz-adv-x="539" 
d="M506 183h-303c6 -39 62 -61 126 -61c46 0 90 5 134 19l23 -121c-59 -23 -123 -31 -184 -31c-173 0 -271 96 -271 252c0 114 74 262 255 262c159 0 227 -117 227 -252c0 -29 -4 -56 -7 -68zM201 305h146c0 28 -13 80 -70 80c-53 0 -73 -49 -76 -80zM143 675h261v-96h-261
v96z" />
    <glyph glyph-name="eogonek" unicode="&#x119;" horiz-adv-x="539" 
d="M437 -105l27 -82c-32 -25 -75 -38 -118 -38c-68 0 -108 35 -108 89c0 55 39 100 65 124v1h-7c-168 1 -265 97 -265 252c0 114 74 262 255 262c159 0 227 -117 227 -252c0 -29 -3 -56 -6 -68h-304c6 -39 62 -61 126 -61c46 0 90 5 135 19l22 -121c-14 -6 -29 -10 -41 -15
c-35 -17 -83 -61 -83 -91c0 -20 16 -29 32 -29c13 0 28 3 43 10zM201 305h146c0 28 -13 80 -69 80c-54 0 -74 -49 -77 -80z" />
    <glyph glyph-name="gbreve" unicode="&#x11f;" horiz-adv-x="596" 
d="M540 340v-268c0 -86 -17 -168 -77 -220c-56 -48 -131 -61 -207 -61c-68 0 -137 13 -183 37l34 136c30 -17 86 -36 142 -36c64 0 114 35 114 111v22h-2c-30 -37 -74 -55 -123 -55c-120 0 -207 96 -207 239c0 155 100 258 223 258c60 0 101 -23 127 -64h2l6 53h155
c-2 -31 -4 -73 -4 -152zM360 223v66c0 8 -1 16 -2 23c-8 36 -31 56 -64 56c-43 0 -80 -42 -80 -120c0 -64 30 -111 80 -111c33 0 57 22 63 49c3 10 3 26 3 37zM156 696h91c5 -34 20 -57 53 -57c39 0 55 26 56 57h90c-1 -88 -49 -150 -145 -150s-144 62 -145 150z" />
    <glyph glyph-name="gcircumflex" unicode="&#x11d;" horiz-adv-x="596" 
d="M540 340v-268c0 -86 -17 -168 -77 -220c-56 -48 -131 -61 -207 -61c-68 0 -137 13 -183 37l34 136c30 -17 86 -36 142 -36c64 0 114 35 114 111v22h-2c-30 -37 -74 -55 -123 -55c-120 0 -207 96 -207 239c0 155 100 258 223 258c60 0 101 -23 127 -64h2l6 53h155
c-2 -31 -4 -73 -4 -152zM360 223v66c0 8 -1 16 -2 23c-8 36 -31 56 -64 56c-43 0 -80 -42 -80 -120c0 -64 30 -111 80 -111c33 0 57 22 63 49c3 10 3 26 3 37zM241 706h120l101 -156h-113l-47 84h-2l-47 -84h-114z" />
    <glyph glyph-name="gcommaaccent" unicode="&#x123;" horiz-adv-x="596" 
d="M540 340v-268c0 -86 -17 -168 -77 -220c-56 -48 -131 -61 -207 -61c-68 0 -137 13 -183 37l34 136c30 -17 86 -36 142 -36c64 0 114 35 114 111v22h-2c-30 -37 -74 -55 -123 -55c-120 0 -207 96 -207 239c0 155 100 258 223 258c60 0 101 -23 127 -64h2l6 53h155
c-2 -31 -4 -73 -4 -152zM360 223v66c0 8 -1 16 -2 23c-8 36 -31 56 -64 56c-43 0 -80 -42 -80 -120c0 -64 30 -111 80 -111c33 0 57 22 63 49c3 10 3 26 3 37zM378 731l25 -61c-40 -7 -70 -26 -70 -58c0 -22 16 -41 28 -54l-115 -17c-20 14 -39 42 -39 73
c0 79 73 115 171 117z" />
    <glyph glyph-name="gdotaccent" unicode="&#x121;" horiz-adv-x="596" 
d="M540 340v-268c0 -86 -17 -168 -77 -220c-56 -48 -131 -61 -207 -61c-68 0 -137 13 -183 37l34 136c30 -17 86 -36 142 -36c64 0 114 35 114 111v22h-2c-30 -37 -74 -55 -123 -55c-120 0 -207 96 -207 239c0 155 100 258 223 258c60 0 101 -23 127 -64h2l6 53h155
c-2 -31 -4 -73 -4 -152zM360 223v66c0 8 -1 16 -2 23c-8 36 -31 56 -64 56c-43 0 -80 -42 -80 -120c0 -64 30 -111 80 -111c33 0 57 22 63 49c3 10 3 26 3 37zM295 551c-45 0 -80 35 -80 79c0 46 35 79 81 79c43 0 76 -33 76 -79c0 -44 -33 -79 -77 -79z" />
    <glyph glyph-name="g_tildecomb" unicode="&#xe005;" horiz-adv-x="596" 
d="M540 340v-268c0 -86 -17 -168 -77 -220c-56 -48 -131 -61 -207 -61c-68 0 -137 13 -183 37l34 136c30 -17 86 -36 142 -36c64 0 114 35 114 111v22h-2c-30 -37 -74 -55 -123 -55c-120 0 -207 96 -207 239c0 155 100 258 223 258c60 0 101 -23 127 -64h2l6 53h155
c-2 -31 -4 -73 -4 -152zM360 223v66c0 8 -1 16 -2 23c-8 36 -31 56 -64 56c-43 0 -80 -42 -80 -120c0 -64 30 -111 80 -111c33 0 57 22 63 49c3 10 3 26 3 37zM229 554h-82c-4 93 33 143 88 143c27 0 48 -10 66 -20c17 -10 31 -20 43 -20c16 0 22 9 25 45h80
c4 -102 -33 -140 -88 -140c-30 0 -51 11 -72 22c-17 9 -24 15 -36 15c-14 0 -23 -14 -24 -45z" />
    <glyph glyph-name="hcircumflex" unicode="&#x125;" horiz-adv-x="599" 
d="M55 0v710h181v-270h2c16 20 36 35 58 46s49 17 75 17c111 0 173 -79 173 -218v-285h-181v265c0 58 -19 93 -64 93c-34 0 -50 -20 -59 -39c-3 -8 -4 -21 -4 -29v-290h-181zM84 863h135l99 -126h-121l-45 59h-2l-44 -59h-121z" />
    <glyph glyph-name="ibreve" unicode="&#x12d;" horiz-adv-x="292" 
d="M236 0h-181v492h181v-492zM0 696h91c5 -34 20 -57 53 -57c39 0 55 26 56 57h90c-1 -88 -49 -150 -145 -150s-144 62 -145 150z" />
    <glyph glyph-name="imacron" unicode="&#x12b;" horiz-adv-x="292" 
d="M236 0h-181v492h181v-492zM16 675h261v-96h-261v96z" />
    <glyph glyph-name="iogonek" unicode="&#x12f;" horiz-adv-x="292" 
d="M144 542c-57 0 -94 39 -94 89c0 51 37 89 95 89c59 0 96 -38 96 -89c0 -50 -37 -89 -97 -89zM236 492v-492h-85c-7 -16 -13 -36 -13 -57c0 -33 24 -58 56 -58c19 0 34 3 43 6l24 -81c-30 -23 -76 -35 -111 -35c-75 0 -121 38 -121 115c0 46 22 95 26 110v492h181z" />
    <glyph glyph-name="itilde" unicode="&#x129;" horiz-adv-x="292" 
d="M236 0h-181v492h181v-492zM77 554h-82c-4 93 33 143 88 143c26 0 48 -10 66 -20c17 -10 31 -20 43 -20c16 0 22 9 25 45h80c4 -102 -33 -140 -88 -140c-30 0 -51 11 -72 22c-17 9 -24 15 -36 15c-14 0 -23 -14 -24 -45z" />
    <glyph glyph-name="jcircumflex" unicode="&#x135;" horiz-adv-x="312" 
d="M-20 -216l-17 140c39 3 69 12 87 30c22 21 29 60 29 150v388h181v-426c0 -112 -27 -179 -74 -220c-48 -42 -122 -62 -206 -62zM101 706h120l101 -156h-113l-47 84h-2l-47 -84h-114z" />
    <glyph glyph-name="kcommaaccent" unicode="&#x137;" horiz-adv-x="575" 
d="M236 710v-418h2c11 22 21 42 32 60l81 140h215l-170 -198l195 -294h-222l-97 188l-36 -48v-140h-180v710h180zM213 -251l-25 75c31 7 62 28 62 59c0 24 -16 45 -27 60l123 19c20 -16 39 -46 39 -82c0 -87 -73 -128 -172 -131z" />
    <glyph glyph-name="lacute" unicode="&#x13a;" horiz-adv-x="292" 
d="M55 0v710h181v-710h-181zM141 866h183l-120 -126h-144z" />
    <glyph glyph-name="lcaron" unicode="&#x13e;" horiz-adv-x="302" 
d="M55 0v710h181v-710h-181zM355 484l-84 46c14 31 24 69 24 106c0 26 -7 52 -15 70l110 17c15 -13 30 -45 30 -82c0 -89 -48 -138 -65 -157z" />
    <glyph glyph-name="lcommaaccent" unicode="&#x13c;" horiz-adv-x="292" 
d="M55 0v710h181v-710h-181zM61 -251l-25 75c31 7 62 28 62 59c0 24 -16 45 -27 60l123 19c20 -16 39 -46 39 -82c0 -87 -73 -128 -172 -131z" />
    <glyph glyph-name="ldot" unicode="&#x140;" horiz-adv-x="389" 
d="M55 0v710h181v-710h-181zM342 324c-40 0 -72 34 -72 76c0 44 32 76 73 76c39 0 69 -32 69 -76c0 -42 -30 -76 -70 -76z" />
    <glyph glyph-name="m_uni0302" unicode="&#xe006;" horiz-adv-x="871" 
d="M56 0v324c0 66 -2 122 -4 168h151l7 -62h4c18 25 61 73 145 73c63 0 112 -29 133 -79h2c19 26 42 45 68 59c25 13 54 20 87 20c106 0 167 -77 167 -214v-289h-175v262c0 61 -18 96 -58 96c-29 0 -47 -18 -55 -42c-4 -10 -5 -25 -5 -36v-280h-175v267c0 55 -17 91 -57 91
c-32 0 -48 -24 -55 -40c-4 -12 -5 -25 -5 -37v-281h-175zM377 706h120l101 -156h-113l-48 84h-2l-46 -84h-114z" />
    <glyph glyph-name="nacute" unicode="&#x144;" horiz-adv-x="599" 
d="M55 0v324c0 66 -2 122 -4 168h156l8 -63h3c18 26 66 74 148 74c115 0 178 -78 178 -213v-290h-181v268c0 57 -19 90 -63 90c-35 0 -51 -24 -59 -43c-4 -9 -5 -23 -5 -36v-279h-181zM299 706h159l-123 -156h-122z" />
    <glyph glyph-name="ncaron" unicode="&#x148;" horiz-adv-x="599" 
d="M55 0v324c0 66 -2 122 -4 168h156l8 -63h3c18 26 66 74 148 74c115 0 178 -78 178 -213v-290h-181v268c0 57 -19 90 -63 90c-35 0 -51 -24 -59 -43c-4 -9 -5 -23 -5 -36v-279h-181zM359 550h-120l-101 156h113l47 -84h2l47 84h114z" />
    <glyph glyph-name="n_uni0302" unicode="&#xe007;" horiz-adv-x="599" 
d="M240 706h120l101 -156h-113l-47 84h-2l-47 -84h-114zM55 0v324c0 66 -2 122 -4 168h156l8 -63h3c18 26 66 74 148 74c115 0 178 -78 178 -213v-290h-181v268c0 57 -19 90 -63 90c-35 0 -51 -24 -59 -43c-4 -9 -5 -23 -5 -36v-279h-181z" />
    <glyph glyph-name="ncommaaccent" unicode="&#x146;" horiz-adv-x="599" 
d="M55 0v324c0 66 -2 122 -4 168h156l8 -63h3c18 26 66 74 148 74c115 0 178 -78 178 -213v-290h-181v268c0 57 -19 90 -63 90c-35 0 -51 -24 -59 -43c-4 -9 -5 -23 -5 -36v-279h-181zM225 -251l-25 75c31 7 62 28 62 59c0 24 -16 45 -27 60l123 19c20 -16 39 -46 39 -82
c0 -87 -73 -128 -172 -131z" />
    <glyph glyph-name="obreve" unicode="&#x14f;" horiz-adv-x="589" 
d="M302 503c154 0 256 -104 256 -252c0 -179 -128 -262 -266 -262c-147 0 -261 93 -261 253c0 157 103 261 271 261zM297 376c-60 0 -80 -65 -80 -130c0 -74 24 -130 80 -130c49 0 75 51 75 130c0 68 -22 130 -75 130zM149 696h91c5 -34 20 -57 53 -57c39 0 55 26 56 57h90
c-1 -88 -49 -150 -145 -150s-144 62 -145 150z" />
    <glyph glyph-name="ohungarumlaut" unicode="&#x151;" horiz-adv-x="589" 
d="M302 503c154 0 256 -104 256 -252c0 -179 -128 -262 -266 -262c-147 0 -261 93 -261 253c0 157 103 261 271 261zM297 376c-60 0 -80 -65 -80 -130c0 -74 24 -130 80 -130c49 0 75 51 75 130c0 68 -22 130 -75 130zM183 705h134l-92 -155h-99zM369 705h134l-92 -155h-99z
" />
    <glyph glyph-name="omacron" unicode="&#x14d;" horiz-adv-x="589" 
d="M302 503c154 0 256 -104 256 -252c0 -179 -128 -262 -266 -262c-147 0 -261 93 -261 253c0 157 103 261 271 261zM297 376c-60 0 -80 -65 -80 -130c0 -74 24 -130 80 -130c49 0 75 51 75 130c0 68 -22 130 -75 130zM164 675h261v-96h-261v96z" />
    <glyph glyph-name="oslashacute" unicode="&#x1ff;" horiz-adv-x="589" 
d="M295 503c43 0 82 -7 116 -23l49 73l59 -42l-47 -69c55 -44 86 -111 86 -195c0 -173 -129 -258 -262 -258c-41 0 -80 7 -113 22l-51 -75l-57 45l46 67c-57 43 -90 109 -90 197c0 152 103 258 264 258zM216 186l118 177c-11 8 -24 13 -40 13c-67 0 -90 -70 -90 -130
c0 -20 2 -42 10 -59zM375 301l-117 -172c9 -9 23 -13 38 -13c57 0 89 50 89 126c0 19 -2 41 -7 58zM298 706h160l-123 -156h-122z" />
    <glyph glyph-name="racute" unicode="&#x155;" horiz-adv-x="403" 
d="M55 0v326c0 78 -1 125 -4 166h154l7 -89h4c26 75 88 100 131 100c16 0 23 0 36 -3v-169c-13 3 -27 5 -46 5c-53 0 -89 -22 -99 -62c-1 -8 -2 -19 -2 -31v-243h-181zM210 706h159l-123 -156h-122z" />
    <glyph glyph-name="rcaron" unicode="&#x159;" horiz-adv-x="403" 
d="M55 0v326c0 78 -1 125 -4 166h154l7 -89h4c26 75 88 100 131 100c16 0 23 0 36 -3v-169c-13 3 -27 5 -46 5c-53 0 -89 -22 -99 -62c-1 -8 -2 -19 -2 -31v-243h-181zM268 550h-120l-101 156h113l47 -84h2l47 84h114z" />
    <glyph glyph-name="rcommaaccent" unicode="&#x157;" horiz-adv-x="403" 
d="M55 0v326c0 78 -1 125 -4 166h154l7 -89h4c26 75 88 100 131 100c16 0 23 0 36 -3v-169c-13 3 -27 5 -46 5c-53 0 -89 -22 -99 -62c-1 -8 -2 -19 -2 -31v-243h-181zM68 -251l-25 75c31 7 62 28 62 59c0 24 -16 45 -27 60l123 19c20 -16 39 -46 39 -82
c0 -87 -73 -128 -172 -131z" />
    <glyph glyph-name="sacute" unicode="&#x15b;" horiz-adv-x="451" 
d="M29 24l31 127c28 -17 92 -37 136 -37c39 0 54 8 54 27c0 18 -11 26 -64 42c-109 35 -146 94 -145 151c0 98 84 169 214 169c60 0 114 -14 146 -28l-29 -122c-23 11 -69 27 -109 27c-31 0 -49 -8 -49 -28c0 -16 16 -26 74 -45c97 -32 134 -82 135 -153
c0 -94 -73 -165 -225 -165c-69 0 -130 15 -169 35zM243 706h159l-123 -156h-122z" />
    <glyph glyph-name="scedilla" unicode="&#x15f;" horiz-adv-x="451" 
d="M30 24l30 127c28 -17 92 -37 136 -37c39 0 54 8 54 27c0 18 -11 26 -64 42c-109 35 -145 94 -145 151c1 98 84 169 214 169c60 0 114 -14 146 -28l-29 -122c-23 11 -69 27 -109 27c-31 0 -49 -8 -49 -28c0 -16 16 -26 74 -45c97 -32 135 -82 135 -153
c0 -78 -50 -140 -155 -159l-20 -36c38 -5 73 -32 73 -74c0 -68 -61 -90 -128 -90c-36 0 -66 8 -86 21l22 62c18 -10 40 -17 55 -17c16 0 32 6 32 23c0 16 -19 30 -78 34l35 72h-1c-23 0 -87 7 -142 34z" />
    <glyph glyph-name="scircumflex" unicode="&#x15d;" horiz-adv-x="451" 
d="M29 24l31 127c28 -17 92 -37 136 -37c39 0 54 8 54 27c0 18 -11 26 -64 42c-109 35 -146 94 -145 151c0 98 84 169 214 169c60 0 114 -14 146 -28l-29 -122c-23 11 -69 27 -109 27c-31 0 -49 -8 -49 -28c0 -16 16 -26 74 -45c97 -32 134 -82 135 -153
c0 -94 -73 -165 -225 -165c-69 0 -130 15 -169 35zM169 706h120l101 -156h-113l-47 84h-2l-47 -84h-114z" />
    <glyph glyph-name="scommaaccent" unicode="&#x219;" horiz-adv-x="451" 
d="M29 24l31 127c28 -17 92 -37 136 -37c39 0 54 8 54 27c0 18 -11 26 -64 42c-109 35 -146 94 -145 151c0 98 84 169 214 169c60 0 114 -14 146 -28l-29 -122c-23 11 -69 27 -109 27c-31 0 -49 -8 -49 -28c0 -16 16 -26 74 -45c97 -32 134 -82 135 -153
c0 -94 -73 -165 -225 -165c-69 0 -130 15 -169 35zM148 -251l-25 75c31 7 62 28 62 59c0 24 -16 45 -27 60l123 19c20 -16 39 -46 39 -82c0 -87 -73 -128 -172 -131z" />
    <glyph glyph-name="tcaron" unicode="&#x165;" horiz-adv-x="385" 
d="M77 585l176 47v-140h102v-132h-102v-141c0 -59 13 -83 57 -83c21 0 28 0 43 4v-137c-21 -8 -61 -14 -107 -14c-53 0 -97 19 -123 45c-30 30 -46 78 -46 153v173h-61v132h61v93zM350 536l-41 64c19 12 31 42 31 66c0 18 -6 38 -13 52l112 17c15 -12 30 -41 30 -69
c0 -78 -71 -120 -119 -130z" />
    <glyph glyph-name="tcommaaccent" unicode="&#x163;" horiz-adv-x="383" 
d="M77 584l176 48v-140h102v-132h-102v-141c0 -59 13 -83 57 -83c21 0 28 0 43 4v-137c-21 -8 -61 -14 -107 -14c-53 0 -97 19 -123 45c-30 30 -46 78 -46 153v173h-61v132h61v92zM127 -251l-25 75c31 7 62 28 62 59c0 24 -16 45 -27 60l123 19c20 -16 39 -46 39 -82
c0 -87 -73 -128 -172 -131z" />
    <glyph glyph-name="ubreve" unicode="&#x16d;" horiz-adv-x="598" 
d="M541 492v-324c0 -70 2 -126 4 -168h-156l-8 65h-3c-18 -27 -61 -76 -149 -76c-110 0 -175 71 -175 213v290h181v-261c0 -63 20 -97 63 -97c33 0 51 23 58 42c3 7 4 16 4 26v290h181zM154 696h91c5 -34 20 -57 53 -57c39 0 55 26 56 57h90c-1 -88 -49 -150 -146 -150
c-95 0 -143 62 -144 150z" />
    <glyph glyph-name="uhungarumlaut" unicode="&#x171;" horiz-adv-x="598" 
d="M541 492v-324c0 -70 2 -126 4 -168h-156l-8 65h-3c-18 -27 -61 -76 -149 -76c-110 0 -175 71 -175 213v290h181v-261c0 -63 20 -97 63 -97c33 0 51 23 58 42c3 7 4 16 4 26v290h181zM208 705h135l-92 -155h-99zM395 705h134l-92 -155h-99z" />
    <glyph glyph-name="umacron" unicode="&#x16b;" horiz-adv-x="598" 
d="M541 492v-324c0 -70 2 -126 4 -168h-156l-8 65h-3c-18 -27 -61 -76 -149 -76c-110 0 -175 71 -175 213v290h181v-261c0 -63 20 -97 63 -97c33 0 51 23 58 42c3 7 4 16 4 26v290h181zM169 675h261v-96h-261v96z" />
    <glyph glyph-name="uogonek" unicode="&#x173;" horiz-adv-x="598" 
d="M541 492v-324c0 -70 2 -126 4 -168h-60c-7 -16 -13 -36 -13 -57c0 -33 24 -58 56 -58c19 0 34 3 43 6l24 -81c-30 -23 -76 -35 -111 -35c-75 0 -121 38 -121 115c0 46 22 95 26 110l-8 65h-3c-18 -27 -61 -76 -149 -76c-110 0 -175 71 -175 213v290h181v-261
c0 -63 20 -97 63 -97c33 0 51 23 58 42c3 7 4 16 4 26v290h181z" />
    <glyph glyph-name="uring" unicode="&#x16f;" horiz-adv-x="598" 
d="M541 492v-324c0 -70 2 -126 4 -168h-156l-8 65h-3c-18 -27 -61 -76 -149 -76c-110 0 -175 71 -175 213v290h181v-261c0 -63 20 -97 63 -97c33 0 51 23 58 42c3 7 4 16 4 26v290h181zM299 540c-76 0 -121 43 -121 99c0 57 42 102 122 102c79 0 119 -43 119 -101
c0 -57 -45 -100 -120 -100zM298 595c29 0 44 21 44 45c0 23 -14 46 -44 46c-28 0 -42 -24 -42 -47c0 -21 15 -44 42 -44z" />
    <glyph glyph-name="utilde" unicode="&#x169;" horiz-adv-x="598" 
d="M541 492v-324c0 -70 2 -126 4 -168h-156l-8 65h-3c-18 -27 -61 -76 -149 -76c-110 0 -175 71 -175 213v290h181v-261c0 -63 20 -97 63 -97c33 0 51 23 58 42c3 7 4 16 4 26v290h181zM230 554h-82c-4 93 33 143 88 143c26 0 48 -10 66 -20c17 -10 31 -20 43 -20
c16 0 22 9 25 45h80c4 -102 -33 -140 -88 -140c-30 0 -51 11 -72 22c-17 9 -24 15 -36 15c-14 0 -23 -14 -24 -45z" />
    <glyph glyph-name="wacute" unicode="&#x1e83;" horiz-adv-x="769" 
d="M8 492h184l28 -181c8 -49 17 -105 24 -163h2c9 58 23 115 33 162l39 182h141l38 -175c11 -55 24 -111 32 -169h2c6 58 15 115 25 171l29 173h176l-147 -492h-170l-34 146c-10 46 -17 87 -27 150h-2c-7 -63 -15 -106 -25 -148l-37 -148h-170zM392 706h159l-123 -156h-122z
" />
    <glyph glyph-name="wcircumflex" unicode="&#x175;" horiz-adv-x="769" 
d="M8 492h184l28 -181c8 -49 17 -105 24 -163h2c9 58 23 115 33 162l39 182h141l38 -175c11 -55 24 -111 32 -169h2c6 58 15 115 25 171l29 173h176l-147 -492h-170l-34 146c-10 46 -17 87 -27 150h-2c-7 -63 -15 -106 -25 -148l-37 -148h-170zM326 706h119l101 -156h-113
l-46 84h-2l-48 -84h-114z" />
    <glyph glyph-name="wdieresis" unicode="&#x1e85;" horiz-adv-x="769" 
d="M8 492h184l28 -181c8 -49 17 -105 24 -163h2c9 58 23 115 33 162l39 182h141l38 -175c11 -55 24 -111 32 -169h2c6 58 15 115 25 171l29 173h176l-147 -492h-170l-34 146c-10 46 -17 87 -27 150h-2c-7 -63 -15 -106 -25 -148l-37 -148h-170zM274 551c-45 0 -80 35 -80 79
c0 46 35 79 81 79c43 0 76 -33 76 -79c0 -44 -33 -79 -77 -79zM496 551h-2c-44 0 -78 35 -78 79c0 46 34 79 80 79c44 0 77 -33 77 -79c0 -44 -33 -79 -77 -79z" />
    <glyph glyph-name="wgrave" unicode="&#x1e81;" horiz-adv-x="769" 
d="M8 492h184l28 -181c8 -49 17 -105 24 -163h2c9 58 23 115 33 162l39 182h141l38 -175c11 -55 24 -111 32 -169h2c6 58 15 115 25 171l29 173h176l-147 -492h-170l-34 146c-10 46 -17 87 -27 150h-2c-7 -63 -15 -106 -25 -148l-37 -148h-170zM224 706h160l85 -156h-123z
" />
    <glyph glyph-name="ycircumflex" unicode="&#x177;" horiz-adv-x="545" 
d="M5 492h200l59 -221c7 -27 16 -63 22 -88h3c6 26 13 62 18 87l45 222h192l-105 -313c-74 -206 -122 -281 -175 -328c-57 -50 -118 -67 -164 -72l-37 152c18 3 40 9 62 19c23 9 46 29 58 45c5 7 9 15 9 22c0 6 -1 14 -7 26zM221 706h120l101 -156h-113l-47 84h-2l-47 -84
h-114z" />
    <glyph glyph-name="ygrave" unicode="&#x1ef3;" horiz-adv-x="545" 
d="M5 492h200l59 -221c7 -27 16 -63 22 -88h3c6 26 13 62 18 87l45 222h192l-105 -313c-74 -206 -122 -281 -175 -328c-57 -50 -118 -67 -164 -72l-37 152c18 3 40 9 62 19c23 9 46 29 58 45c5 7 9 15 9 22c0 6 -1 14 -7 26zM119 706h160l85 -156h-123z" />
    <glyph glyph-name="uni0233" unicode="&#x233;" horiz-adv-x="545" 
d="M5 492h200l59 -221c7 -27 16 -63 22 -88h3c6 26 13 62 18 87l45 222h192l-105 -313c-74 -206 -122 -281 -175 -328c-57 -50 -118 -67 -164 -72l-37 152c18 3 40 9 62 19c23 9 46 29 58 45c5 7 9 15 9 22c0 6 -1 14 -7 26zM143 675h261v-96h-261v96z" />
    <glyph glyph-name="zacute" unicode="&#x17a;" horiz-adv-x="486" 
d="M24 0v103l126 153c31 35 54 60 84 91v2h-194v143h414v-108l-118 -143c-29 -34 -57 -67 -87 -96v-2h214v-143h-439zM258 706h159l-123 -156h-122z" />
    <glyph glyph-name="zdotaccent" unicode="&#x17c;" horiz-adv-x="486" 
d="M24 0v103l126 153c31 35 54 60 84 91v2h-194v143h414v-108l-118 -143c-29 -34 -57 -67 -87 -96v-2h214v-143h-439zM248 551c-45 0 -80 35 -80 79c0 46 35 79 81 79c43 0 76 -33 76 -79c0 -44 -33 -79 -77 -79z" />
    <glyph glyph-name="aeacute" unicode="&#x1fd;" horiz-adv-x="816" 
d="M785 190h-303c5 -39 51 -69 122 -69c58 0 96 9 139 26l23 -120c-61 -31 -130 -38 -189 -38c-80 0 -151 27 -187 79h-4c-41 -46 -97 -79 -183 -79c-109 0 -176 71 -176 160c0 123 121 182 287 182v12c0 9 -16 37 -85 37c-52 0 -102 -20 -133 -37l-33 113
c33 16 98 47 181 47c75 0 131 -24 164 -69h2c41 44 97 69 166 69c144 0 213 -117 213 -252c0 -22 -4 -48 -4 -61zM319 180v43c-77 0 -116 -23 -116 -62c0 -32 24 -47 53 -47c27 0 48 18 59 38c4 7 4 17 4 28zM481 310h143c0 24 -8 77 -69 77c-54 0 -74 -50 -74 -77zM407 706
h160l-123 -156h-122z" />
    <glyph glyph-name="space_uni0326" unicode="&#xf6c3;" 
d="M76 -251l-25 75c31 7 62 28 62 59c0 24 -16 45 -27 60l123 19c20 -16 39 -46 39 -82c0 -87 -73 -128 -172 -131z" />
    <glyph glyph-name="acute.cap" unicode="&#xf6c9;" 
d="M143 836h183l-120 -126h-144z" />
    <glyph glyph-name="breve.cap" unicode="&#xefee;" 
d="M3 855h93c2 -22 15 -45 53 -45c39 0 54 21 59 45h89c-2 -79 -47 -135 -147 -135c-103 0 -145 56 -147 135z" />
    <glyph glyph-name="caron.cap" unicode="&#xf6ca;" 
d="M217 710h-135l-99 126h121l45 -59h2l44 59h121z" />
    <glyph glyph-name="cedilla.cap" unicode="&#xeff2;" 
d="M117 5h93l-20 -47c38 -10 74 -35 74 -84c0 -75 -68 -98 -127 -98c-32 0 -66 6 -91 20l21 69c15 -8 40 -14 57 -14c18 0 33 6 33 22c0 18 -20 30 -79 36z" />
    <glyph glyph-name="circumflex.cap" unicode="&#xeff7;" 
d="M83 836h135l99 -126h-121l-45 59h-2l-44 -59h-121z" />
    <glyph glyph-name="space_uni0326.cap" unicode="&#xf634;" 
d="M76 -250l-25 75c31 7 62 28 62 58c0 24 -16 45 -27 60l123 19c20 -16 39 -45 39 -82c0 -87 -73 -128 -172 -130z" />
    <glyph glyph-name="dieresis.cap" unicode="&#xf6cb;" 
d="M42 709c-43 0 -77 35 -77 77c0 43 34 76 78 76c41 0 74 -33 74 -76c0 -42 -33 -77 -75 -77zM259 709c-43 0 -76 35 -76 77c0 43 33 76 77 76c42 0 75 -33 75 -76c0 -42 -33 -77 -76 -77z" />
    <glyph glyph-name="dotaccent.cap" unicode="&#xefed;" 
d="M151 709c-44 0 -78 35 -78 76c0 44 35 77 79 77c42 0 75 -33 75 -77c0 -41 -33 -76 -76 -76z" />
    <glyph glyph-name="grave.cap" unicode="&#xf6ce;" 
d="M-19 836h183l81 -124h-144z" />
    <glyph glyph-name="hungarumlaut.cap" unicode="&#xf6cf;" 
d="M53 838h161l-98 -118h-122zM250 838h160l-97 -118h-122z" />
    <glyph glyph-name="macron.cap" unicode="&#xf6d0;" 
d="M17 827h268v-92h-268v92z" />
    <glyph glyph-name="ogonek.cap" unicode="&#xeff1;" 
d="M64 1h92c-7 -16 -13 -37 -13 -62c0 -29 20 -54 54 -54c19 0 36 5 45 8l24 -83c-30 -23 -76 -35 -111 -35c-75 0 -121 38 -121 115c0 46 22 95 30 111z" />
    <glyph glyph-name="ring.cap" unicode="&#xeff3;" horiz-adv-x="400" 
d="M202 900c81 0 120 -45 120 -102c0 -56 -43 -100 -121 -100s-122 45 -122 99c0 56 42 103 123 103zM198 843c-27 0 -41 -23 -41 -45s15 -43 42 -43c29 0 44 19 44 43c0 23 -16 45 -45 45z" />
    <glyph glyph-name="tilde.cap" unicode="&#xeff5;" 
d="M83 714h-80c-3 95 31 139 81 139c29 0 49 -10 66 -20c17 -11 32 -20 43 -20c17 0 23 10 27 44h78c3 -101 -29 -136 -84 -136c-29 0 -51 9 -67 18c-17 10 -28 18 -41 18c-11 0 -21 -13 -23 -43z" />
    <glyph glyph-name="Alpha" unicode="&#x391;" horiz-adv-x="675" 
d="M413 156h-174l-38 -156h-187l195 674h241l201 -674h-195zM263 289h125l-31 121c-10 38 -23 94 -34 133h-2c-10 -39 -20 -95 -29 -133z" />
    <glyph glyph-name="Beta" unicode="&#x392;" horiz-adv-x="631" 
d="M62 3v662c41 7 130 14 213 14c96 0 154 -7 206 -33c53 -24 91 -73 91 -139c0 -56 -31 -111 -110 -141v-2c82 -23 132 -84 132 -164c0 -64 -31 -114 -76 -147c-50 -38 -134 -61 -278 -61c-82 0 -142 5 -178 11zM241 545v-130h36c77 0 114 27 114 70c0 39 -30 64 -91 64
c-30 0 -47 -1 -59 -4zM241 287v-161c13 -2 29 -2 52 -2c60 0 111 24 111 84c0 57 -52 79 -120 79h-43z" />
    <glyph glyph-name="Gamma" unicode="&#x393;" horiz-adv-x="495" 
d="M62 674h430v-151h-249v-523h-181v674z" />
    <glyph glyph-name="uni0394" unicode="&#x394;" horiz-adv-x="661" 
d="M12 0v88l208 586h223l202 -585v-89h-633zM208 148h229l-77 243c-13 42 -28 101 -37 142h-4c-8 -32 -22 -92 -34 -135z" />
    <glyph glyph-name="Epsilon" unicode="&#x395;" horiz-adv-x="552" 
d="M485 418v-146h-242v-124h271v-148h-452v674h438v-148h-257v-108h242z" />
    <glyph glyph-name="Zeta" unicode="&#x396;" horiz-adv-x="588" 
d="M21 0v96l298 425v4h-270v149h504v-103l-289 -418v-4h294v-149h-537z" />
    <glyph glyph-name="Eta" unicode="&#x397;" horiz-adv-x="705" 
d="M62 674h181v-249h219v249h181v-674h-181v267h-219v-267h-181v674z" />
    <glyph glyph-name="Theta" unicode="&#x398;" horiz-adv-x="733" 
d="M359 -11c-210 0 -325 157 -325 344c0 197 129 353 336 353c217 0 328 -161 328 -343c0 -216 -131 -354 -339 -354zM368 132c88 0 140 84 140 206c0 117 -53 205 -141 205s-143 -88 -143 -206c0 -121 55 -205 144 -205zM274 414h183v-145h-183v145z" />
    <glyph glyph-name="Iota" unicode="&#x399;" horiz-adv-x="305" 
d="M62 674h181v-674h-181v674z" />
    <glyph glyph-name="Kappa" unicode="&#x39a;" horiz-adv-x="646" 
d="M62 0v674h179v-286h2c14 25 29 50 43 74l130 212h222l-214 -287l222 -387h-209l-142 273l-54 -69v-204h-179z" />
    <glyph glyph-name="Lambda" unicode="&#x39b;" horiz-adv-x="665" 
d="M653 0h-198l-98 378c-10 46 -23 102 -35 150h-2c-10 -48 -19 -104 -29 -151l-88 -377h-189l196 674h238z" />
    <glyph glyph-name="Mu" unicode="&#x39c;" horiz-adv-x="865" 
d="M641 0l-8 241c-3 77 -4 167 -4 272h-3c-21 -89 -49 -190 -71 -264l-67 -235h-141l-56 234c-18 73 -38 173 -54 265h-2c-4 -95 -7 -195 -10 -272l-11 -241h-166l42 674h243l44 -181c19 -75 39 -165 53 -247h3c19 82 41 177 61 248l51 180h237l34 -674h-175z" />
    <glyph glyph-name="Nu" unicode="&#x39d;" horiz-adv-x="705" 
d="M227 0h-165v674h213l107 -207c37 -67 76 -157 106 -236h3c-10 89 -14 183 -14 284v159h165v-674h-190l-115 224c-37 71 -81 162 -113 243h-4c5 -91 7 -192 7 -302v-165z" />
    <glyph glyph-name="Xi" unicode="&#x39e;" horiz-adv-x="589" 
d="M58 674h478v-146h-478v146zM88 417h417v-146h-417v146zM42 148h510v-148h-510v148z" />
    <glyph glyph-name="Omicron" unicode="&#x39f;" horiz-adv-x="730" 
d="M358 -11c-209 0 -324 157 -324 344c0 197 128 353 335 353c217 0 327 -161 327 -342c0 -217 -130 -355 -338 -355zM365 132h2c87 0 138 85 138 207c0 116 -52 204 -140 204c-87 0 -140 -88 -140 -205c-1 -121 53 -206 140 -206z" />
    <glyph glyph-name="Pi" unicode="&#x3a0;" horiz-adv-x="681" 
d="M619 674v-674h-181v522h-195v-522h-181v674h557z" />
    <glyph glyph-name="Rho" unicode="&#x3a1;" horiz-adv-x="602" 
d="M62 0v664c49 8 120 15 222 15c97 0 167 -18 214 -54c46 -34 77 -93 77 -162c0 -68 -23 -127 -66 -166c-54 -48 -133 -70 -224 -70c-18 0 -33 2 -44 2v-229h-179zM241 539v-172c10 -1 22 -2 41 -2c70 0 114 36 114 94c0 50 -33 84 -102 84c-26 0 -44 -2 -53 -4z" />
    <glyph glyph-name="Sigma" unicode="&#x3a3;" horiz-adv-x="590" 
d="M261 152v-4h293v-148h-522v101l185 233l-175 223v117h489v-148h-260v-3l139 -182z" />
    <glyph glyph-name="Tau" unicode="&#x3a4;" horiz-adv-x="570" 
d="M193 0v522h-172v152h528v-152h-175v-522h-181z" />
    <glyph glyph-name="Upsilon" unicode="&#x3a5;" horiz-adv-x="642" 
d="M8 531l27 149c60 0 147 -23 208 -90c48 -50 73 -120 81 -203h8c10 79 41 145 86 195c56 62 134 98 189 98l27 -154c-104 -26 -185 -141 -211 -253c-11 -50 -16 -95 -16 -138v-135h-181v135c0 51 -2 83 -9 131c-20 125 -76 242 -209 265z" />
    <glyph glyph-name="Phi" unicode="&#x3a6;" horiz-adv-x="815" 
d="M490 27v-56h-168v56c-148 20 -289 117 -289 307c0 199 161 297 291 316v53h168v-53c144 -19 289 -117 289 -309c0 -188 -139 -290 -291 -314zM323 153v373c-51 -14 -109 -72 -109 -193c0 -106 62 -169 109 -180zM491 526v-373c47 12 109 60 109 182
c0 124 -59 180 -109 191z" />
    <glyph glyph-name="Chi" unicode="&#x3a7;" horiz-adv-x="631" 
d="M619 0h-209l-49 110c-20 43 -35 78 -52 117h-2c-12 -39 -27 -74 -44 -116l-45 -111h-205l190 341l-183 333h207l46 -107c17 -40 30 -73 45 -112h2c15 44 25 74 40 111l41 108h206l-183 -329z" />
    <glyph glyph-name="Psi" unicode="&#x3a8;" horiz-adv-x="767" 
d="M730 674v-195c0 -213 -122 -294 -263 -304v-175h-164v175c-142 10 -263 84 -263 268v231h173v-204c0 -124 39 -155 90 -159v363h164v-364c50 5 90 41 90 196v168h173z" />
    <glyph glyph-name="uni03A9" unicode="&#x3a9;" horiz-adv-x="761" 
d="M598 139v-3h129v-136h-316v104c64 51 119 128 119 246c0 110 -59 193 -147 193s-151 -81 -151 -193c0 -103 53 -206 120 -246v-104h-319v136h127v3c-51 41 -115 121 -115 235c0 169 136 312 342 312c215 0 329 -152 329 -300c0 -126 -70 -205 -118 -247z" />
    <glyph glyph-name="Alphatonos" unicode="&#x386;" horiz-adv-x="685" 
d="M423 156h-175l-38 -156h-186l195 674h241l201 -674h-195zM272 289h126l-31 121c-11 38 -23 94 -34 133h-2c-10 -39 -20 -95 -30 -133zM0 674h140l-38 -182h-102v182z" />
    <glyph glyph-name="Epsilontonos" unicode="&#x388;" horiz-adv-x="677" 
d="M610 418v-146h-242v-124h271v-148h-452v674h438v-148h-257v-108h242zM0 674h140l-38 -182h-102v182z" />
    <glyph glyph-name="Etatonos" unicode="&#x389;" horiz-adv-x="829" 
d="M187 674h180v-249h219v249h181v-674h-181v267h-219v-267h-180v674zM0 674h140l-38 -182h-102v182z" />
    <glyph glyph-name="Iotatonos" unicode="&#x38a;" horiz-adv-x="430" 
d="M187 674h181v-674h-181v674zM0 674h140l-38 -182h-102v182z" />
    <glyph glyph-name="Iotadieresis" unicode="&#x3aa;" horiz-adv-x="305" 
d="M46 715c-43 0 -77 34 -77 76c0 44 34 76 78 76c41 0 73 -32 73 -76c0 -42 -32 -76 -74 -76zM259 715c-43 0 -75 34 -75 76c0 44 32 76 76 76c43 0 75 -32 75 -76c0 -42 -32 -76 -76 -76zM62 674h181v-674h-181v674z" />
    <glyph glyph-name="Omicrontonos" unicode="&#x38c;" horiz-adv-x="820" 
d="M448 -11c-209 0 -324 157 -324 344c0 197 128 353 335 353c217 0 327 -161 327 -342c0 -217 -130 -355 -338 -355zM455 132h2c87 0 138 85 138 207c0 116 -52 204 -140 204c-87 0 -140 -88 -140 -205c-1 -121 53 -206 140 -206zM0 674h141l-39 -182h-102v182z" />
    <glyph glyph-name="Upsilontonos" unicode="&#x38e;" horiz-adv-x="810" 
d="M173 531l27 149c60 0 147 -23 208 -90c48 -50 73 -120 81 -203h8c10 79 41 145 86 195c56 62 134 98 189 98l27 -154c-104 -26 -185 -141 -211 -253c-11 -50 -16 -95 -16 -138v-135h-181v135c0 51 -2 83 -9 131c-20 125 -76 242 -209 265zM0 674h140l-38 -182h-102v182z
" />
    <glyph glyph-name="Upsilondieresis" unicode="&#x3ab;" horiz-adv-x="642" 
d="M218 698c-43 0 -77 34 -77 76c0 44 34 76 78 76c41 0 73 -32 73 -76c0 -42 -32 -76 -74 -76zM431 698c-43 0 -75 34 -75 76c0 44 32 76 76 76c43 0 75 -32 75 -76c0 -42 -32 -76 -76 -76zM8 531l27 149c60 0 147 -23 208 -90c48 -50 73 -120 81 -203h8
c10 79 41 145 86 195c56 62 134 98 189 98l27 -154c-104 -26 -185 -141 -211 -253c-11 -50 -16 -95 -16 -138v-135h-181v135c0 51 -2 83 -9 131c-20 125 -76 242 -209 265z" />
    <glyph glyph-name="Omegatonos" unicode="&#x38f;" horiz-adv-x="846" 
d="M683 139v-3h129v-136h-316v104c64 51 119 118 119 246c0 110 -59 193 -147 193s-151 -81 -151 -193c0 -115 53 -206 120 -246v-104h-319v136h127v3c-52 41 -115 121 -115 235c0 169 136 312 342 312c215 0 329 -152 329 -300c0 -126 -70 -205 -118 -247zM0 674h140
l-38 -182h-102v182z" />
    <glyph glyph-name="alpha" unicode="&#x3b1;" horiz-adv-x="596" 
d="M400 492h151c-7 -88 -14 -215 -14 -308c0 -54 21 -63 44 -60l-9 -124c-9 -6 -38 -11 -62 -11c-64 0 -100 30 -117 84h-2c-35 -60 -93 -84 -154 -84c-112 0 -206 95 -206 246c0 168 115 268 226 268c51 0 98 -19 127 -66h4c3 17 8 38 12 55zM214 244
c0 -67 34 -113 74 -113c37 0 65 36 71 78c2 14 3 25 3 40c0 14 0 25 -1 35c-8 53 -36 82 -69 82c-50 0 -78 -58 -78 -122z" />
    <glyph glyph-name="beta" unicode="&#x3b2;" horiz-adv-x="599" 
d="M229 26h-2v-53c0 -62 2 -130 12 -171h-167c-14 28 -20 104 -20 171v432c0 147 35 212 81 254c38 35 93 62 173 62c140 0 209 -88 209 -187c0 -47 -22 -117 -76 -147v-5c67 -17 129 -90 129 -180c0 -124 -89 -213 -214 -213c-47 0 -91 9 -125 37zM226 440v-279
c23 -26 50 -38 79 -38c60 0 81 45 81 87c0 58 -42 89 -88 95c-6 1 -13 0 -20 0v108c6 0 10 1 16 3c37 10 61 45 61 89s-21 77 -59 77c-39 0 -70 -30 -70 -142z" />
    <glyph glyph-name="gamma" unicode="&#x3b3;" horiz-adv-x="536" 
d="M342 -198h-174c2 96 2 184 -16 277c-32 164 -111 318 -167 413h199c33 -51 81 -185 104 -317h4c29 72 55 172 55 269c0 26 -1 37 -1 48h171c2 -11 2 -28 2 -40c0 -125 -68 -286 -173 -436c-6 -8 -7 -16 -7 -24c0 -36 1 -124 3 -190z" />
    <glyph glyph-name="delta" unicode="&#x3b4;" horiz-adv-x="589" 
d="M517 671l-45 -110c-18 11 -73 34 -123 34c-29 0 -42 -6 -42 -18c0 -10 16 -23 49 -50l82 -66c73 -59 119 -132 119 -218c0 -156 -120 -254 -268 -254c-147 0 -258 99 -258 241c0 123 85 192 156 227v4l-17 17c-17 17 -52 52 -52 102c0 69 76 141 212 141
c88 0 156 -28 187 -50zM325 336l-42 37c-38 -25 -66 -71 -66 -139c0 -59 31 -118 83 -118c45 0 76 47 76 110c0 39 -19 82 -51 110z" />
    <glyph glyph-name="epsilon" unicode="&#x3b5;" horiz-adv-x="481" 
d="M133 258v5c-49 18 -80 52 -80 101c0 68 68 139 222 139c75 0 126 -12 171 -37l-30 -113c-28 14 -70 26 -112 26c-46 0 -70 -15 -70 -35c0 -23 34 -31 103 -32h43v-115h-42c-63 -1 -112 -5 -112 -34c0 -30 41 -41 83 -41c40 0 92 12 127 27l23 -115
c-59 -36 -141 -45 -199 -45c-111 0 -229 39 -229 153c0 61 49 103 102 116z" />
    <glyph glyph-name="zeta" unicode="&#x3b6;" horiz-adv-x="456" 
d="M369 -156l-109 35c9 22 22 70 23 94c-28 5 -69 14 -109 30c-70 29 -141 90 -141 218c0 125 70 254 184 354v6h-37c-47 0 -86 4 -109 14l16 113c32 -3 85 -3 147 -3h194l25 -116c-119 -50 -235 -198 -235 -334c0 -64 25 -104 68 -127c42 -24 100 -33 151 -41
c6 -1 11 -8 11 -14c0 -72 -35 -175 -79 -229z" />
    <glyph glyph-name="eta" unicode="&#x3b7;" horiz-adv-x="599" 
d="M215 429h3c18 26 66 74 148 74c115 0 178 -78 178 -213v-320c0 -59 0 -131 10 -168h-172c-15 22 -19 104 -19 171v295c0 57 -19 90 -63 90c-35 0 -51 -24 -59 -43c-4 -9 -5 -23 -5 -37v-278h-181v324c0 69 -4 128 -16 168h158c9 -16 17 -39 18 -63z" />
    <glyph glyph-name="theta" unicode="&#x3b8;" horiz-adv-x="586" 
d="M291 -11c-164 0 -260 130 -260 371c0 205 90 361 270 361c175 0 254 -149 254 -361c0 -222 -83 -371 -264 -371zM209 423h168c-1 101 -30 174 -82 174c-58 0 -86 -74 -86 -174zM379 296h-169c0 -108 26 -183 86 -183c58 0 83 74 83 183z" />
    <glyph glyph-name="iota" unicode="&#x3b9;" horiz-adv-x="299" 
d="M236 492v-324c0 -34 16 -46 45 -43l-9 -124c-14 -8 -48 -12 -75 -12c-91 0 -142 37 -142 162v341h181z" />
    <glyph glyph-name="kappa" unicode="&#x3ba;" horiz-adv-x="571" 
d="M386 270v-5c45 -12 74 -61 106 -125l75 -140h-207l-45 96c-27 58 -46 94 -73 97h-6v-193h-180v359c0 51 -5 117 -14 133h176c10 -10 18 -42 18 -90v-109h2c40 60 87 141 120 199h202v-6c-57 -71 -115 -144 -174 -216z" />
    <glyph glyph-name="lambda" unicode="&#x3bb;" horiz-adv-x="538" 
d="M345 0l-54 198c-8 28 -16 60 -26 103h-6c-6 -36 -13 -70 -20 -101l-49 -200h-188l170 450c4 13 5 20 5 26c0 7 -3 17 -6 26c-17 45 -58 72 -92 72h-24l16 137c11 3 37 6 57 6c119 0 180 -100 225 -221l184 -496h-192z" />
    <glyph glyph-name="uni03BC" unicode="&#x3bc;" horiz-adv-x="598" 
d="M386 64h-4c-14 -35 -53 -70 -112 -70c-19 0 -39 7 -53 19v-35c0 -52 3 -139 10 -176h-159c-9 22 -13 107 -13 176v514h181v-268c0 -62 21 -92 58 -92c31 0 56 24 63 42c3 8 4 18 4 28v290h181v-322c0 -37 14 -46 39 -47l-9 -122c-13 -8 -38 -12 -65 -12
c-65 0 -103 29 -121 75z" />
    <glyph glyph-name="nu" unicode="&#x3bd;" horiz-adv-x="529" 
d="M-3 492h194l54 -209c10 -40 17 -77 26 -118h5c38 86 64 190 64 290c0 13 0 23 -1 37h170c2 -13 2 -24 2 -39c0 -140 -80 -302 -172 -453h-175z" />
    <glyph glyph-name="xi" unicode="&#x3be;" horiz-adv-x="489" 
d="M411 437v-120h-28c-103 0 -160 -36 -160 -101c0 -47 32 -82 122 -105c38 -9 72 -16 124 -24c9 -1 13 -6 13 -14c0 -64 -36 -175 -79 -228l-110 35c9 21 19 69 20 93c-112 18 -282 56 -282 222c0 95 62 171 150 196v6c-66 27 -102 80 -102 143c0 97 82 181 242 181
c66 0 107 -11 145 -27l-27 -115c-27 11 -59 17 -86 17c-62 0 -93 -34 -93 -78c0 -52 49 -73 124 -80c8 -1 17 -1 27 -1z" />
    <glyph glyph-name="omicron" unicode="&#x3bf;" horiz-adv-x="589" 
d="M292 -11c-147 0 -261 93 -261 253c0 157 103 261 271 261c154 0 256 -104 256 -252c0 -179 -128 -262 -266 -262zM297 116c49 0 75 51 75 130c0 68 -22 130 -75 130c-60 0 -80 -65 -80 -130c0 -74 24 -130 80 -130z" />
    <glyph glyph-name="rho" unicode="&#x3c1;" horiz-adv-x="604" 
d="M234 27h-2v-57c0 -59 0 -131 6 -168h-174c-7 22 -12 104 -12 171v221c0 151 51 216 104 256c49 37 100 53 166 53c150 0 251 -103 251 -257c0 -173 -121 -257 -230 -257c-51 0 -89 16 -109 38zM232 233v-35c0 -11 1 -18 3 -27c7 -18 34 -45 70 -45c55 0 85 50 85 117
c0 70 -30 112 -78 112c-49 0 -80 -47 -80 -122z" />
    <glyph glyph-name="sigma" unicode="&#x3c3;" horiz-adv-x="612" 
d="M498 381l-2 -5c38 -38 53 -96 53 -135c0 -174 -119 -252 -256 -252c-148 0 -262 90 -262 250c0 157 103 264 280 264h94h85h113l-8 -129c-25 0 -58 2 -97 7zM297 116c49 0 75 51 75 130c0 68 -20 130 -72 130c-63 0 -83 -66 -83 -130c0 -74 24 -130 80 -130z" />
    <glyph glyph-name="tau" unicode="&#x3c4;" horiz-adv-x="469" 
d="M384 127l-7 -125c-15 -8 -44 -13 -79 -13c-124 0 -161 64 -161 183v184h-36c-44 0 -68 -2 -89 -6l-23 106c24 17 64 36 190 36h281l-17 -136h-125v-170c0 -43 17 -59 47 -59h19z" />
    <glyph glyph-name="upsilon" unicode="&#x3c5;" horiz-adv-x="573" 
d="M333 492h167c17 -35 37 -100 37 -186c0 -157 -66 -317 -262 -317c-128 0 -228 70 -228 217v123c0 67 -2 128 -13 163h176c13 -14 17 -41 17 -98v-178c0 -51 25 -82 63 -82c55 0 71 81 71 162c0 83 -18 167 -28 196z" />
    <glyph glyph-name="phi" unicode="&#x3c6;" horiz-adv-x="741" 
d="M216 505l67 -96c-37 -27 -73 -81 -73 -155c0 -76 36 -129 86 -144v206c0 137 91 190 180 187c123 -4 233 -99 233 -247c0 -165 -134 -255 -255 -267v-187h-158v187c-133 12 -265 90 -265 261c0 141 111 233 185 255zM453 355v-247c48 12 87 61 87 144
c0 77 -36 130 -67 130c-13 0 -20 -11 -20 -27z" />
    <glyph glyph-name="chi" unicode="&#x3c7;" horiz-adv-x="524" 
d="M-1 492h193l83 -204h4c8 24 17 48 28 77l49 127h170l-168 -335l167 -350l-171 -38l-103 237h-6c-8 -20 -16 -49 -34 -89l-63 -148l-153 39l172 349z" />
    <glyph glyph-name="psi" unicode="&#x3c8;" horiz-adv-x="758" 
d="M304 -198v187c-129 9 -253 68 -253 274v98c0 52 -1 95 -7 131h164c12 -14 15 -50 15 -98v-117c0 -123 36 -159 82 -164v507h157v-507c68 2 91 93 91 176c0 100 -20 178 -30 203h159c21 -41 41 -100 41 -192c0 -150 -67 -298 -260 -311v-187h-159z" />
    <glyph glyph-name="omega" unicode="&#x3c9;" horiz-adv-x="750" 
d="M457 379l-3 -173c0 -37 9 -66 34 -66c34 0 56 47 56 133c0 75 -20 162 -65 216v3h162c35 -35 78 -122 78 -228c0 -172 -92 -275 -213 -275c-56 0 -110 28 -133 74h-4c-27 -41 -72 -74 -133 -74c-107 0 -205 91 -205 261c0 115 42 196 80 242h161v-3
c-41 -56 -67 -141 -67 -226c0 -83 26 -123 53 -123c24 0 34 28 33 66l-2 173h168z" />
    <glyph glyph-name="uni03C2" unicode="&#x3c2;" horiz-adv-x="475" 
d="M459 477l-34 -126c-23 9 -55 17 -87 17c-69 0 -121 -50 -121 -131c0 -61 35 -97 88 -114c46 -15 94 -25 145 -35c5 -1 8 -6 8 -13c0 -75 -37 -188 -77 -232l-111 36c10 21 20 69 23 93c-17 4 -39 8 -66 17c-104 29 -196 95 -196 238c0 140 105 276 297 276
c53 0 99 -10 131 -26z" />
    <glyph glyph-name="alphatonos" unicode="&#x3ac;" horiz-adv-x="597" 
d="M288 706h153l-80 -156h-116zM400 492h151c-7 -88 -14 -215 -14 -308c0 -54 21 -63 44 -60l-9 -124c-9 -6 -38 -11 -62 -11c-64 0 -100 30 -117 84h-2c-35 -60 -93 -84 -154 -84c-112 0 -206 95 -206 246c0 168 115 268 226 268c51 0 98 -19 127 -66h4c3 17 8 38 12 55z
M214 244c0 -67 34 -113 74 -113c37 0 65 36 71 78c2 14 3 25 3 40c0 14 0 25 -1 35c-8 53 -36 82 -69 82c-50 0 -78 -58 -78 -122z" />
    <glyph glyph-name="epsilontonos" unicode="&#x3ad;" horiz-adv-x="481" 
d="M241 706h153l-79 -156h-116zM133 258v5c-49 18 -80 52 -80 101c0 68 68 139 222 139c75 0 126 -13 171 -37l-30 -113c-28 14 -70 26 -112 26c-46 0 -70 -15 -70 -35c0 -23 34 -31 103 -32h43v-115h-42c-63 -1 -112 -5 -112 -34c0 -30 41 -41 83 -41c40 0 92 12 127 27
l23 -115c-59 -36 -141 -45 -199 -45c-111 0 -229 39 -229 153c0 61 49 103 102 116z" />
    <glyph glyph-name="etatonos" unicode="&#x3ae;" horiz-adv-x="599" 
d="M283 706h154l-80 -156h-117zM215 429h3c18 26 66 74 148 74c115 0 178 -78 178 -213v-320c0 -59 0 -131 10 -168h-172c-15 22 -19 104 -19 171v295c0 57 -19 90 -63 90c-35 0 -51 -24 -59 -43c-4 -9 -5 -23 -5 -37v-278h-181v324c0 69 -4 128 -16 168h158
c9 -16 17 -39 18 -63z" />
    <glyph glyph-name="iotatonos" unicode="&#x3af;" horiz-adv-x="299" 
d="M129 707h156l-80 -156h-119zM236 492v-324c0 -34 16 -46 45 -43l-9 -124c-14 -8 -48 -12 -75 -12c-91 0 -142 37 -142 162v341h181z" />
    <glyph glyph-name="iotadieresis" unicode="&#x3ca;" horiz-adv-x="299" 
d="M44 543c-44 0 -78 35 -78 77c0 45 34 77 79 77c42 0 74 -32 74 -77c0 -42 -32 -77 -75 -77zM257 543c-44 0 -76 35 -76 77c0 45 33 77 77 77s76 -32 76 -77c0 -42 -32 -77 -77 -77zM237 492v-324c0 -34 16 -46 45 -43l-9 -124c-14 -8 -48 -12 -75 -12
c-91 0 -142 37 -142 162v341h181z" />
    <glyph glyph-name="omicrontonos" unicode="&#x3cc;" horiz-adv-x="589" 
d="M280 706h153l-79 -156h-117zM292 -11c-147 0 -261 93 -261 253c0 157 103 261 271 261c154 0 256 -104 256 -252c0 -179 -128 -262 -266 -262zM297 116c49 0 75 51 75 130c0 68 -22 130 -75 130c-60 0 -80 -65 -80 -130c0 -74 24 -130 80 -130z" />
    <glyph glyph-name="upsilontonos" unicode="&#x3cd;" horiz-adv-x="573" 
d="M264 707h155l-79 -156h-119zM333 492h167c17 -35 37 -100 37 -186c0 -157 -66 -317 -262 -317c-128 0 -228 70 -228 217v123c0 67 -2 128 -13 163h176c13 -14 17 -41 17 -98v-178c0 -51 25 -82 63 -82c55 0 71 81 71 162c0 83 -18 167 -28 196z" />
    <glyph glyph-name="upsilondieresis" unicode="&#x3cb;" horiz-adv-x="573" 
d="M171 543c-44 0 -78 35 -78 77c0 45 34 77 79 77c42 0 74 -32 74 -77c0 -42 -32 -77 -75 -77zM384 543c-44 0 -76 35 -76 77c0 45 33 77 77 77s76 -32 76 -77c0 -42 -32 -77 -77 -77zM333 492h167c17 -35 37 -100 37 -186c0 -157 -66 -317 -262 -317
c-128 0 -228 70 -228 217v123c0 67 -2 128 -13 163h176c13 -14 17 -41 17 -98v-178c0 -51 25 -82 63 -82c55 0 71 81 71 162c0 83 -18 167 -28 196z" />
    <glyph glyph-name="omegatonos" unicode="&#x3ce;" horiz-adv-x="750" 
d="M361 706h153l-80 -156h-116zM458 379l-3 -173c0 -37 9 -66 34 -66c34 0 56 47 56 133c0 75 -20 162 -65 216v3h162c35 -35 78 -122 78 -228c0 -172 -92 -275 -213 -275c-56 0 -110 28 -133 74h-4c-27 -41 -72 -74 -134 -74c-107 0 -205 91 -205 261c0 115 42 196 80 242
h162v-3c-42 -56 -68 -141 -68 -226c0 -83 26 -123 54 -123c24 0 34 28 33 66l-2 173h168z" />
    <glyph glyph-name="iotadieresistonos" unicode="&#x390;" horiz-adv-x="299" 
d="M236 492v-324c0 -34 16 -46 45 -43l-9 -124c-14 -8 -48 -12 -75 -12c-90 0 -141 37 -141 162v341h180zM111 728h127l-58 -180h-90zM-3 551c-38 0 -69 31 -69 68c0 40 31 69 70 69c38 0 67 -29 67 -69c0 -37 -29 -68 -68 -68zM312 551c-38 0 -68 31 -68 68
c0 40 30 69 69 69s68 -29 68 -69c0 -37 -29 -68 -69 -68z" />
    <glyph glyph-name="upsilondieresistonos" unicode="&#x3b0;" horiz-adv-x="573" 
d="M333 492h167c17 -35 37 -100 37 -186c0 -157 -66 -317 -262 -317c-128 0 -228 70 -228 217v123c0 67 -2 128 -13 163h176c13 -14 17 -41 17 -98v-178c0 -51 25 -82 63 -82c55 0 71 81 71 162c0 83 -18 167 -28 196zM238 726h127l-58 -180h-91zM122 549
c-38 0 -69 31 -69 69c0 40 31 69 70 69c38 0 67 -29 67 -69c0 -38 -29 -69 -68 -69zM440 549c-38 0 -68 31 -68 69c0 40 30 69 69 69s68 -29 68 -69c0 -38 -29 -69 -69 -69z" />
    <glyph glyph-name="uni037E" unicode="&#x37e;" horiz-adv-x="303" 
d="M138 -108l-117 -10c26 102 47 205 54 296l178 5c-27 -96 -68 -199 -115 -291zM158 269c-63 0 -107 47 -107 111c0 63 44 109 108 109s108 -45 108 -109s-43 -111 -109 -111z" />
    <glyph glyph-name="anoteleia" unicode="&#x387;" horiz-adv-x="303" 
d="M150 198c-65 0 -112 48 -112 116c0 67 48 115 114 115c67 0 112 -46 113 -115c0 -68 -45 -116 -115 -116z" />
    <glyph glyph-name="tonos" unicode="&#x384;" horiz-adv-x="304" 
d="M127 706h153l-80 -156h-116z" />
    <glyph glyph-name="dieresistonos" unicode="&#x385;" horiz-adv-x="474" 
d="M192 738h128l-58 -183h-92zM76 560c-39 0 -70 31 -70 69c0 40 32 69 71 69c37 0 67 -29 67 -69c0 -38 -29 -69 -68 -69zM394 560c-38 0 -68 31 -68 69c0 40 30 69 69 69s69 -29 69 -69c0 -38 -29 -69 -70 -69z" />
    <glyph glyph-name="dieresis_acutecomb" unicode="&#xf6d7;" horiz-adv-x="301" 
d="M-18 555c-41 0 -73 33 -73 73c0 42 32 73 75 73c40 0 70 -30 70 -73c0 -40 -30 -73 -72 -73zM317 555c-40 0 -71 33 -71 73c0 42 31 73 73 73s72 -30 72 -73c0 -41 -31 -73 -74 -73zM111 713h145l-88 -156h-107z" />
    <glyph glyph-name="dieresis_gravecomb" unicode="&#xf6d8;" horiz-adv-x="301" 
d="M-18 555c-41 0 -73 33 -73 73c0 42 32 73 75 73c40 0 70 -30 70 -73c0 -40 -30 -73 -72 -73zM317 555c-40 0 -71 33 -71 73c0 42 31 73 73 73s72 -30 72 -73c0 -41 -31 -73 -74 -73zM46 713h145l50 -156h-107z" />
    <glyph glyph-name="space_uni030F" unicode="&#xf6d6;" 
d="M-43 705h133l56 -153h-97zM145 705h133l57 -153h-97z" />
    <glyph glyph-name="dieresis_acutecomb.cap" unicode="&#xf6cc;" horiz-adv-x="301" 
d="M-45 709c-39 0 -71 33 -71 71c0 42 32 72 73 72c39 0 69 -30 69 -72c0 -39 -31 -71 -71 -71zM346 709c-39 0 -70 33 -70 71c0 42 31 72 72 72c40 0 70 -30 70 -72c0 -39 -31 -71 -72 -71zM102 840h170l-117 -128h-129z" />
    <glyph glyph-name="dieresis_gravecomb.cap" unicode="&#xf6cd;" horiz-adv-x="301" 
d="M-45 709c-39 0 -71 33 -71 71c0 42 32 72 73 72c39 0 69 -30 69 -72c0 -39 -31 -71 -71 -71zM345 709c-39 0 -70 33 -70 71c0 42 31 72 72 72c40 0 70 -30 70 -72c0 -39 -31 -71 -72 -71zM28 840h170l75 -128h-129z" />
    <glyph glyph-name="space_uni030F.cap" unicode="&#xf6d3;" 
d="M-113 840h172l77 -128h-128zM126 840h171l78 -128h-129z" />
    <glyph glyph-name="o.superior" horiz-adv-x="399" 
d="M202 591c104 0 170 -69 170 -161c0 -113 -83 -169 -175 -169c-95 0 -171 63 -171 162s69 168 176 168zM198 506c-36 0 -47 -47 -47 -82c0 -41 15 -78 49 -78c32 0 47 34 47 81c0 39 -18 79 -49 79z" />
    <glyph glyph-name="uni0401" unicode="&#x401;" horiz-adv-x="552" 
d="M485 418v-146h-242v-124h271v-148h-452v674h438v-148h-257v-108h242zM170 709c-43 0 -77 35 -77 77c0 43 34 76 78 76c41 0 74 -33 74 -76c0 -42 -33 -77 -75 -77zM387 709c-43 0 -76 35 -76 77c0 43 33 76 77 76c42 0 75 -33 75 -76c0 -42 -33 -77 -76 -77z" />
    <glyph glyph-name="uni0402" unicode="&#x402;" horiz-adv-x="747" 
d="M22 674h579v-148h-229v-98h4c24 13 67 24 111 24c77 0 128 -33 165 -80c40 -48 62 -118 62 -202c0 -134 -57 -239 -164 -286c-42 -26 -84 -38 -117 -41l-27 149c29 7 58 17 79 39c22 21 39 63 39 127c0 56 -11 95 -28 116c-18 23 -40 32 -68 32c-25 0 -44 -9 -56 -16
v-290h-181v526h-169v148z" />
    <glyph glyph-name="uni0403" unicode="&#x403;" horiz-adv-x="514" 
d="M62 674h430v-148h-249v-526h-181v674zM270 836h183l-120 -126h-144z" />
    <glyph glyph-name="uni0404" unicode="&#x404;" horiz-adv-x="603" 
d="M577 652l-35 -138c-29 13 -78 27 -134 27c-107 0 -163 -60 -180 -132h289v-140h-287c12 -82 83 -132 192 -132c36 0 88 8 121 21l26 -136c-29 -14 -95 -33 -173 -33c-235 0 -362 137 -362 346c0 176 113 351 366 351c85 0 148 -20 177 -34z" />
    <glyph glyph-name="uni0405" unicode="&#x405;" horiz-adv-x="561" 
d="M40 31l34 149c41 -21 107 -42 175 -42c62 0 92 21 92 55c0 33 -30 52 -106 78c-114 40 -190 103 -190 203c0 119 101 211 271 211c80 0 138 -15 182 -35l-38 -144c-29 13 -79 32 -146 32c-55 0 -85 -20 -85 -50c0 -34 36 -48 121 -79c121 -45 175 -110 175 -204
c0 -116 -90 -215 -287 -215c-81 0 -160 21 -198 41z" />
    <glyph glyph-name="uni0406" unicode="&#x406;" horiz-adv-x="305" 
d="M62 674h181v-674h-181v674z" />
    <glyph glyph-name="uni0407" unicode="&#x407;" horiz-adv-x="305" 
d="M62 674h181v-674h-181v674zM44 709c-43 0 -77 35 -77 77c0 43 34 76 78 76c41 0 74 -33 74 -76c0 -42 -33 -77 -75 -77zM261 709c-43 0 -76 35 -76 77c0 43 33 76 77 76c42 0 75 -33 75 -76c0 -42 -33 -77 -76 -77z" />
    <glyph glyph-name="uni0408" unicode="&#x408;" horiz-adv-x="429" 
d="M191 258v416h181v-416c0 -196 -94 -269 -256 -269c-37 0 -86 5 -119 16l19 145c22 -6 50 -11 79 -11c58 0 96 26 96 119z" />
    <glyph glyph-name="uni0409" unicode="&#x409;" horiz-adv-x="972" 
d="M124 674h470v-234c23 3 51 5 79 5c139 0 267 -70 267 -219c0 -68 -27 -121 -69 -157c-68 -58 -174 -77 -282 -77c-81 0 -138 5 -174 12v522h-115v-141c0 -184 -28 -305 -133 -363c-38 -21 -88 -34 -147 -34l-23 145c36 5 63 20 80 39c35 38 47 104 47 203v299zM593 309
v-180c18 -2 31 -2 45 -2c60 0 114 34 114 96c0 63 -51 90 -110 90c-20 0 -33 -2 -49 -4z" />
    <glyph glyph-name="uni040A" unicode="&#x40a;" horiz-adv-x="978" 
d="M62 674h181v-243h178v243h179v-234c24 3 51 5 79 5c145 0 267 -70 267 -218c0 -69 -27 -122 -69 -158c-68 -58 -174 -77 -281 -77c-82 0 -139 5 -175 12v276h-178v-280h-181v674zM600 309v-179c17 -3 32 -3 46 -3c63 0 112 34 112 95c0 64 -49 91 -110 91
c-20 0 -33 -2 -48 -4z" />
    <glyph glyph-name="uni040B" unicode="&#x40b;" horiz-adv-x="755" 
d="M21 674h571v-148h-220v-110h4c31 20 86 37 138 37c59 0 104 -19 135 -54c33 -38 49 -94 49 -162v-237h-180v214c0 30 -5 56 -20 73c-12 13 -29 21 -54 21c-30 0 -53 -9 -72 -24v-284h-181v526h-170v148z" />
    <glyph glyph-name="uni040C" unicode="&#x40c;" horiz-adv-x="633" 
d="M62 674h178v-272h8l166 272h220l-227 -295c77 -24 114 -80 139 -157c24 -74 47 -151 79 -222h-194c-22 46 -33 95 -47 144c-20 70 -47 127 -115 127h-29v-271h-178v674zM309 831h183l-120 -126h-144z" />
    <glyph glyph-name="uni040E" unicode="&#x40e;" horiz-adv-x="617" 
d="M3 676h204l82 -223c19 -50 32 -92 47 -133h3c7 27 18 74 35 136l59 220h190l-120 -326c-43 -111 -85 -212 -136 -274c-45 -56 -103 -92 -191 -92c-40 0 -63 5 -86 13l12 145c15 -4 32 -6 58 -6c37 0 65 16 74 39c4 10 2 19 -3 27zM153 836h119c0 -42 12 -61 37 -61
c24 0 37 19 41 61h118c-7 -94 -70 -131 -161 -131c-90 0 -145 39 -154 131z" />
    <glyph glyph-name="uni040F" unicode="&#x40f;" horiz-adv-x="690" 
d="M62 674h181v-526h205v526h181v-674h-201l-8 -188h-148l-8 188h-202v674z" />
    <glyph glyph-name="uni0410" unicode="&#x410;" horiz-adv-x="675" 
d="M413 156h-174l-38 -156h-187l195 674h241l201 -674h-195zM263 289h125l-31 121c-10 38 -23 94 -34 133h-2c-10 -39 -20 -95 -29 -133z" />
    <glyph glyph-name="uni0411" unicode="&#x411;" horiz-adv-x="628" 
d="M62 674h478v-147h-299v-87c25 3 54 5 82 5c71 0 145 -19 197 -59c45 -35 75 -88 75 -160c0 -68 -27 -120 -68 -155c-68 -59 -182 -79 -289 -79c-82 0 -140 5 -176 11v671zM240 309v-179c16 -3 35 -3 53 -3c30 0 59 9 81 26c19 17 31 41 31 70c0 26 -11 47 -28 62
c-24 20 -59 28 -89 28c-16 0 -30 -2 -48 -4z" />
    <glyph glyph-name="uni0412" unicode="&#x412;" horiz-adv-x="631" 
d="M62 3v662c41 7 130 14 213 14c96 0 154 -7 206 -33c53 -24 91 -73 91 -139c0 -56 -31 -111 -110 -141v-2c82 -23 132 -84 132 -164c0 -64 -31 -114 -76 -147c-50 -38 -134 -61 -278 -61c-82 0 -142 5 -178 11zM241 545v-130h36c77 0 114 27 114 70c0 39 -30 64 -91 64
c-30 0 -47 -1 -59 -4zM241 287v-161c13 -2 29 -2 52 -2c60 0 111 24 111 84c0 57 -52 79 -120 79h-43z" />
    <glyph glyph-name="uni0413" unicode="&#x413;" horiz-adv-x="514" 
d="M62 674h430v-148h-249v-526h-181v674z" />
    <glyph glyph-name="uni0414" unicode="&#x414;" horiz-adv-x="713" 
d="M160 674h468v-532l71 -5l-8 -311h-136l-9 174h-381l-9 -174h-136l-6 311l59 5c28 48 48 98 63 150c17 64 24 130 24 198v184zM327 527v-73c0 -65 -10 -135 -28 -199c-11 -39 -26 -77 -43 -109h192v381h-121z" />
    <glyph glyph-name="uni0415" unicode="&#x415;" horiz-adv-x="552" 
d="M485 418v-146h-242v-124h271v-148h-452v674h438v-148h-257v-108h242z" />
    <glyph glyph-name="uni0416" unicode="&#x416;" horiz-adv-x="907" 
d="M-2 674h211l149 -271h8v271h174v-271h7l151 271h210l-226 -297c85 -10 129 -77 156 -161c23 -72 40 -148 70 -216h-182c-20 44 -33 97 -45 145c-18 64 -48 125 -120 125h-21v-270h-174v270h-21c-71 0 -102 -61 -120 -125c-12 -48 -24 -101 -45 -145h-181
c30 68 50 144 72 212c26 83 69 147 153 165z" />
    <glyph glyph-name="uni0417" unicode="&#x417;" horiz-adv-x="566" 
d="M78 503l-40 128c47 26 121 55 223 55c160 0 250 -80 250 -176c0 -86 -55 -138 -132 -158v-2c79 -12 154 -69 154 -156c0 -155 -164 -205 -292 -205c-73 0 -155 15 -213 48l36 139c28 -14 102 -41 168 -41c67 0 111 24 111 72c0 63 -70 72 -123 72h-75v133h74
c60 0 104 21 104 68c0 34 -32 60 -93 60c-52 0 -113 -20 -152 -37z" />
    <glyph glyph-name="uni0418" unicode="&#x418;" horiz-adv-x="704" 
d="M62 674h165v-164c0 -108 -3 -223 -8 -313h3c37 83 84 179 119 248l115 229h185v-674h-165v161c0 102 2 199 12 288h-3c-30 -83 -73 -177 -110 -246l-105 -203h-208v674z" />
    <glyph glyph-name="uni0419" unicode="&#x419;" horiz-adv-x="704" 
d="M62 674h165v-164c0 -108 -3 -223 -8 -313h3c37 83 84 179 119 248l115 229h185v-674h-165v161c0 102 2 199 12 288h-3c-30 -83 -73 -177 -110 -246l-105 -203h-208v674zM194 834h119c0 -42 12 -61 37 -61c24 0 37 19 41 61h118c-7 -94 -70 -131 -161 -131
c-90 0 -145 39 -154 131z" />
    <glyph glyph-name="uni041A" unicode="&#x41a;" horiz-adv-x="633" 
d="M62 674h178v-272h8l166 272h220l-227 -295c77 -24 114 -80 139 -157c24 -74 47 -151 79 -222h-194c-22 46 -33 95 -47 144c-20 70 -47 127 -115 127h-29v-271h-178v674z" />
    <glyph glyph-name="uni041B" unicode="&#x41b;" horiz-adv-x="666" 
d="M125 674h479v-674h-181v526h-122v-141c0 -184 -28 -306 -133 -363c-38 -21 -87 -34 -148 -34l-22 145c36 5 61 19 79 37c36 38 48 105 48 204v300z" />
    <glyph glyph-name="uni041C" unicode="&#x41c;" horiz-adv-x="865" 
d="M641 0l-8 241c-3 77 -4 167 -4 272h-3c-21 -89 -49 -190 -71 -264l-67 -235h-141l-56 234c-18 73 -38 173 -54 265h-2c-4 -95 -7 -195 -10 -272l-11 -241h-166l42 674h243l44 -181c19 -75 39 -165 53 -247h3c19 82 41 177 61 248l51 180h237l34 -674h-175z" />
    <glyph glyph-name="uni041D" unicode="&#x41d;" horiz-adv-x="705" 
d="M62 674h181v-249h219v249h181v-674h-181v267h-219v-267h-181v674z" />
    <glyph glyph-name="uni041E" unicode="&#x41e;" horiz-adv-x="730" 
d="M369 686c217 0 327 -161 327 -342c0 -217 -130 -355 -338 -355c-209 0 -324 157 -324 344c0 197 128 353 335 353zM365 543c-85 0 -140 -82 -140 -206c0 -127 55 -205 142 -205s138 85 138 207c0 116 -52 204 -140 204z" />
    <glyph glyph-name="uni041F" unicode="&#x41f;" horiz-adv-x="693" 
d="M62 674h570v-674h-181v526h-208v-526h-181v674z" />
    <glyph glyph-name="uni0420" unicode="&#x420;" horiz-adv-x="602" 
d="M62 0v664c49 8 120 15 222 15c97 0 167 -18 214 -54c46 -34 77 -93 77 -162c0 -68 -23 -127 -66 -166c-54 -48 -133 -70 -224 -70c-18 0 -33 2 -44 2v-229h-179zM241 539v-172c10 -1 22 -2 41 -2c70 0 114 36 114 94c0 50 -33 84 -102 84c-26 0 -44 -2 -53 -4z" />
    <glyph glyph-name="uni0421" unicode="&#x421;" horiz-adv-x="602" 
d="M541 158l25 -141c-25 -13 -89 -28 -169 -28c-252 0 -363 157 -363 337c0 238 174 359 375 359c77 0 140 -15 168 -30l-35 -142c-29 12 -71 24 -125 24c-103 0 -193 -61 -193 -199c0 -123 73 -199 197 -199c43 0 92 8 120 19z" />
    <glyph glyph-name="uni0422" unicode="&#x422;" horiz-adv-x="570" 
d="M193 0v522h-172v152h528v-152h-175v-522h-181z" />
    <glyph glyph-name="uni0423" unicode="&#x423;" horiz-adv-x="617" 
d="M3 676h204l82 -223c19 -50 32 -92 47 -133h3c7 27 18 74 35 136l59 220h190l-120 -326c-43 -111 -85 -212 -136 -274c-45 -56 -103 -92 -191 -92c-40 0 -63 5 -86 13l12 145c15 -4 32 -6 58 -6c37 0 65 16 74 39c4 10 2 19 -3 27z" />
    <glyph glyph-name="uni0424" unicode="&#x424;" horiz-adv-x="817" 
d="M325 703h168v-58c144 -13 289 -97 289 -306c0 -206 -140 -292 -291 -308v-60h-168v60c-148 12 -289 98 -289 303c0 210 161 298 291 311v58zM324 156v365c-47 -9 -109 -56 -109 -184c0 -120 66 -174 109 -181zM492 521v-365c43 7 109 50 109 183c0 128 -60 173 -109 182z
" />
    <glyph glyph-name="uni0425" unicode="&#x425;" horiz-adv-x="631" 
d="M619 0h-209l-49 110c-20 43 -35 78 -52 117h-2c-12 -39 -28 -74 -44 -116l-45 -111h-205l190 341l-183 333h207l46 -107c17 -40 30 -73 45 -112h2c15 44 26 74 40 111l41 108h206l-183 -329z" />
    <glyph glyph-name="uni0426" unicode="&#x426;" horiz-adv-x="713" 
d="M62 674h181v-526h204v526h181v-532l71 -5l-8 -311h-136l-9 174h-484v674z" />
    <glyph glyph-name="uni0427" unicode="&#x427;" horiz-adv-x="661" 
d="M55 674h180v-192c0 -71 39 -102 100 -102c29 0 58 8 84 20v274h180v-685h-180v279h-3c-50 -21 -91 -31 -146 -31c-136 0 -215 77 -215 213v224z" />
    <glyph glyph-name="uni0428" unicode="&#x428;" horiz-adv-x="942" 
d="M62 674h177v-526h143v526h177v-526h143v526h177v-674h-817v674z" />
    <glyph glyph-name="uni0429" unicode="&#x429;" horiz-adv-x="964" 
d="M62 674h177v-526h143v526h177v-526h144v526h177v-532l71 -5l-8 -311h-136l-9 174h-736v674z" />
    <glyph glyph-name="uni042A" unicode="&#x42a;" horiz-adv-x="738" 
d="M17 674h349v-227c19 3 50 6 82 6c133 0 257 -79 257 -224c0 -65 -21 -113 -55 -148c-69 -70 -176 -89 -286 -89c-81 0 -141 5 -177 11v524h-170v147zM365 311v-181c13 -3 28 -3 50 -3c57 0 100 36 100 96c0 63 -46 92 -101 92c-17 0 -35 -2 -49 -4z" />
    <glyph glyph-name="uni042B" unicode="&#x42b;" horiz-adv-x="898" 
d="M62 674h179v-227c20 3 46 6 73 6c140 0 271 -73 271 -226c0 -63 -21 -111 -55 -146c-69 -70 -191 -89 -293 -89c-79 0 -139 5 -175 11v671zM240 311v-181c10 -3 27 -3 45 -3c54 0 110 34 110 96c0 64 -63 92 -107 92c-16 0 -30 -2 -48 -4zM640 674h181v-674h-181v674z
" />
    <glyph glyph-name="uni042C" unicode="&#x42c;" horiz-adv-x="628" 
d="M62 674h179v-227c22 3 51 6 82 6c149 0 272 -72 272 -223c0 -66 -21 -114 -55 -149c-69 -70 -191 -89 -301 -89c-81 0 -141 5 -177 11v671zM240 311v-181c16 -3 32 -3 51 -3c63 0 114 31 114 95s-48 93 -111 93c-22 0 -36 -2 -54 -4z" />
    <glyph glyph-name="uni042D" unicode="&#x42d;" horiz-adv-x="595" 
d="M89 270v140h278c-9 73 -65 131 -166 131c-53 0 -104 -13 -135 -25l-34 132c39 17 108 38 184 38c247 0 345 -165 345 -351c0 -230 -158 -346 -363 -346c-72 0 -143 17 -172 31l30 137c31 -13 82 -21 130 -21c99 0 165 53 179 134h-276z" />
    <glyph glyph-name="uni042E" unicode="&#x42e;" horiz-adv-x="944" 
d="M62 674h180v-252h73c31 153 141 264 298 264c196 0 299 -161 299 -342c0 -217 -121 -355 -309 -355c-169 0 -272 123 -293 282h-68v-271h-180v674zM610 131c77 0 120 86 120 207c0 116 -45 206 -121 206c-77 0 -123 -90 -123 -207c0 -120 46 -206 124 -206z" />
    <glyph glyph-name="uni042F" unicode="&#x42f;" horiz-adv-x="625" 
d="M198 0h-192c15 24 27 52 37 82c26 77 42 151 91 197c14 14 33 26 55 35v3c-71 14 -139 63 -139 163c0 64 30 113 73 146c56 42 145 53 233 53c81 0 156 -6 207 -14v-665h-179v253h-24c-26 0 -46 -9 -62 -23c-42 -37 -57 -118 -75 -170c-7 -20 -13 -37 -25 -60zM384 385
v155c-9 2 -26 5 -53 5c-57 0 -101 -25 -101 -83c0 -54 50 -80 108 -80c16 0 33 1 46 3z" />
    <glyph glyph-name="uni0430" unicode="&#x430;" horiz-adv-x="548" 
d="M492 286v-166c0 -49 3 -95 8 -120h-162l-9 43h-4c-34 -39 -83 -54 -136 -54c-101 0 -163 73 -163 155c0 132 119 191 286 191v4c0 20 -15 42 -81 42c-52 0 -106 -18 -139 -36l-31 113c31 17 102 45 204 45c169 0 227 -94 227 -217zM318 185v40c-74 0 -115 -20 -115 -64
c0 -31 20 -47 51 -47c26 0 53 18 62 46c2 7 2 16 2 25z" />
    <glyph glyph-name="uni0431" unicode="&#x431;" horiz-adv-x="599" 
d="M514 720l-11 -140c-30 -8 -84 -14 -121 -16c-68 -6 -116 -22 -147 -53c-28 -25 -50 -71 -54 -104h7c29 46 85 85 157 85c138 0 223 -103 223 -246c0 -159 -117 -258 -264 -258c-171 0 -269 126 -269 323c0 135 38 242 118 310c50 44 116 73 204 81c48 4 122 10 157 18z
M383 242c0 59 -21 127 -84 127c-24 0 -43 -12 -54 -29c-18 -22 -27 -51 -27 -94c0 -58 21 -130 84 -130c59 0 81 64 81 126z" />
    <glyph glyph-name="uni0432" unicode="&#x432;" horiz-adv-x="574" 
d="M56 2v484c38 5 131 13 215 13s254 -8 254 -126c0 -64 -53 -95 -101 -104v-3c75 -13 121 -54 121 -119c0 -145 -202 -155 -303 -155c-74 0 -153 6 -186 10zM234 388v-82h28c59 0 86 14 86 43c0 25 -20 42 -70 42c-16 0 -29 -2 -44 -3zM233 204v-105c12 -1 22 -1 43 -1
c48 0 84 16 84 54c0 31 -27 52 -93 52h-34z" />
    <glyph glyph-name="uni0433" unicode="&#x433;" horiz-adv-x="430" 
d="M56 492h360v-139h-180v-353h-180v492z" />
    <glyph glyph-name="uni0434" unicode="&#x434;" horiz-adv-x="616" 
d="M126 492h419v-367l56 -3l-7 -282h-135l-5 160h-297l-8 -160h-135l-4 281l48 4c21 31 38 66 48 104c13 46 20 97 20 145v118zM282 361v-47c0 -31 -6 -68 -15 -104c-6 -26 -18 -56 -32 -80h135v231h-88z" />
    <glyph glyph-name="uni0435" unicode="&#x435;" horiz-adv-x="539" 
d="M506 183h-303c6 -39 62 -61 126 -61c46 0 90 5 134 19l23 -121c-59 -23 -123 -31 -184 -31c-173 0 -271 96 -271 252c0 114 74 262 255 262c159 0 227 -117 227 -252c0 -29 -4 -56 -7 -68zM201 305h146c0 28 -13 80 -70 80c-53 0 -73 -49 -76 -80z" />
    <glyph glyph-name="uni0436" unicode="&#x436;" horiz-adv-x="767" 
d="M-4 492h197l89 -190h15v190h174v-190h15l89 190h197l-161 -209c47 -11 83 -68 101 -121c20 -58 37 -113 60 -162h-180c-13 22 -24 60 -41 112c-15 44 -39 75 -70 75h-10v-187h-174v187h-10c-35 0 -57 -30 -72 -75c-18 -53 -29 -90 -42 -112h-177c23 49 40 103 61 161
c19 55 53 111 100 122z" />
    <glyph glyph-name="uni0437" unicode="&#x437;" horiz-adv-x="512" 
d="M108 197v108h85c57 0 79 15 79 36s-25 38 -78 38c-45 0 -91 -14 -127 -34l-33 103c62 37 143 53 217 53c94 0 211 -30 211 -133c0 -66 -58 -96 -105 -108v-4c56 -7 125 -37 125 -111c0 -127 -158 -154 -256 -154c-74 0 -149 16 -206 50l36 110c33 -17 92 -33 146 -34
c61 0 83 18 83 38c0 28 -29 42 -91 42h-86z" />
    <glyph glyph-name="uni0438" unicode="&#x438;" horiz-adv-x="616" 
d="M55 492h170v-127c0 -79 -6 -137 -9 -202h5c20 54 31 94 47 136l70 193h223v-492h-170v125c0 75 5 103 10 217h-5c-13 -49 -22 -79 -38 -123c-25 -66 -55 -147 -82 -219h-221v492z" />
    <glyph glyph-name="uni0439" unicode="&#x439;" horiz-adv-x="616" 
d="M55 492h170v-127c0 -79 -6 -137 -9 -202h5c20 54 31 94 47 136l70 193h223v-492h-170v125c0 75 5 103 10 217h-5c-13 -49 -22 -79 -38 -123c-25 -66 -55 -147 -82 -219h-221v492zM158 695h111c0 -44 15 -68 38 -68c24 0 38 25 41 68h110c-7 -98 -64 -148 -154 -148
c-94 0 -141 55 -146 148z" />
    <glyph glyph-name="uni043A" unicode="&#x43a;" horiz-adv-x="552" 
d="M55 492h180v-189h14l99 189h208l-167 -208c50 -11 81 -66 106 -129c18 -44 37 -107 62 -155h-188c-13 21 -23 54 -44 112c-16 46 -41 73 -76 73h-14v-185h-180v492z" />
    <glyph glyph-name="uni043B" unicode="&#x43b;" horiz-adv-x="563" 
d="M82 492h426v-492h-181v355h-79v-75c0 -111 -14 -191 -65 -237c-35 -38 -85 -55 -163 -55l-20 139c26 5 46 14 58 29c21 27 24 63 24 135v201z" />
    <glyph glyph-name="uni043C" unicode="&#x43c;" horiz-adv-x="753" 
d="M45 0l33 492h231l38 -161c7 -25 17 -71 28 -118h3c8 32 19 75 31 120l43 159h229l28 -492h-166l-6 180c-1 39 -4 114 -5 171h-2c-21 -74 -20 -81 -44 -161l-54 -180h-131l-46 174c-12 48 -25 117 -36 163h-4c-2 -63 -2 -134 -4 -170l-7 -177h-159z" />
    <glyph glyph-name="uni043D" unicode="&#x43d;" horiz-adv-x="593" 
d="M55 492h181v-170h121v170h181v-492h-181v183h-121v-183h-181v492z" />
    <glyph glyph-name="uni043E" unicode="&#x43e;" horiz-adv-x="589" 
d="M302 503c154 0 256 -104 256 -252c0 -179 -128 -262 -266 -262c-147 0 -261 93 -261 253c0 157 103 261 271 261zM297 376c-60 0 -80 -65 -80 -130c0 -74 24 -130 80 -130c49 0 75 51 75 130c0 68 -22 130 -75 130z" />
    <glyph glyph-name="uni043F" unicode="&#x43f;" horiz-adv-x="590" 
d="M55 492h479v-492h-181v355h-117v-355h-181v492z" />
    <glyph glyph-name="uni0440" unicode="&#x440;" horiz-adv-x="610" 
d="M56 -198v522c0 66 -2 122 -4 168h155l8 -63h2c37 49 92 74 160 74c102 0 202 -91 202 -251c0 -180 -117 -263 -224 -263c-56 0 -99 22 -117 47h-2v-234h-180zM236 276v-61c0 -11 1 -21 3 -30c7 -32 34 -59 70 -59c54 0 87 46 87 117c0 70 -28 119 -85 119
c-36 0 -67 -28 -73 -63c-2 -7 -2 -15 -2 -23z" />
    <glyph glyph-name="uni0441" unicode="&#x441;" horiz-adv-x="452" 
d="M414 143l19 -132c-29 -14 -80 -21 -135 -21c-164 0 -267 96 -267 252c0 141 97 261 289 261c35 0 78 -5 113 -17l-25 -132c-17 7 -41 12 -78 12c-67 0 -115 -46 -114 -117c0 -81 55 -119 119 -119c31 0 56 4 79 13z" />
    <glyph glyph-name="uni0442" unicode="&#x442;" horiz-adv-x="483" 
d="M13 492h457v-137h-138v-355h-181v355h-138v137z" />
    <glyph glyph-name="uni0443" unicode="&#x443;" horiz-adv-x="545" 
d="M5 492h200l59 -221c7 -27 16 -63 22 -88h3c6 26 13 62 18 87l45 222h192l-105 -313c-74 -206 -122 -281 -175 -328c-57 -50 -118 -67 -164 -72l-37 152c18 3 40 9 62 19c23 9 46 29 58 45c5 7 9 15 9 22c0 6 -1 14 -7 26z" />
    <glyph glyph-name="uni0444" unicode="&#x444;" horiz-adv-x="754" 
d="M292 704h170l-3 -204c139 -16 264 -98 264 -258c0 -158 -128 -240 -264 -251l3 -189h-170l3 189c-136 11 -264 93 -264 251c0 160 125 242 263 258zM295 107v277c-64 -19 -87 -73 -87 -138c0 -69 24 -120 87 -139zM458 384v-277c64 20 88 70 88 139c0 65 -24 118 -88 138
z" />
    <glyph glyph-name="uni0445" unicode="&#x445;" horiz-adv-x="544" 
d="M3 492h201l39 -73c12 -24 25 -48 36 -70h2c11 26 22 50 33 73l33 70h195l-159 -233l160 -259h-204l-40 79c-11 23 -22 46 -32 70h-2c-11 -25 -22 -48 -32 -70l-36 -79h-196l163 250z" />
    <glyph glyph-name="uni0446" unicode="&#x446;" horiz-adv-x="606" 
d="M55 492h181v-356h120v356h181v-367l56 -3l-7 -282h-135l-6 160h-390v492z" />
    <glyph glyph-name="uni0447" unicode="&#x447;" horiz-adv-x="577" 
d="M51 492h181v-150c0 -51 18 -73 60 -73c19 0 40 8 49 16v207h180v-500h-180v179h-2c-28 -18 -73 -28 -119 -28c-110 0 -169 66 -169 184v165z" />
    <glyph glyph-name="uni0448" unicode="&#x448;" horiz-adv-x="845" 
d="M56 492h178v-356h100v356h178v-356h100v356h178v-492h-734v492z" />
    <glyph glyph-name="uni0449" unicode="&#x449;" horiz-adv-x="860" 
d="M56 492h178v-356h100v356h178v-356h100v356h178v-367l56 -3l-7 -282h-135l-5 160h-643v492z" />
    <glyph glyph-name="uni044A" unicode="&#x44a;" horiz-adv-x="681" 
d="M22 492h316v-136c21 3 46 5 79 5c115 0 235 -45 235 -180c0 -63 -30 -105 -74 -133c-67 -43 -167 -54 -242 -54c-59 0 -121 3 -178 10v352h-136v136zM337 236v-120c12 -1 24 -2 46 -2c42 0 90 15 90 61c0 55 -56 65 -97 65c-15 0 -27 -2 -39 -4z" />
    <glyph glyph-name="uni044B" unicode="&#x44b;" horiz-adv-x="826" 
d="M56 492h180v-137c21 3 46 6 79 6c109 0 224 -47 224 -175c0 -68 -30 -110 -74 -138c-67 -43 -156 -54 -231 -54c-59 0 -121 3 -178 10v488zM235 236v-120c11 -1 24 -2 39 -2c43 0 86 17 86 66c0 45 -41 60 -78 60c-23 0 -35 -2 -47 -4zM590 492h181v-492h-181v492z" />
    <glyph glyph-name="uni044C" unicode="&#x44c;" horiz-adv-x="579" 
d="M56 492h180v-137c21 3 48 6 75 6c117 0 239 -42 239 -173c0 -68 -30 -112 -74 -140c-67 -43 -167 -54 -242 -54c-59 0 -121 3 -178 10v488zM235 236v-120c12 -1 24 -2 44 -2c43 0 92 14 92 64c0 51 -55 62 -93 62c-19 0 -31 -2 -43 -4z" />
    <glyph glyph-name="uni044D" unicode="&#x44d;" horiz-adv-x="494" 
d="M79 190v111h201c-11 46 -49 72 -115 72c-46 0 -80 -9 -107 -21l-32 115c48 24 114 36 170 36c65 0 133 -17 180 -56c51 -43 87 -107 87 -198c0 -161 -113 -260 -290 -260c-56 0 -112 12 -153 32l24 121c21 -7 63 -17 109 -17c59 0 107 20 123 65h-197z" />
    <glyph glyph-name="uni044E" unicode="&#x44e;" horiz-adv-x="799" 
d="M55 492h180v-173h55c26 114 113 184 239 184c142 0 240 -104 240 -252c0 -179 -122 -262 -248 -262c-119 0 -215 73 -235 200h-51v-189h-180v492zM525 116c43 0 64 51 64 131c0 67 -18 129 -65 129c-51 0 -68 -65 -68 -129c0 -74 21 -131 69 -131z" />
    <glyph glyph-name="uni044F" unicode="&#x44f;" horiz-adv-x="578" 
d="M523 489v-489h-178v175h-16c-31 0 -52 -17 -66 -38c-21 -24 -33 -63 -45 -96c-6 -15 -11 -23 -20 -41h-191c12 15 21 34 30 54c14 35 40 98 66 129c16 19 38 34 65 40v3c-52 6 -126 42 -126 122c0 65 38 102 92 125c47 21 120 28 188 28c84 0 156 -6 201 -12zM345 284
v104c-9 1 -22 3 -42 3c-45 0 -74 -20 -74 -55c0 -34 35 -54 77 -54c18 0 29 1 39 2z" />
    <glyph glyph-name="uni0451" unicode="&#x451;" horiz-adv-x="539" 
d="M506 183h-303c6 -39 62 -61 126 -61c46 0 90 5 134 19l23 -121c-59 -23 -123 -31 -184 -31c-173 0 -271 96 -271 252c0 114 74 262 255 262c159 0 227 -117 227 -252c0 -29 -4 -56 -7 -68zM201 305h146c0 28 -13 80 -70 80c-53 0 -73 -49 -76 -80zM175 551
c-45 0 -80 35 -80 79c0 46 35 79 81 79c43 0 76 -33 76 -79c0 -44 -33 -79 -77 -79zM398 551h-2c-44 0 -78 35 -78 79c0 46 34 79 80 79c44 0 77 -33 77 -79c0 -44 -33 -79 -77 -79z" />
    <glyph glyph-name="uni0452" unicode="&#x452;" horiz-adv-x="599" 
d="M-1 650h68v60h181v-60h205v-116h-205v-95h2c27 26 69 47 119 47c68 0 120 -37 152 -93c30 -51 44 -112 44 -192c0 -154 -47 -265 -138 -316c-42 -24 -86 -36 -112 -37l-34 144c20 4 40 11 62 33c23 25 41 92 41 161c0 39 -6 86 -20 115c-11 23 -31 40 -55 40
s-42 -13 -51 -22c-7 -10 -10 -18 -10 -35v-284h-181v534h-68v116z" />
    <glyph glyph-name="uni0453" unicode="&#x453;" horiz-adv-x="430" 
d="M56 492h360v-139h-180v-353h-180v492zM235 706h160l-123 -156h-122z" />
    <glyph glyph-name="uni0454" unicode="&#x454;" horiz-adv-x="478" 
d="M458 479l-30 -123c-20 10 -55 18 -93 18c-60 0 -105 -25 -117 -73h186v-111h-182c14 -46 59 -67 121 -67c32 0 69 7 92 15l24 -122c-29 -15 -85 -27 -147 -27c-171 0 -281 93 -281 252c0 175 137 262 299 262c46 0 99 -9 128 -24z" />
    <glyph glyph-name="uni0455" unicode="&#x455;" horiz-adv-x="451" 
d="M29 24l31 127c28 -17 92 -37 136 -37c39 0 54 8 54 27c0 18 -11 26 -64 42c-109 35 -146 94 -145 151c0 98 84 169 214 169c60 0 114 -14 146 -28l-29 -122c-23 11 -69 27 -109 27c-31 0 -49 -8 -49 -28c0 -16 16 -26 74 -45c97 -32 134 -82 135 -153
c0 -94 -73 -165 -225 -165c-69 0 -130 15 -169 35z" />
    <glyph glyph-name="uni0456" unicode="&#x456;" horiz-adv-x="292" 
d="M236 0h-181v492h181v-492zM146 713c56 0 91 -36 92 -86c0 -47 -36 -85 -93 -85c-56 0 -91 38 -91 85c0 50 36 86 92 86z" />
    <glyph glyph-name="uni0457" unicode="&#x457;" horiz-adv-x="292" 
d="M236 0h-181v492h181v-492zM35 551c-45 0 -80 35 -80 79c0 46 35 79 81 79c43 0 76 -33 76 -79c0 -44 -33 -79 -77 -79zM258 551h-2c-44 0 -78 35 -78 79c0 46 34 79 80 79c44 0 77 -33 77 -79c0 -44 -33 -79 -77 -79z" />
    <glyph glyph-name="uni0458" unicode="&#x458;" horiz-adv-x="312" 
d="M-20 -216l-17 140c39 3 69 12 87 30c22 21 29 60 29 150v388h181v-426c0 -112 -27 -179 -74 -220c-48 -42 -122 -62 -206 -62zM169 713c56 0 91 -36 92 -86c0 -47 -36 -85 -93 -85c-56 0 -91 38 -91 85c0 50 36 86 92 86z" />
    <glyph glyph-name="uni0459" unicode="&#x459;" horiz-adv-x="846" 
d="M82 492h426v-141c21 2 49 5 74 5c115 0 235 -49 235 -177c0 -63 -28 -103 -66 -130c-67 -47 -170 -55 -242 -55c-57 0 -124 3 -181 10v351h-80v-75c0 -112 -15 -191 -65 -236c-35 -39 -85 -56 -163 -56l-20 138c26 5 46 16 57 28c23 26 25 73 25 136v202zM507 234v-118
c12 -1 24 -2 44 -2c40 0 87 14 87 62s-45 62 -83 62c-17 0 -35 -2 -48 -4z" />
    <glyph glyph-name="uni045A" unicode="&#x45a;" horiz-adv-x="864" 
d="M55 492h181v-160h110v160h180v-141c21 3 49 6 75 6c118 0 234 -51 234 -180c0 -61 -28 -101 -66 -128c-67 -47 -170 -55 -242 -55c-57 0 -124 3 -181 10v197h-110v-201h-181v492zM525 234v-118c12 -1 23 -2 43 -2c42 0 88 15 88 62c0 49 -46 62 -87 62
c-17 0 -31 -2 -44 -4z" />
    <glyph glyph-name="uni045B" unicode="&#x45b;" horiz-adv-x="610" 
d="M-1 650h68v60h181v-60h197v-116h-197v-111h2c16 20 35 35 58 46c22 10 48 17 74 17c111 0 173 -79 173 -216v-270h-181v248c0 58 -19 93 -64 93c-33 0 -49 -20 -58 -39c-3 -8 -4 -19 -4 -29v-273h-181v534h-68v116z" />
    <glyph glyph-name="uni045C" unicode="&#x45c;" horiz-adv-x="552" 
d="M55 492h180v-189h14l99 189h208l-167 -208c50 -11 81 -66 106 -129c18 -44 37 -107 62 -155h-188c-13 21 -23 54 -44 112c-16 46 -41 73 -76 73h-14v-185h-180v492zM281 706h160l-123 -156h-122z" />
    </font>
</defs>
</svg>
