<?xml version="1.0" standalone="no"?>
<!DOCTYPE svg PUBLIC "-//W3C//DTD SVG 1.1//EN" "http://www.w3.org/Graphics/SVG/1.1/DTD/svg11.dtd" >
<svg xmlns="http://www.w3.org/2000/svg" xmlns:xlink="http://www.w3.org/1999/xlink" version="1.1">
<metadata>
Created by FontForge 20190801 at Thu Jan 19 13:18:21 2017
 By root
Copyright 2016 The Nunito Project Authors (contact@sansoxygen.com)
</metadata>
<defs>
<font id="NunitoSans-Regular" horiz-adv-x="600" >
  <font-face 
    font-family="Nunito Sans"
    font-weight="400"
    font-stretch="normal"
    units-per-em="1000"
    panose-1="0 0 5 0 0 0 0 0 0 0"
    ascent="800"
    descent="-200"
    x-height="486"
    cap-height="705"
    bbox="-329 -259 1277 1077"
    underline-thickness="50"
    underline-position="-100"
    unicode-range="U+000D-FB02"
  />
<missing-glyph horiz-adv-x="443" 
d="M363 705v-885h-281v885h281zM295 646h-146v-29h57v-33h-58v-29h147v29h-59v33h59v29zM236 532h-88v-92h147v30h-59v62zM206 501v-31h-29v31h29zM295 416h-147v-30h58v-32h-58v-30h88v62h59v30zM295 363h-29v-59h-118v-30h147v89zM295 255h-89v-50h30v20h30v-41h-89v71
h-29v-100h147v100zM295 101h-147v-100h147v100zM266 72v-41h-89v41h89zM295 -19h-147v-29h62l-62 -42v-29h147v29h-91l62 42h29v29z" />
    <glyph glyph-name="fi" unicode="fi" horiz-adv-x="559" 
d="M183 487h300v-487h-81v423h-219v-423h-81v423h-95v64h95v16q0 98 49 148t150 55l37 2l5 -63l-46 -3q-60 -4 -87 -35t-27 -93v-27zM393 699h100v-93h-100v93z" />
    <glyph glyph-name="fl" unicode="fl" horiz-adv-x="560" 
d="M183 487h138v-64h-138v-423h-81v423h-95v64h95v16q0 97 48.5 147t149.5 56l40 2l6 -63l-46 -3q-61 -4 -89 -34.5t-28 -93.5v-27zM403 0v705h81v-705h-81z" />
    <glyph glyph-name=".notdef" horiz-adv-x="443" 
d="M363 705v-885h-281v885h281zM295 646h-146v-29h57v-33h-58v-29h147v29h-59v33h59v29zM236 532h-88v-92h147v30h-59v62zM206 501v-31h-29v31h29zM295 416h-147v-30h58v-32h-58v-30h88v62h59v30zM295 363h-29v-59h-118v-30h147v89zM295 255h-89v-50h30v20h30v-41h-89v71
h-29v-100h147v100zM295 101h-147v-100h147v100zM266 72v-41h-89v41h89zM295 -19h-147v-29h62l-62 -42v-29h147v29h-91l62 42h29v29z" />
    <glyph glyph-name="NULL" horiz-adv-x="0" 
 />
    <glyph glyph-name="NULL" horiz-adv-x="0" 
 />
    <glyph glyph-name="nonmarkingreturn" unicode="&#xd;" horiz-adv-x="258" 
 />
    <glyph glyph-name="space" unicode=" " horiz-adv-x="258" 
 />
    <glyph glyph-name="A" unicode="A" horiz-adv-x="727" 
d="M626 0l-78 181h-368l-78 -181h-84l310 705h71l310 -705h-83zM209 249h310l-155 361z" />
    <glyph glyph-name="Aacute" unicode="&#xc1;" horiz-adv-x="727" 
d="M626 0l-78 181h-368l-78 -181h-84l310 705h71l310 -705h-83zM209 249h310l-155 361zM392 765h-56l101 152h88z" />
    <glyph glyph-name="Abreve" unicode="&#x102;" horiz-adv-x="727" 
d="M626 0l-78 181h-368l-78 -181h-84l310 705h71l310 -705h-83zM209 249h310l-155 361zM265.5 802.5q-42.5 25.5 -64.5 80.5l51 22q22 -40 48.5 -55t63.5 -15t63.5 15t48.5 55l51 -22q-22 -55 -64.5 -80.5t-98.5 -25.5t-98.5 25.5z" />
    <glyph glyph-name="uni1EAE" unicode="&#x1eae;" horiz-adv-x="727" 
d="M626 0l-78 181h-368l-78 -181h-84l310 705h71l310 -705h-83zM209 249h310l-155 361zM391 868h-54l100 141h86zM265.5 785.5q-42.5 25.5 -64.5 80.5l47 20q22 -40 50.5 -56t65.5 -16t65.5 16t50.5 56l47 -20q-22 -55 -64.5 -80.5t-98.5 -25.5t-98.5 25.5z" />
    <glyph glyph-name="uni1EB6" unicode="&#x1eb6;" horiz-adv-x="727" 
d="M626 0l-78 181h-368l-78 -181h-84l310 705h71l310 -705h-83zM209 249h310l-155 361zM318 -94h92v-88h-92v88zM265.5 802.5q-42.5 25.5 -64.5 80.5l51 22q22 -40 48.5 -55t63.5 -15t63.5 15t48.5 55l51 -22q-22 -55 -64.5 -80.5t-98.5 -25.5t-98.5 25.5z" />
    <glyph glyph-name="uni1EB0" unicode="&#x1eb0;" horiz-adv-x="727" 
d="M626 0l-78 181h-368l-78 -181h-84l310 705h71l310 -705h-83zM209 249h310l-155 361zM337 868l-132 141h86l100 -141h-54zM265.5 785.5q-42.5 25.5 -64.5 80.5l47 20q22 -40 50.5 -56t65.5 -16t65.5 16t50.5 56l47 -20q-22 -55 -64.5 -80.5t-98.5 -25.5t-98.5 25.5z" />
    <glyph glyph-name="uni1EB2" unicode="&#x1eb2;" horiz-adv-x="727" 
d="M626 0l-78 181h-368l-78 -181h-84l310 705h71l310 -705h-83zM209 249h310l-155 361zM391 868h-53v17q0 17 11 26.5t31 17.5q13 6 19 10t6 10q0 8 -11 13t-30 5q-29 0 -61 -12l-14 42q41 18 81 18q46 0 72.5 -17.5t26.5 -45.5q0 -18 -11 -27t-34 -20q-16 -7 -24.5 -13
t-8.5 -15v-9zM265.5 785.5q-42.5 25.5 -64.5 80.5l47 20q22 -40 50.5 -56t65.5 -16t65.5 16t50.5 56l47 -20q-22 -55 -64.5 -80.5t-98.5 -25.5t-98.5 25.5z" />
    <glyph glyph-name="uni1EB4" unicode="&#x1eb4;" horiz-adv-x="727" 
d="M626 0l-78 181h-368l-78 -181h-84l310 705h71l310 -705h-83zM209 249h310l-155 361zM227.5 988.5q24.5 28.5 64.5 28.5q21 0 39.5 -7.5t44.5 -22.5q23 -12 34.5 -17t23.5 -5q22 0 34 14t12 35h45q0 -46 -24.5 -74.5t-64.5 -28.5q-21 0 -39.5 7.5t-44.5 22.5
q-23 12 -34.5 17t-23.5 5q-22 0 -34 -14t-12 -35h-45q0 46 24.5 74.5zM265.5 785.5q-42.5 25.5 -64.5 80.5l47 20q22 -40 50.5 -56t65.5 -16t65.5 16t50.5 56l47 -20q-22 -55 -64.5 -80.5t-98.5 -25.5t-98.5 25.5z" />
    <glyph glyph-name="Acircumflex" unicode="&#xc2;" horiz-adv-x="727" 
d="M626 0l-78 181h-368l-78 -181h-84l310 705h71l310 -705h-83zM209 249h310l-155 361zM291 765h-73l119 152h54l119 -152h-73l-73 103z" />
    <glyph glyph-name="uni1EA4" unicode="&#x1ea4;" horiz-adv-x="727" 
d="M626 0l-78 181h-368l-78 -181h-84l310 705h71l310 -705h-83zM209 249h310l-155 361zM498 868h-49l91 141h85zM291 765h-73l119 147h54l119 -147h-73l-73 99z" />
    <glyph glyph-name="uni1EAC" unicode="&#x1eac;" horiz-adv-x="727" 
d="M626 0l-78 181h-368l-78 -181h-84l310 705h71l310 -705h-83zM209 249h310l-155 361zM318 -94h92v-88h-92v88zM291 765h-73l119 152h54l119 -152h-73l-73 103z" />
    <glyph glyph-name="uni1EA6" unicode="&#x1ea6;" horiz-adv-x="727" 
d="M626 0l-78 181h-368l-78 -181h-84l310 705h71l310 -705h-83zM209 249h310l-155 361zM491 868l-112 141h85l77 -141h-50zM291 765h-73l119 147h54l119 -147h-73l-73 99z" />
    <glyph glyph-name="uni1EA8" unicode="&#x1ea8;" horiz-adv-x="727" 
d="M626 0l-78 181h-368l-78 -181h-84l310 705h71l310 -705h-83zM209 249h310l-155 361zM501 868h-53v17q0 17 11 26.5t31 17.5q13 6 19 10t6 10q0 8 -11 13t-30 5q-29 0 -61 -12l-14 42q41 18 81 18q46 0 72.5 -17.5t26.5 -45.5q0 -18 -11 -27t-34 -20q-16 -7 -24.5 -13
t-8.5 -15v-9zM291 765h-73l119 147h54l119 -147h-73l-73 99z" />
    <glyph glyph-name="uni1EAA" unicode="&#x1eaa;" horiz-adv-x="727" 
d="M626 0l-78 181h-368l-78 -181h-84l310 705h71l310 -705h-83zM209 249h310l-155 361zM227.5 997.5q24.5 27.5 64.5 27.5q21 0 40 -6.5t44 -18.5q15 -7 30.5 -12.5t27.5 -5.5q21 0 33.5 13.5t12.5 31.5h45q0 -43 -25 -71t-64 -28q-21 0 -40 6.5t-44 18.5q-15 7 -30.5 12.5
t-27.5 5.5q-21 0 -33.5 -13t-12.5 -31h-45q0 43 24.5 70.5zM291 765h-73l119 147h54l119 -147h-73l-73 99z" />
    <glyph glyph-name="uni0200" unicode="&#x200;" horiz-adv-x="727" 
d="M626 0l-78 181h-368l-78 -181h-84l310 705h71l310 -705h-83zM209 249h310l-155 361zM282 765l-97 152h70l71 -152h-44zM402 765l-98 152h71l71 -152h-44z" />
    <glyph glyph-name="Adieresis" unicode="&#xc4;" horiz-adv-x="727" 
d="M626 0l-78 181h-368l-78 -181h-84l310 705h71l310 -705h-83zM209 249h310l-155 361zM234 885h89v-86h-89v86zM405 885h89v-86h-89v86z" />
    <glyph glyph-name="uni1EA0" unicode="&#x1ea0;" horiz-adv-x="727" 
d="M626 0l-78 181h-368l-78 -181h-84l310 705h71l310 -705h-83zM209 249h310l-155 361zM318 -94h92v-88h-92v88z" />
    <glyph glyph-name="Agrave" unicode="&#xc0;" horiz-adv-x="727" 
d="M626 0l-78 181h-368l-78 -181h-84l310 705h71l310 -705h-83zM209 249h310l-155 361zM336 765l-133 152h88l101 -152h-56z" />
    <glyph glyph-name="uni1EA2" unicode="&#x1ea2;" horiz-adv-x="727" 
d="M626 0l-78 181h-368l-78 -181h-84l310 705h71l310 -705h-83zM209 249h310l-155 361zM391 765h-53v18q0 17 11 27.5t30 19.5q14 8 20 12.5t6 11.5q0 9 -11 14t-30 5q-29 0 -61 -12l-14 43q39 17 81 17q46 0 72.5 -17.5t26.5 -46.5q0 -19 -12 -30t-34 -21q-17 -9 -24.5 -15
t-7.5 -16v-10z" />
    <glyph glyph-name="uni0202" unicode="&#x202;" horiz-adv-x="727" 
d="M626 0l-78 181h-368l-78 -181h-84l310 705h71l310 -705h-83zM209 249h310l-155 361zM462.5 880.5q42.5 -25.5 64.5 -80.5l-51 -22q-22 40 -48.5 55t-63.5 15t-63.5 -15t-48.5 -55l-51 22q22 55 64.5 80.5t98.5 25.5t98.5 -25.5z" />
    <glyph glyph-name="Amacron" unicode="&#x100;" horiz-adv-x="727" 
d="M626 0l-78 181h-368l-78 -181h-84l310 705h71l310 -705h-83zM209 249h310l-155 361zM214 811v61h300v-61h-300z" />
    <glyph glyph-name="Aogonek" unicode="&#x104;" horiz-adv-x="727" 
d="M743 -170q-39 -23 -86 -23q-52 0 -84.5 29.5t-32.5 75.5q0 36 19.5 65.5t55.5 47.5l-67 156h-368l-78 -181h-84l310 705h71l310 -705h-19q-42 0 -64.5 -22t-22.5 -55q0 -30 17.5 -46.5t48.5 -16.5q26 0 57 17zM209 249h310l-155 361z" />
    <glyph glyph-name="Aring" unicode="&#xc5;" horiz-adv-x="727" 
d="M548 181h-368l-78 -181h-84l301 684q-25 12 -40.5 36t-15.5 53q0 42 29.5 70.5t71.5 28.5t71.5 -28.5t29.5 -70.5q0 -29 -15.5 -53t-41.5 -36l301 -684h-83zM329.5 808.5q-13.5 -14.5 -13.5 -35.5t13.5 -35.5t34.5 -14.5t34.5 14.5t13.5 35.5t-13.5 35.5t-34.5 14.5
t-34.5 -14.5zM209 249h310l-155 361z" />
    <glyph glyph-name="Aringacute" unicode="&#x1fa;" horiz-adv-x="727" 
d="M548 181h-368l-78 -181h-84l301 684q-25 12 -40.5 36t-15.5 53q0 42 29.5 70.5t71.5 28.5q29 0 52 -14l80 83h91l-137 -116q15 -22 15 -52q0 -29 -15.5 -53t-41.5 -36l301 -684h-83zM329.5 808.5q-13.5 -14.5 -13.5 -35.5t13.5 -35.5t34.5 -14.5t34.5 14.5t13.5 35.5
t-13.5 35.5t-34.5 14.5t-34.5 -14.5zM209 249h310l-155 361z" />
    <glyph glyph-name="Atilde" unicode="&#xc3;" horiz-adv-x="727" 
d="M626 0l-78 181h-368l-78 -181h-84l310 705h71l310 -705h-83zM209 249h310l-155 361zM227.5 870.5q24.5 30.5 64.5 30.5q21 0 40 -8.5t44 -24.5q21 -13 33.5 -19t24.5 -6q22 0 34 16t12 39h45q0 -54 -24.5 -84.5t-64.5 -30.5q-21 0 -40 8.5t-44 24.5q-21 13 -33.5 19
t-24.5 6q-22 0 -34 -16t-12 -39h-45q0 54 24.5 84.5z" />
    <glyph glyph-name="AE" unicode="&#xc6;" horiz-adv-x="991" 
d="M942 636h-429l53 -244h356v-68h-342l55 -255h307v-69h-369l-38 181h-341l-107 -181h-89l429 705h515v-69zM234 249h286l-75 355z" />
    <glyph glyph-name="AEacute" unicode="&#x1fc;" horiz-adv-x="991" 
d="M942 636h-429l53 -244h356v-68h-342l55 -255h307v-69h-369l-38 181h-341l-107 -181h-89l429 705h515v-69zM234 249h286l-75 355zM526 765h-56l101 152h88z" />
    <glyph glyph-name="B" unicode="B" horiz-adv-x="674" 
d="M581.5 302q33.5 -44 33.5 -110q0 -93 -61 -142.5t-173 -49.5h-294v705h283q109 0 169 -48t60 -136q0 -57 -29.5 -98t-82.5 -61q61 -16 94.5 -60zM168 392h190q79 0 119.5 32t40.5 93q0 120 -160 120h-190v-245zM495.5 98.5q39.5 30.5 39.5 95.5q0 130 -162 130h-205v-256
h205q83 0 122.5 30.5z" />
    <glyph glyph-name="C" unicode="C" horiz-adv-x="677" 
d="M214 35.5q-74 43.5 -113.5 125t-39.5 192.5t39.5 192t113.5 124.5t174 43.5q73 0 134 -22.5t106 -66.5l-31 -63q-51 43 -100 62t-108 19q-116 0 -179.5 -75.5t-63.5 -213.5q0 -139 63.5 -214.5t179.5 -75.5q59 0 108 19t100 62l31 -63q-45 -44 -106 -66.5t-134 -22.5
q-100 0 -174 43.5z" />
    <glyph glyph-name="Cacute" unicode="&#x106;" horiz-adv-x="677" 
d="M214 35.5q-74 43.5 -113.5 125t-39.5 192.5t39.5 192t113.5 124.5t174 43.5q73 0 134 -22.5t106 -66.5l-31 -63q-51 43 -100 62t-108 19q-116 0 -179.5 -75.5t-63.5 -213.5q0 -139 63.5 -214.5t179.5 -75.5q59 0 108 19t100 62l31 -63q-45 -44 -106 -66.5t-134 -22.5
q-100 0 -174 43.5zM414 765h-56l101 152h88z" />
    <glyph glyph-name="Ccaron" unicode="&#x10c;" horiz-adv-x="677" 
d="M214 35.5q-74 43.5 -113.5 125t-39.5 192.5t39.5 192t113.5 124.5t174 43.5q73 0 134 -22.5t106 -66.5l-31 -63q-51 43 -100 62t-108 19q-116 0 -179.5 -75.5t-63.5 -213.5q0 -139 63.5 -214.5t179.5 -75.5q59 0 108 19t100 62l31 -63q-45 -44 -106 -66.5t-134 -22.5
q-100 0 -174 43.5zM459 917h73l-119 -152h-54l-119 152h73l73 -104z" />
    <glyph glyph-name="Ccedilla" unicode="&#xc7;" horiz-adv-x="677" 
d="M528.5 16.5q-57.5 -22.5 -125.5 -24.5l-4 -35q16 2 24 2q32 0 54 -17.5t22 -51.5q0 -36 -30.5 -59.5t-85.5 -23.5q-20 0 -45 5t-43 14l13 43q36 -14 76 -14q27 0 41 9t14 26q0 13 -9 20t-26 7q-22 0 -45 -9l-20 16l8 70q-134 14 -210 108.5t-76 250.5q0 111 39.5 192
t113.5 124.5t174 43.5q73 0 134 -22.5t106 -66.5l-31 -63q-51 43 -100 62t-108 19q-116 0 -179.5 -75.5t-63.5 -213.5q0 -139 63.5 -214.5t179.5 -75.5q59 0 108 19t100 62l31 -63q-42 -42 -99.5 -64.5z" />
    <glyph glyph-name="uni1E08" unicode="&#x1e08;" horiz-adv-x="677" 
d="M547 917l-133 -152h-56l101 152h88zM528.5 16.5q-57.5 -22.5 -125.5 -24.5l-4 -35q16 2 24 2q32 0 54 -17.5t22 -51.5q0 -36 -30.5 -59.5t-85.5 -23.5q-20 0 -45 5t-43 14l13 43q36 -14 76 -14q27 0 41 9t14 26q0 13 -9 20t-26 7q-22 0 -45 -9l-20 16l8 70
q-134 14 -210 108.5t-76 250.5q0 111 39.5 192t113.5 124.5t174 43.5q73 0 134 -22.5t106 -66.5l-31 -63q-51 43 -100 62t-108 19q-116 0 -179.5 -75.5t-63.5 -213.5q0 -139 63.5 -214.5t179.5 -75.5q59 0 108 19t100 62l31 -63q-42 -42 -99.5 -64.5z" />
    <glyph glyph-name="Ccircumflex" unicode="&#x108;" horiz-adv-x="677" 
d="M214 35.5q-74 43.5 -113.5 125t-39.5 192.5t39.5 192t113.5 124.5t174 43.5q73 0 134 -22.5t106 -66.5l-31 -63q-51 43 -100 62t-108 19q-116 0 -179.5 -75.5t-63.5 -213.5q0 -139 63.5 -214.5t179.5 -75.5q59 0 108 19t100 62l31 -63q-45 -44 -106 -66.5t-134 -22.5
q-100 0 -174 43.5zM313 765h-73l119 152h54l119 -152h-73l-73 103z" />
    <glyph glyph-name="Cdotaccent" unicode="&#x10a;" horiz-adv-x="677" 
d="M214 35.5q-74 43.5 -113.5 125t-39.5 192.5t39.5 192t113.5 124.5t174 43.5q73 0 134 -22.5t106 -66.5l-31 -63q-51 43 -100 62t-108 19q-116 0 -179.5 -75.5t-63.5 -213.5q0 -139 63.5 -214.5t179.5 -75.5q59 0 108 19t100 62l31 -63q-45 -44 -106 -66.5t-134 -22.5
q-100 0 -174 43.5zM337 887h98v-91h-98v91z" />
    <glyph glyph-name="D" unicode="D" horiz-adv-x="739" 
d="M87 705h237q169 0 261.5 -91.5t92.5 -260.5t-92.5 -261t-261.5 -92h-237v705zM319 70q274 0 274 283q0 282 -274 282h-150v-565h150z" />
    <glyph glyph-name="uni01C4" unicode="&#x1c4;" horiz-adv-x="1314" 
d="M87 705h237q169 0 261.5 -91.5t92.5 -260.5t-92.5 -261t-261.5 -92h-237v705zM319 70q274 0 274 283q0 282 -274 282h-150v-565h150zM863 69h414v-69h-508v61l403 575h-403v69h498v-60zM1092 917h73l-119 -152h-54l-119 152h73l73 -104z" />
    <glyph glyph-name="Eth" unicode="&#xd0;" horiz-adv-x="752" 
d="M599 613.5q92 -91.5 92 -260.5t-92.5 -261t-261.5 -92h-237v324h-92v67h92v314h237q170 0 262 -91.5zM538 141q69 71 69 212q0 282 -274 282h-151v-244h193v-67h-193v-254h151q136 0 205 71z" />
    <glyph glyph-name="Dcaron" unicode="&#x10e;" horiz-adv-x="739" 
d="M87 705h237q169 0 261.5 -91.5t92.5 -260.5t-92.5 -261t-261.5 -92h-237v705zM319 70q274 0 274 283q0 282 -274 282h-150v-565h150zM442 917h73l-119 -152h-54l-119 152h73l73 -104z" />
    <glyph glyph-name="Dcroat" unicode="&#x110;" horiz-adv-x="752" 
d="M599 613.5q92 -91.5 92 -260.5t-92.5 -261t-261.5 -92h-237v324h-92v67h92v314h237q170 0 262 -91.5zM538 141q69 71 69 212q0 282 -274 282h-151v-244h193v-67h-193v-254h151q136 0 205 71z" />
    <glyph glyph-name="uni1E0C" unicode="&#x1e0c;" horiz-adv-x="739" 
d="M87 705h237q169 0 261.5 -91.5t92.5 -260.5t-92.5 -261t-261.5 -92h-237v705zM319 70q274 0 274 283q0 282 -274 282h-150v-565h150zM324 -94h92v-88h-92v88z" />
    <glyph glyph-name="uni1E0E" unicode="&#x1e0e;" horiz-adv-x="739" 
d="M87 705h237q169 0 261.5 -91.5t92.5 -260.5t-92.5 -261t-261.5 -92h-237v705zM319 70q274 0 274 283q0 282 -274 282h-150v-565h150zM220 -168v59h300v-59h-300z" />
    <glyph glyph-name="uni01C5" unicode="&#x1c5;" horiz-adv-x="1242" 
d="M87 705h237q169 0 261.5 -91.5t92.5 -260.5t-92.5 -261t-261.5 -92h-237v705zM319 70q274 0 274 283q0 282 -274 282h-150v-565h150zM887 64h313v-64h-413v56l304 367h-294v64h392v-59zM1067 753h74l-118 -202h-56l-118 202h74l72 -143z" />
    <glyph glyph-name="E" unicode="E" horiz-adv-x="582" 
d="M87 0v705h446v-68h-365v-245h345v-68h-345v-256h365v-68h-446z" />
    <glyph glyph-name="Eacute" unicode="&#xc9;" horiz-adv-x="582" 
d="M87 0v705h446v-68h-365v-245h345v-68h-345v-256h365v-68h-446zM352 765h-56l101 152h88z" />
    <glyph glyph-name="Ebreve" unicode="&#x114;" horiz-adv-x="582" 
d="M87 0v705h446v-68h-365v-245h345v-68h-345v-256h365v-68h-446zM225.5 802.5q-42.5 25.5 -64.5 80.5l51 22q22 -40 48.5 -55t63.5 -15t63.5 15t48.5 55l51 -22q-22 -55 -64.5 -80.5t-98.5 -25.5t-98.5 25.5z" />
    <glyph glyph-name="Ecaron" unicode="&#x11a;" horiz-adv-x="582" 
d="M87 0v705h446v-68h-365v-245h345v-68h-345v-256h365v-68h-446zM397 917h73l-119 -152h-54l-119 152h73l73 -104z" />
    <glyph glyph-name="uni0228" unicode="&#x228;" horiz-adv-x="582" 
d="M168 637v-245h345v-68h-345v-256h365v-68h-190l-5 -43q16 2 24 2q32 0 54 -17.5t22 -51.5q0 -36 -30.5 -59.5t-85.5 -23.5q-20 0 -45 5t-43 14l13 43q36 -14 76 -14q27 0 41 9t14 26q0 13 -9 20t-26 7q-22 0 -45 -9l-20 16l9 76h-200v705h446v-68h-365z" />
    <glyph glyph-name="uni1E1C" unicode="&#x1e1c;" horiz-adv-x="582" 
d="M225.5 802.5q-42.5 25.5 -64.5 80.5l51 22q22 -40 48.5 -55t63.5 -15t63.5 15t48.5 55l51 -22q-22 -55 -64.5 -80.5t-98.5 -25.5t-98.5 25.5zM168 637v-245h345v-68h-345v-256h365v-68h-190l-5 -43q16 2 24 2q32 0 54 -17.5t22 -51.5q0 -36 -30.5 -59.5t-85.5 -23.5
q-20 0 -45 5t-43 14l13 43q36 -14 76 -14q27 0 41 9t14 26q0 13 -9 20t-26 7q-22 0 -45 -9l-20 16l9 76h-200v705h446v-68h-365z" />
    <glyph glyph-name="Ecircumflex" unicode="&#xca;" horiz-adv-x="582" 
d="M87 0v705h446v-68h-365v-245h345v-68h-345v-256h365v-68h-446zM251 765h-73l119 152h54l119 -152h-73l-73 103z" />
    <glyph glyph-name="uni1EBE" unicode="&#x1ebe;" horiz-adv-x="582" 
d="M87 0v705h446v-68h-365v-245h345v-68h-345v-256h365v-68h-446zM458 868h-49l91 141h85zM251 765h-73l119 147h54l119 -147h-73l-73 99z" />
    <glyph glyph-name="uni1EC6" unicode="&#x1ec6;" horiz-adv-x="582" 
d="M87 0v705h446v-68h-365v-245h345v-68h-345v-256h365v-68h-446zM278 -94h92v-88h-92v88zM251 765h-73l119 152h54l119 -152h-73l-73 103z" />
    <glyph glyph-name="uni1EC0" unicode="&#x1ec0;" horiz-adv-x="582" 
d="M87 0v705h446v-68h-365v-245h345v-68h-345v-256h365v-68h-446zM451 868l-112 141h85l77 -141h-50zM251 765h-73l119 147h54l119 -147h-73l-73 99z" />
    <glyph glyph-name="uni1EC2" unicode="&#x1ec2;" horiz-adv-x="582" 
d="M87 0v705h446v-68h-365v-245h345v-68h-345v-256h365v-68h-446zM461 868h-53v17q0 17 11 26.5t31 17.5q13 6 19 10t6 10q0 8 -11 13t-30 5q-29 0 -61 -12l-14 42q41 18 81 18q46 0 72.5 -17.5t26.5 -45.5q0 -18 -11 -27t-34 -20q-16 -7 -24.5 -13t-8.5 -15v-9zM251 765
h-73l119 147h54l119 -147h-73l-73 99z" />
    <glyph glyph-name="uni1EC4" unicode="&#x1ec4;" horiz-adv-x="582" 
d="M87 0v705h446v-68h-365v-245h345v-68h-345v-256h365v-68h-446zM187.5 997.5q24.5 27.5 64.5 27.5q21 0 40 -6.5t44 -18.5q15 -7 30.5 -12.5t27.5 -5.5q21 0 33.5 13.5t12.5 31.5h45q0 -43 -25 -71t-64 -28q-21 0 -40 6.5t-44 18.5q-15 7 -30.5 12.5t-27.5 5.5
q-21 0 -33.5 -13t-12.5 -31h-45q0 43 24.5 70.5zM251 765h-73l119 147h54l119 -147h-73l-73 99z" />
    <glyph glyph-name="uni0204" unicode="&#x204;" horiz-adv-x="582" 
d="M87 0v705h446v-68h-365v-245h345v-68h-345v-256h365v-68h-446zM242 765l-97 152h70l71 -152h-44zM362 765l-98 152h71l71 -152h-44z" />
    <glyph glyph-name="Edieresis" unicode="&#xcb;" horiz-adv-x="582" 
d="M87 0v705h446v-68h-365v-245h345v-68h-345v-256h365v-68h-446zM194 885h89v-86h-89v86zM365 885h89v-86h-89v86z" />
    <glyph glyph-name="Edotaccent" unicode="&#x116;" horiz-adv-x="582" 
d="M87 0v705h446v-68h-365v-245h345v-68h-345v-256h365v-68h-446zM275 887h98v-91h-98v91z" />
    <glyph glyph-name="uni1EB8" unicode="&#x1eb8;" horiz-adv-x="582" 
d="M87 0v705h446v-68h-365v-245h345v-68h-345v-256h365v-68h-446zM278 -94h92v-88h-92v88z" />
    <glyph glyph-name="Egrave" unicode="&#xc8;" horiz-adv-x="582" 
d="M87 0v705h446v-68h-365v-245h345v-68h-345v-256h365v-68h-446zM296 765l-133 152h88l101 -152h-56z" />
    <glyph glyph-name="uni1EBA" unicode="&#x1eba;" horiz-adv-x="582" 
d="M87 0v705h446v-68h-365v-245h345v-68h-345v-256h365v-68h-446zM351 765h-53v18q0 17 11 27.5t30 19.5q14 8 20 12.5t6 11.5q0 9 -11 14t-30 5q-29 0 -61 -12l-14 43q39 17 81 17q46 0 72.5 -17.5t26.5 -46.5q0 -19 -12 -30t-34 -21q-17 -9 -24.5 -15t-7.5 -16v-10z" />
    <glyph glyph-name="uni0206" unicode="&#x206;" horiz-adv-x="582" 
d="M87 0v705h446v-68h-365v-245h345v-68h-345v-256h365v-68h-446zM422.5 880.5q42.5 -25.5 64.5 -80.5l-51 -22q-22 40 -48.5 55t-63.5 15t-63.5 -15t-48.5 -55l-51 22q22 55 64.5 80.5t98.5 25.5t98.5 -25.5z" />
    <glyph glyph-name="Emacron" unicode="&#x112;" horiz-adv-x="582" 
d="M87 0v705h446v-68h-365v-245h345v-68h-345v-256h365v-68h-446zM174 811v61h300v-61h-300z" />
    <glyph glyph-name="uni1E16" unicode="&#x1e16;" horiz-adv-x="582" 
d="M87 0v705h446v-68h-365v-245h345v-68h-345v-256h365v-68h-446zM174 811v61h300v-61h-300zM352 925h-56l101 152h88z" />
    <glyph glyph-name="uni1E14" unicode="&#x1e14;" horiz-adv-x="582" 
d="M87 0v705h446v-68h-365v-245h345v-68h-345v-256h365v-68h-446zM174 811v61h300v-61h-300zM296 925l-133 152h88l101 -152h-56z" />
    <glyph glyph-name="Eogonek" unicode="&#x118;" horiz-adv-x="582" 
d="M567 -170q-39 -23 -86 -23q-52 0 -84.5 29.5t-32.5 75.5q0 53 41 88h-318v705h446v-68h-365v-245h345v-68h-345v-256h365v-68h-15q-44 0 -67.5 -21.5t-23.5 -55.5q0 -30 17.5 -46.5t48.5 -16.5q26 0 58 17z" />
    <glyph glyph-name="uni1EBC" unicode="&#x1ebc;" horiz-adv-x="582" 
d="M87 0v705h446v-68h-365v-245h345v-68h-345v-256h365v-68h-446zM187.5 870.5q24.5 30.5 64.5 30.5q21 0 40 -8.5t44 -24.5q21 -13 33.5 -19t24.5 -6q22 0 34 16t12 39h45q0 -54 -24.5 -84.5t-64.5 -30.5q-21 0 -40 8.5t-44 24.5q-21 13 -33.5 19t-24.5 6q-22 0 -34 -16
t-12 -39h-45q0 54 24.5 84.5z" />
    <glyph glyph-name="F" unicode="F" horiz-adv-x="557" 
d="M87 0v705h436v-69h-355v-243h335v-69h-335v-324h-81z" />
    <glyph glyph-name="G" unicode="G" horiz-adv-x="724" 
d="M645 367v-326q-42 -22 -109.5 -35.5t-136.5 -13.5q-105 0 -181 43t-116.5 124t-40.5 194q0 112 40 193t115 124t177 43q74 0 136 -22.5t106 -66.5l-31 -63q-51 44 -100.5 63t-110.5 19q-119 0 -183 -75t-64 -215q0 -143 65 -217.5t190 -74.5q91 0 169 27v215h-175v64h250
z" />
    <glyph glyph-name="Gbreve" unicode="&#x11e;" horiz-adv-x="724" 
d="M645 367v-326q-42 -22 -109.5 -35.5t-136.5 -13.5q-105 0 -181 43t-116.5 124t-40.5 194q0 112 40 193t115 124t177 43q74 0 136 -22.5t106 -66.5l-31 -63q-51 44 -100.5 63t-110.5 19q-119 0 -183 -75t-64 -215q0 -143 65 -217.5t190 -74.5q91 0 169 27v215h-175v64h250
zM293.5 802.5q-42.5 25.5 -64.5 80.5l51 22q22 -40 48.5 -55t63.5 -15t63.5 15t48.5 55l51 -22q-22 -55 -64.5 -80.5t-98.5 -25.5t-98.5 25.5z" />
    <glyph glyph-name="Gcaron" unicode="&#x1e6;" horiz-adv-x="724" 
d="M645 367v-326q-42 -22 -109.5 -35.5t-136.5 -13.5q-105 0 -181 43t-116.5 124t-40.5 194q0 112 40 193t115 124t177 43q74 0 136 -22.5t106 -66.5l-31 -63q-51 44 -100.5 63t-110.5 19q-119 0 -183 -75t-64 -215q0 -143 65 -217.5t190 -74.5q91 0 169 27v215h-175v64h250
zM465 917h73l-119 -152h-54l-119 152h73l73 -104z" />
    <glyph glyph-name="Gcircumflex" unicode="&#x11c;" horiz-adv-x="724" 
d="M645 367v-326q-42 -22 -109.5 -35.5t-136.5 -13.5q-105 0 -181 43t-116.5 124t-40.5 194q0 112 40 193t115 124t177 43q74 0 136 -22.5t106 -66.5l-31 -63q-51 44 -100.5 63t-110.5 19q-119 0 -183 -75t-64 -215q0 -143 65 -217.5t190 -74.5q91 0 169 27v215h-175v64h250
zM319 765h-73l119 152h54l119 -152h-73l-73 103z" />
    <glyph glyph-name="Gcommaaccent" unicode="&#x122;" horiz-adv-x="724" 
d="M645 367v-326q-42 -22 -109.5 -35.5t-136.5 -13.5q-105 0 -181 43t-116.5 124t-40.5 194q0 112 40 193t115 124t177 43q74 0 136 -22.5t106 -66.5l-31 -63q-51 44 -100.5 63t-110.5 19q-119 0 -183 -75t-64 -215q0 -143 65 -217.5t190 -74.5q91 0 169 27v215h-175v64h250
zM448 -72v-58q0 -40 -11.5 -71t-39.5 -58l-37 27q19 19 27 37.5t10 39.5h-47v83h98z" />
    <glyph glyph-name="Gdotaccent" unicode="&#x120;" horiz-adv-x="724" 
d="M645 367v-326q-42 -22 -109.5 -35.5t-136.5 -13.5q-105 0 -181 43t-116.5 124t-40.5 194q0 112 40 193t115 124t177 43q74 0 136 -22.5t106 -66.5l-31 -63q-51 44 -100.5 63t-110.5 19q-119 0 -183 -75t-64 -215q0 -143 65 -217.5t190 -74.5q91 0 169 27v215h-175v64h250
zM343 887h98v-91h-98v91z" />
    <glyph glyph-name="uni1E20" unicode="&#x1e20;" horiz-adv-x="724" 
d="M645 367v-326q-42 -22 -109.5 -35.5t-136.5 -13.5q-105 0 -181 43t-116.5 124t-40.5 194q0 112 40 193t115 124t177 43q74 0 136 -22.5t106 -66.5l-31 -63q-51 44 -100.5 63t-110.5 19q-119 0 -183 -75t-64 -215q0 -143 65 -217.5t190 -74.5q91 0 169 27v215h-175v64h250
zM242 811v61h300v-61h-300z" />
    <glyph glyph-name="H" unicode="H" horiz-adv-x="758" 
d="M590 705h81v-705h-81v323h-422v-323h-81v705h81v-312h422v312z" />
    <glyph glyph-name="Hbar" unicode="&#x126;" horiz-adv-x="785" 
d="M777 585v-65h-92v-520h-82v323h-421v-323h-82v520h-92v65h92v120h82v-120h421v120h82v-120h92zM603 393v127h-421v-127h421z" />
    <glyph glyph-name="uni1E2A" unicode="&#x1e2a;" horiz-adv-x="758" 
d="M590 705h81v-705h-81v323h-422v-323h-81v705h81v-312h422v312zM279.5 -180q-44.5 31 -65.5 95l51 22q22 -47 50 -68t64 -21t64 21t50 68l51 -21q-20 -65 -64.5 -96t-100.5 -31q-55 0 -99.5 31z" />
    <glyph glyph-name="Hcircumflex" unicode="&#x124;" horiz-adv-x="758" 
d="M590 705h81v-705h-81v323h-422v-323h-81v705h81v-312h422v312zM306 765h-73l119 152h54l119 -152h-73l-73 103z" />
    <glyph glyph-name="uni1E24" unicode="&#x1e24;" horiz-adv-x="758" 
d="M590 705h81v-705h-81v323h-422v-323h-81v705h81v-312h422v312zM333 -94h92v-88h-92v88z" />
    <glyph glyph-name="I" unicode="I" horiz-adv-x="256" 
d="M87 0v705h82v-705h-82z" />
    <glyph glyph-name="Iacute" unicode="&#xcd;" horiz-adv-x="256" 
d="M87 0v705h82v-705h-82zM156 765h-56l101 152h88z" />
    <glyph glyph-name="Ibreve" unicode="&#x12c;" horiz-adv-x="256" 
d="M87 0v705h82v-705h-82zM29.5 802.5q-42.5 25.5 -64.5 80.5l51 22q22 -40 48.5 -55t63.5 -15t63.5 15t48.5 55l51 -22q-22 -55 -64.5 -80.5t-98.5 -25.5t-98.5 25.5z" />
    <glyph glyph-name="Icircumflex" unicode="&#xce;" horiz-adv-x="256" 
d="M87 0v705h82v-705h-82zM55 765h-73l119 152h54l119 -152h-73l-73 103z" />
    <glyph glyph-name="uni0208" unicode="&#x208;" horiz-adv-x="256" 
d="M87 0v705h82v-705h-82zM46 765l-97 152h70l71 -152h-44zM166 765l-98 152h71l71 -152h-44z" />
    <glyph glyph-name="Idieresis" unicode="&#xcf;" horiz-adv-x="256" 
d="M87 0v705h82v-705h-82zM-2 885h89v-86h-89v86zM169 885h89v-86h-89v86z" />
    <glyph glyph-name="uni1E2E" unicode="&#x1e2e;" horiz-adv-x="256" 
d="M87 0v705h82v-705h-82zM-2 885h89v-86h-89v86zM169 885h89v-86h-89v86zM156 925h-56l101 152h88z" />
    <glyph glyph-name="Idotaccent" unicode="&#x130;" horiz-adv-x="256" 
d="M87 0v705h82v-705h-82zM79 887h98v-91h-98v91z" />
    <glyph glyph-name="uni1ECA" unicode="&#x1eca;" horiz-adv-x="256" 
d="M87 0v705h82v-705h-82zM82 -94h92v-88h-92v88z" />
    <glyph glyph-name="Igrave" unicode="&#xcc;" horiz-adv-x="256" 
d="M87 0v705h82v-705h-82zM100 765l-133 152h88l101 -152h-56z" />
    <glyph glyph-name="uni1EC8" unicode="&#x1ec8;" horiz-adv-x="256" 
d="M87 0v705h82v-705h-82zM155 765h-53v18q0 17 11 27.5t30 19.5q14 8 20 12.5t6 11.5q0 9 -11 14t-30 5q-29 0 -61 -12l-14 43q39 17 81 17q46 0 72.5 -17.5t26.5 -46.5q0 -19 -12 -30t-34 -21q-17 -9 -24.5 -15t-7.5 -16v-10z" />
    <glyph glyph-name="uni020A" unicode="&#x20a;" horiz-adv-x="256" 
d="M87 0v705h82v-705h-82zM226.5 880.5q42.5 -25.5 64.5 -80.5l-51 -22q-22 40 -48.5 55t-63.5 15t-63.5 -15t-48.5 -55l-51 22q22 55 64.5 80.5t98.5 25.5t98.5 -25.5z" />
    <glyph glyph-name="Imacron" unicode="&#x12a;" horiz-adv-x="256" 
d="M87 0v705h82v-705h-82zM-22 811v61h300v-61h-300z" />
    <glyph glyph-name="Iogonek" unicode="&#x12e;" horiz-adv-x="256" 
d="M212 -170q-39 -23 -86 -23q-52 0 -84.5 29.5t-32.5 76.5q0 36 20 65t58 46v681h82v-705h-7q-41 0 -65.5 -22t-24.5 -55q0 -30 18 -46.5t48 -16.5q26 0 58 17z" />
    <glyph glyph-name="Itilde" unicode="&#x128;" horiz-adv-x="256" 
d="M87 0v705h82v-705h-82zM-8.5 870.5q24.5 30.5 64.5 30.5q21 0 40 -8.5t44 -24.5q21 -13 33.5 -19t24.5 -6q22 0 34 16t12 39h45q0 -54 -24.5 -84.5t-64.5 -30.5q-21 0 -40 8.5t-44 24.5q-21 13 -33.5 19t-24.5 6q-22 0 -34 -16t-12 -39h-45q0 54 24.5 84.5z" />
    <glyph glyph-name="J" unicode="J" horiz-adv-x="326" 
d="M-8 62l60 4q50 4 77.5 35.5t27.5 86.5v517h82v-518q0 -87 -45 -136t-131 -54l-65 -4z" />
    <glyph glyph-name="Jcircumflex" unicode="&#x134;" horiz-adv-x="326" 
d="M-8 62l60 4q50 4 77.5 35.5t27.5 86.5v517h82v-518q0 -87 -45 -136t-131 -54l-65 -4zM125 765h-73l119 152h54l119 -152h-73l-73 103z" />
    <glyph glyph-name="K" unicode="K" horiz-adv-x="628" 
d="M638 0h-106l-363 335v-335h-82v705h82v-324l346 324h104l-368 -343z" />
    <glyph glyph-name="Kcommaaccent" unicode="&#x136;" horiz-adv-x="628" 
d="M638 0h-106l-363 335v-335h-82v705h82v-324l346 324h104l-368 -343zM365 -72v-58q0 -40 -11.5 -71t-39.5 -58l-37 27q19 19 27 37.5t10 39.5h-47v83h98z" />
    <glyph glyph-name="L" unicode="L" horiz-adv-x="540" 
d="M87 0v705h82v-635h353v-70h-435z" />
    <glyph glyph-name="uni01C7" unicode="&#x1c7;" horiz-adv-x="865" 
d="M87 0v705h82v-635h323v-70h-405zM532 62l59 4q53 4 79 31t26 80v528h83v-524q0 -86 -44.5 -132.5t-131.5 -51.5l-66 -4z" />
    <glyph glyph-name="Lacute" unicode="&#x139;" horiz-adv-x="540" 
d="M87 0v705h82v-635h353v-70h-435zM156 765h-56l101 152h88z" />
    <glyph glyph-name="Lcaron" unicode="&#x13d;" horiz-adv-x="540" 
d="M87 0v705h82v-635h353v-70h-435zM297 515h-44v190h70z" />
    <glyph glyph-name="Lcommaaccent" unicode="&#x13b;" horiz-adv-x="540" 
d="M87 0v705h82v-635h353v-70h-435zM358 -72v-58q0 -40 -11.5 -71t-39.5 -58l-37 27q19 19 27 37.5t10 39.5h-47v83h98z" />
    <glyph glyph-name="Ldot" unicode="&#x13f;" horiz-adv-x="540" 
d="M87 0v705h82v-635h353v-70h-435zM299 400h102v-94h-102v94z" />
    <glyph glyph-name="uni1E36" unicode="&#x1e36;" horiz-adv-x="540" 
d="M87 0v705h82v-635h353v-70h-435zM263 -94h92v-88h-92v88z" />
    <glyph glyph-name="uni01C8" unicode="&#x1c8;" horiz-adv-x="772" 
d="M87 0v705h82v-635h353v-70h-435zM696 5q0 -90 -44 -135t-136 -51l-45 -3l-6 63l45 3q105 7 105 112v493h81v-482zM607 698h98v-91h-98v91z" />
    <glyph glyph-name="uni1E3A" unicode="&#x1e3a;" horiz-adv-x="540" 
d="M87 0v705h82v-635h353v-70h-435zM159 -168v59h300v-59h-300z" />
    <glyph glyph-name="Lslash" unicode="&#x141;" horiz-adv-x="553" 
d="M182 70h354v-70h-436v295l-74 -43l-33 58l107 62v333h82v-286l170 98l33 -58l-203 -117v-272z" />
    <glyph glyph-name="M" unicode="M" horiz-adv-x="841" 
d="M686 705h67v-705h-75l1 546l-229 -434h-58l-230 430l1 -542h-76v705h68l267 -511z" />
    <glyph glyph-name="uni1E42" unicode="&#x1e42;" horiz-adv-x="841" 
d="M686 705h67v-705h-75l1 546l-229 -434h-58l-230 430l1 -542h-76v705h68l267 -511zM374 -94h92v-88h-92v88z" />
    <glyph glyph-name="N" unicode="N" horiz-adv-x="739" 
d="M575 705h77v-705h-63l-425 567v-567h-77v705h63l425 -567v567z" />
    <glyph glyph-name="uni01CA" unicode="&#x1ca;" horiz-adv-x="1065" 
d="M575 705h77v-705h-63l-425 567v-567h-77v705h63l425 -567v567zM731 62l60 4q50 4 77.5 35.5t27.5 86.5v517h82v-518q0 -87 -45 -136t-131 -54l-65 -4z" />
    <glyph glyph-name="Nacute" unicode="&#x143;" horiz-adv-x="739" 
d="M575 705h77v-705h-63l-425 567v-567h-77v705h63l425 -567v567zM397 765h-56l101 152h88z" />
    <glyph glyph-name="Ncaron" unicode="&#x147;" horiz-adv-x="739" 
d="M575 705h77v-705h-63l-425 567v-567h-77v705h63l425 -567v567zM442 917h73l-119 -152h-54l-119 152h73l73 -104z" />
    <glyph glyph-name="Ncommaaccent" unicode="&#x145;" horiz-adv-x="739" 
d="M575 705h77v-705h-63l-425 567v-567h-77v705h63l425 -567v567zM419 -72v-58q0 -40 -11.5 -71t-39.5 -58l-37 27q19 19 27 37.5t10 39.5h-47v83h98z" />
    <glyph glyph-name="uni1E44" unicode="&#x1e44;" horiz-adv-x="739" 
d="M575 705h77v-705h-63l-425 567v-567h-77v705h63l425 -567v567zM320 887h98v-91h-98v91z" />
    <glyph glyph-name="uni1E46" unicode="&#x1e46;" horiz-adv-x="739" 
d="M575 705h77v-705h-63l-425 567v-567h-77v705h63l425 -567v567zM324 -94h92v-88h-92v88z" />
    <glyph glyph-name="Eng" unicode="&#x14a;" horiz-adv-x="739" 
d="M652 705v-704q0 -172 -176 -183l-65 -5l-5 67l59 4q53 5 81.5 33t28.5 80v22l-411 548v-567h-77v705h63l425 -567v567h77z" />
    <glyph glyph-name="uni01CB" unicode="&#x1cb;" horiz-adv-x="971" 
d="M575 705h77v-705h-63l-425 567v-567h-77v705h63l425 -567v567zM895 5q0 -90 -44 -135t-136 -51l-45 -3l-6 63l45 3q105 7 105 112v493h81v-482zM806 698h98v-91h-98v91z" />
    <glyph glyph-name="uni1E48" unicode="&#x1e48;" horiz-adv-x="739" 
d="M575 705h77v-705h-63l-425 567v-567h-77v705h63l425 -567v567zM220 -168v59h300v-59h-300z" />
    <glyph glyph-name="Ntilde" unicode="&#xd1;" horiz-adv-x="739" 
d="M575 705h77v-705h-63l-425 567v-567h-77v705h63l425 -567v567zM232.5 870.5q24.5 30.5 64.5 30.5q21 0 40 -8.5t44 -24.5q21 -13 33.5 -19t24.5 -6q22 0 34 16t12 39h45q0 -54 -24.5 -84.5t-64.5 -30.5q-21 0 -40 8.5t-44 24.5q-21 13 -33.5 19t-24.5 6q-22 0 -34 -16
t-12 -39h-45q0 54 24.5 84.5z" />
    <glyph glyph-name="O" unicode="O" horiz-adv-x="764" 
d="M211.5 36q-72.5 44 -111.5 125t-39 191q0 111 38.5 192.5t111 125t171.5 43.5t171.5 -43.5t111 -125t38.5 -191.5t-39 -191.5t-111.5 -125.5t-170.5 -44t-170.5 44zM556.5 137.5q62.5 75.5 62.5 215.5t-62 215t-175 75q-112 0 -174.5 -75.5t-62.5 -214.5t62.5 -215
t174.5 -76t174.5 75.5z" />
    <glyph glyph-name="Oacute" unicode="&#xd3;" horiz-adv-x="764" 
d="M211.5 36q-72.5 44 -111.5 125t-39 191q0 111 38.5 192.5t111 125t171.5 43.5t171.5 -43.5t111 -125t38.5 -191.5t-39 -191.5t-111.5 -125.5t-170.5 -44t-170.5 44zM556.5 137.5q62.5 75.5 62.5 215.5t-62 215t-175 75q-112 0 -174.5 -75.5t-62.5 -214.5t62.5 -215
t174.5 -76t174.5 75.5zM410 765h-56l101 152h88z" />
    <glyph glyph-name="Obreve" unicode="&#x14e;" horiz-adv-x="764" 
d="M211.5 36q-72.5 44 -111.5 125t-39 191q0 111 38.5 192.5t111 125t171.5 43.5t171.5 -43.5t111 -125t38.5 -191.5t-39 -191.5t-111.5 -125.5t-170.5 -44t-170.5 44zM556.5 137.5q62.5 75.5 62.5 215.5t-62 215t-175 75q-112 0 -174.5 -75.5t-62.5 -214.5t62.5 -215
t174.5 -76t174.5 75.5zM283.5 802.5q-42.5 25.5 -64.5 80.5l51 22q22 -40 48.5 -55t63.5 -15t63.5 15t48.5 55l51 -22q-22 -55 -64.5 -80.5t-98.5 -25.5t-98.5 25.5z" />
    <glyph glyph-name="Ocircumflex" unicode="&#xd4;" horiz-adv-x="764" 
d="M211.5 36q-72.5 44 -111.5 125t-39 191q0 111 38.5 192.5t111 125t171.5 43.5t171.5 -43.5t111 -125t38.5 -191.5t-39 -191.5t-111.5 -125.5t-170.5 -44t-170.5 44zM556.5 137.5q62.5 75.5 62.5 215.5t-62 215t-175 75q-112 0 -174.5 -75.5t-62.5 -214.5t62.5 -215
t174.5 -76t174.5 75.5zM309 765h-73l119 152h54l119 -152h-73l-73 103z" />
    <glyph glyph-name="uni1ED0" unicode="&#x1ed0;" horiz-adv-x="764" 
d="M211.5 36q-72.5 44 -111.5 125t-39 191q0 111 38.5 192.5t111 125t171.5 43.5t171.5 -43.5t111 -125t38.5 -191.5t-39 -191.5t-111.5 -125.5t-170.5 -44t-170.5 44zM556.5 137.5q62.5 75.5 62.5 215.5t-62 215t-175 75q-112 0 -174.5 -75.5t-62.5 -214.5t62.5 -215
t174.5 -76t174.5 75.5zM516 868h-49l91 141h85zM309 765h-73l119 147h54l119 -147h-73l-73 99z" />
    <glyph glyph-name="uni1ED8" unicode="&#x1ed8;" horiz-adv-x="764" 
d="M211.5 36q-72.5 44 -111.5 125t-39 191q0 111 38.5 192.5t111 125t171.5 43.5t171.5 -43.5t111 -125t38.5 -191.5t-39 -191.5t-111.5 -125.5t-170.5 -44t-170.5 44zM556.5 137.5q62.5 75.5 62.5 215.5t-62 215t-175 75q-112 0 -174.5 -75.5t-62.5 -214.5t62.5 -215
t174.5 -76t174.5 75.5zM336 -94h92v-88h-92v88zM309 765h-73l119 152h54l119 -152h-73l-73 103z" />
    <glyph glyph-name="uni1ED2" unicode="&#x1ed2;" horiz-adv-x="764" 
d="M211.5 36q-72.5 44 -111.5 125t-39 191q0 111 38.5 192.5t111 125t171.5 43.5t171.5 -43.5t111 -125t38.5 -191.5t-39 -191.5t-111.5 -125.5t-170.5 -44t-170.5 44zM556.5 137.5q62.5 75.5 62.5 215.5t-62 215t-175 75q-112 0 -174.5 -75.5t-62.5 -214.5t62.5 -215
t174.5 -76t174.5 75.5zM509 868l-112 141h85l77 -141h-50zM309 765h-73l119 147h54l119 -147h-73l-73 99z" />
    <glyph glyph-name="uni1ED4" unicode="&#x1ed4;" horiz-adv-x="764" 
d="M211.5 36q-72.5 44 -111.5 125t-39 191q0 111 38.5 192.5t111 125t171.5 43.5t171.5 -43.5t111 -125t38.5 -191.5t-39 -191.5t-111.5 -125.5t-170.5 -44t-170.5 44zM556.5 137.5q62.5 75.5 62.5 215.5t-62 215t-175 75q-112 0 -174.5 -75.5t-62.5 -214.5t62.5 -215
t174.5 -76t174.5 75.5zM519 868h-53v17q0 17 11 26.5t31 17.5q13 6 19 10t6 10q0 8 -11 13t-30 5q-29 0 -61 -12l-14 42q41 18 81 18q46 0 72.5 -17.5t26.5 -45.5q0 -18 -11 -27t-34 -20q-16 -7 -24.5 -13t-8.5 -15v-9zM309 765h-73l119 147h54l119 -147h-73l-73 99z" />
    <glyph glyph-name="uni1ED6" unicode="&#x1ed6;" horiz-adv-x="764" 
d="M211.5 36q-72.5 44 -111.5 125t-39 191q0 111 38.5 192.5t111 125t171.5 43.5t171.5 -43.5t111 -125t38.5 -191.5t-39 -191.5t-111.5 -125.5t-170.5 -44t-170.5 44zM556.5 137.5q62.5 75.5 62.5 215.5t-62 215t-175 75q-112 0 -174.5 -75.5t-62.5 -214.5t62.5 -215
t174.5 -76t174.5 75.5zM245.5 997.5q24.5 27.5 64.5 27.5q21 0 40 -6.5t44 -18.5q15 -7 30.5 -12.5t27.5 -5.5q21 0 33.5 13.5t12.5 31.5h45q0 -43 -25 -71t-64 -28q-21 0 -40 6.5t-44 18.5q-15 7 -30.5 12.5t-27.5 5.5q-21 0 -33.5 -13t-12.5 -31h-45q0 43 24.5 70.5z
M309 765h-73l119 147h54l119 -147h-73l-73 99z" />
    <glyph glyph-name="uni020C" unicode="&#x20c;" horiz-adv-x="764" 
d="M211.5 36q-72.5 44 -111.5 125t-39 191q0 111 38.5 192.5t111 125t171.5 43.5t171.5 -43.5t111 -125t38.5 -191.5t-39 -191.5t-111.5 -125.5t-170.5 -44t-170.5 44zM556.5 137.5q62.5 75.5 62.5 215.5t-62 215t-175 75q-112 0 -174.5 -75.5t-62.5 -214.5t62.5 -215
t174.5 -76t174.5 75.5zM300 765l-97 152h70l71 -152h-44zM420 765l-98 152h71l71 -152h-44z" />
    <glyph glyph-name="Odieresis" unicode="&#xd6;" horiz-adv-x="764" 
d="M211.5 36q-72.5 44 -111.5 125t-39 191q0 111 38.5 192.5t111 125t171.5 43.5t171.5 -43.5t111 -125t38.5 -191.5t-39 -191.5t-111.5 -125.5t-170.5 -44t-170.5 44zM556.5 137.5q62.5 75.5 62.5 215.5t-62 215t-175 75q-112 0 -174.5 -75.5t-62.5 -214.5t62.5 -215
t174.5 -76t174.5 75.5zM252 885h89v-86h-89v86zM423 885h89v-86h-89v86z" />
    <glyph glyph-name="uni022A" unicode="&#x22a;" horiz-adv-x="764" 
d="M211.5 36q-72.5 44 -111.5 125t-39 191q0 111 38.5 192.5t111 125t171.5 43.5t171.5 -43.5t111 -125t38.5 -191.5t-39 -191.5t-111.5 -125.5t-170.5 -44t-170.5 44zM556.5 137.5q62.5 75.5 62.5 215.5t-62 215t-175 75q-112 0 -174.5 -75.5t-62.5 -214.5t62.5 -215
t174.5 -76t174.5 75.5zM252 885h89v-86h-89v86zM423 885h89v-86h-89v86zM232 971v61h300v-61h-300z" />
    <glyph glyph-name="uni0230" unicode="&#x230;" horiz-adv-x="764" 
d="M211.5 36q-72.5 44 -111.5 125t-39 191q0 111 38.5 192.5t111 125t171.5 43.5t171.5 -43.5t111 -125t38.5 -191.5t-39 -191.5t-111.5 -125.5t-170.5 -44t-170.5 44zM556.5 137.5q62.5 75.5 62.5 215.5t-62 215t-175 75q-112 0 -174.5 -75.5t-62.5 -214.5t62.5 -215
t174.5 -76t174.5 75.5zM333 887h98v-91h-98v91zM232 971v61h300v-61h-300z" />
    <glyph glyph-name="uni1ECC" unicode="&#x1ecc;" horiz-adv-x="764" 
d="M211.5 36q-72.5 44 -111.5 125t-39 191q0 111 38.5 192.5t111 125t171.5 43.5t171.5 -43.5t111 -125t38.5 -191.5t-39 -191.5t-111.5 -125.5t-170.5 -44t-170.5 44zM556.5 137.5q62.5 75.5 62.5 215.5t-62 215t-175 75q-112 0 -174.5 -75.5t-62.5 -214.5t62.5 -215
t174.5 -76t174.5 75.5zM336 -94h92v-88h-92v88z" />
    <glyph glyph-name="Ograve" unicode="&#xd2;" horiz-adv-x="764" 
d="M211.5 36q-72.5 44 -111.5 125t-39 191q0 111 38.5 192.5t111 125t171.5 43.5t171.5 -43.5t111 -125t38.5 -191.5t-39 -191.5t-111.5 -125.5t-170.5 -44t-170.5 44zM556.5 137.5q62.5 75.5 62.5 215.5t-62 215t-175 75q-112 0 -174.5 -75.5t-62.5 -214.5t62.5 -215
t174.5 -76t174.5 75.5zM354 765l-133 152h88l101 -152h-56z" />
    <glyph glyph-name="uni1ECE" unicode="&#x1ece;" horiz-adv-x="764" 
d="M211.5 36q-72.5 44 -111.5 125t-39 191q0 111 38.5 192.5t111 125t171.5 43.5t171.5 -43.5t111 -125t38.5 -191.5t-39 -191.5t-111.5 -125.5t-170.5 -44t-170.5 44zM556.5 137.5q62.5 75.5 62.5 215.5t-62 215t-175 75q-112 0 -174.5 -75.5t-62.5 -214.5t62.5 -215
t174.5 -76t174.5 75.5zM409 765h-53v18q0 17 11 27.5t30 19.5q14 8 20 12.5t6 11.5q0 9 -11 14t-30 5q-29 0 -61 -12l-14 43q39 17 81 17q46 0 72.5 -17.5t26.5 -46.5q0 -19 -12 -30t-34 -21q-17 -9 -24.5 -15t-7.5 -16v-10z" />
    <glyph glyph-name="Ohorn" unicode="&#x1a0;" horiz-adv-x="764" 
d="M668 700q-35 -39 -97 -45q65 -44 98.5 -121.5t33.5 -180.5q0 -110 -39 -191.5t-111.5 -125.5t-170.5 -44t-170.5 44t-111.5 125t-39 191q0 111 39 192.5t112 125t173 43.5q27 0 73 -4q44 -4 63 -4q60 1 85 26t25 84v15h72v-27q0 -64 -35 -103zM557 568q-62 75 -175 75
q-112 0 -174.5 -75.5t-62.5 -214.5t62.5 -215t174.5 -76t174.5 75.5t62.5 215.5t-62 215z" />
    <glyph glyph-name="uni1EDA" unicode="&#x1eda;" horiz-adv-x="764" 
d="M668 700q-35 -39 -97 -45q65 -44 98.5 -121.5t33.5 -180.5q0 -110 -39 -191.5t-111.5 -125.5t-170.5 -44t-170.5 44t-111.5 125t-39 191q0 111 39 192.5t112 125t173 43.5q27 0 73 -4q44 -4 63 -4q60 1 85 26t25 84v15h72v-27q0 -64 -35 -103zM557 568q-62 75 -175 75
q-112 0 -174.5 -75.5t-62.5 -214.5t62.5 -215t174.5 -76t174.5 75.5t62.5 215.5t-62 215zM410 765h-56l101 152h88z" />
    <glyph glyph-name="uni1EE2" unicode="&#x1ee2;" horiz-adv-x="764" 
d="M668 700q-35 -39 -97 -45q65 -44 98.5 -121.5t33.5 -180.5q0 -110 -39 -191.5t-111.5 -125.5t-170.5 -44t-170.5 44t-111.5 125t-39 191q0 111 39 192.5t112 125t173 43.5q27 0 73 -4q44 -4 63 -4q60 1 85 26t25 84v15h72v-27q0 -64 -35 -103zM557 568q-62 75 -175 75
q-112 0 -174.5 -75.5t-62.5 -214.5t62.5 -215t174.5 -76t174.5 75.5t62.5 215.5t-62 215zM337 -94h92v-88h-92v88z" />
    <glyph glyph-name="uni1EDC" unicode="&#x1edc;" horiz-adv-x="764" 
d="M668 700q-35 -39 -97 -45q65 -44 98.5 -121.5t33.5 -180.5q0 -110 -39 -191.5t-111.5 -125.5t-170.5 -44t-170.5 44t-111.5 125t-39 191q0 111 39 192.5t112 125t173 43.5q27 0 73 -4q44 -4 63 -4q60 1 85 26t25 84v15h72v-27q0 -64 -35 -103zM557 568q-62 75 -175 75
q-112 0 -174.5 -75.5t-62.5 -214.5t62.5 -215t174.5 -76t174.5 75.5t62.5 215.5t-62 215zM354 765l-133 152h88l101 -152h-56z" />
    <glyph glyph-name="uni1EDE" unicode="&#x1ede;" horiz-adv-x="764" 
d="M668 700q-35 -39 -97 -45q65 -44 98.5 -121.5t33.5 -180.5q0 -110 -39 -191.5t-111.5 -125.5t-170.5 -44t-170.5 44t-111.5 125t-39 191q0 111 39 192.5t112 125t173 43.5q27 0 73 -4q44 -4 63 -4q60 1 85 26t25 84v15h72v-27q0 -64 -35 -103zM557 568q-62 75 -175 75
q-112 0 -174.5 -75.5t-62.5 -214.5t62.5 -215t174.5 -76t174.5 75.5t62.5 215.5t-62 215zM409 765h-53v18q0 17 11 27.5t30 19.5q14 8 20 12.5t6 11.5q0 9 -11 14t-30 5q-29 0 -61 -12l-14 43q39 17 81 17q46 0 72.5 -17.5t26.5 -46.5q0 -19 -12 -30t-34 -21
q-17 -9 -24.5 -15t-7.5 -16v-10z" />
    <glyph glyph-name="uni1EE0" unicode="&#x1ee0;" horiz-adv-x="764" 
d="M668 700q-35 -39 -97 -45q65 -44 98.5 -121.5t33.5 -180.5q0 -110 -39 -191.5t-111.5 -125.5t-170.5 -44t-170.5 44t-111.5 125t-39 191q0 111 39 192.5t112 125t173 43.5q27 0 73 -4q44 -4 63 -4q60 1 85 26t25 84v15h72v-27q0 -64 -35 -103zM557 568q-62 75 -175 75
q-112 0 -174.5 -75.5t-62.5 -214.5t62.5 -215t174.5 -76t174.5 75.5t62.5 215.5t-62 215zM245.5 870.5q24.5 30.5 64.5 30.5q21 0 40 -8.5t44 -24.5q21 -13 33.5 -19t24.5 -6q22 0 34 16t12 39h45q0 -54 -24.5 -84.5t-64.5 -30.5q-21 0 -40 8.5t-44 24.5q-21 13 -33.5 19
t-24.5 6q-22 0 -34 -16t-12 -39h-45q0 54 24.5 84.5z" />
    <glyph glyph-name="Ohungarumlaut" unicode="&#x150;" horiz-adv-x="764" 
d="M211.5 36q-72.5 44 -111.5 125t-39 191q0 111 38.5 192.5t111 125t171.5 43.5t171.5 -43.5t111 -125t38.5 -191.5t-39 -191.5t-111.5 -125.5t-170.5 -44t-170.5 44zM556.5 137.5q62.5 75.5 62.5 215.5t-62 215t-175 75q-112 0 -174.5 -75.5t-62.5 -214.5t62.5 -215
t174.5 -76t174.5 75.5zM524 917l-98 -152h-43l5 11l-7 -11h-43l70 152h116z" />
    <glyph glyph-name="uni020E" unicode="&#x20e;" horiz-adv-x="764" 
d="M211.5 36q-72.5 44 -111.5 125t-39 191q0 111 38.5 192.5t111 125t171.5 43.5t171.5 -43.5t111 -125t38.5 -191.5t-39 -191.5t-111.5 -125.5t-170.5 -44t-170.5 44zM556.5 137.5q62.5 75.5 62.5 215.5t-62 215t-175 75q-112 0 -174.5 -75.5t-62.5 -214.5t62.5 -215
t174.5 -76t174.5 75.5zM480.5 880.5q42.5 -25.5 64.5 -80.5l-51 -22q-22 40 -48.5 55t-63.5 15t-63.5 -15t-48.5 -55l-51 22q22 55 64.5 80.5t98.5 25.5t98.5 -25.5z" />
    <glyph glyph-name="Omacron" unicode="&#x14c;" horiz-adv-x="764" 
d="M211.5 36q-72.5 44 -111.5 125t-39 191q0 111 38.5 192.5t111 125t171.5 43.5t171.5 -43.5t111 -125t38.5 -191.5t-39 -191.5t-111.5 -125.5t-170.5 -44t-170.5 44zM556.5 137.5q62.5 75.5 62.5 215.5t-62 215t-175 75q-112 0 -174.5 -75.5t-62.5 -214.5t62.5 -215
t174.5 -76t174.5 75.5zM232 811v61h300v-61h-300z" />
    <glyph glyph-name="uni1E52" unicode="&#x1e52;" horiz-adv-x="764" 
d="M211.5 36q-72.5 44 -111.5 125t-39 191q0 111 38.5 192.5t111 125t171.5 43.5t171.5 -43.5t111 -125t38.5 -191.5t-39 -191.5t-111.5 -125.5t-170.5 -44t-170.5 44zM556.5 137.5q62.5 75.5 62.5 215.5t-62 215t-175 75q-112 0 -174.5 -75.5t-62.5 -214.5t62.5 -215
t174.5 -76t174.5 75.5zM232 811v61h300v-61h-300zM410 925h-56l101 152h88z" />
    <glyph glyph-name="uni1E50" unicode="&#x1e50;" horiz-adv-x="764" 
d="M211.5 36q-72.5 44 -111.5 125t-39 191q0 111 38.5 192.5t111 125t171.5 43.5t171.5 -43.5t111 -125t38.5 -191.5t-39 -191.5t-111.5 -125.5t-170.5 -44t-170.5 44zM556.5 137.5q62.5 75.5 62.5 215.5t-62 215t-175 75q-112 0 -174.5 -75.5t-62.5 -214.5t62.5 -215
t174.5 -76t174.5 75.5zM232 811v61h300v-61h-300zM354 925l-133 152h88l101 -152h-56z" />
    <glyph glyph-name="uni01EA" unicode="&#x1ea;" horiz-adv-x="764" 
d="M404 -77q0 -30 17.5 -46.5t48.5 -16.5q26 0 58 17l16 -47q-37 -23 -86 -23q-52 0 -84.5 29.5t-32.5 75.5q0 45 32 79q-95 2 -165.5 46.5t-108.5 125.5t-38 189q0 111 38.5 192.5t111 125t171.5 43.5q98 0 170.5 -43.5t111.5 -125t39 -191.5q0 -137 -59 -227.5
t-167 -121.5q-73 -21 -73 -81zM207.5 138q62.5 -76 174.5 -76t174.5 75.5t62.5 215.5t-62 215t-175 75q-112 0 -174.5 -75.5t-62.5 -214.5t62.5 -215z" />
    <glyph glyph-name="Oslash" unicode="&#xd8;" horiz-adv-x="764" 
d="M673.5 523q29.5 -74 29.5 -170q0 -110 -39 -191.5t-111.5 -125.5t-170.5 -44q-85 0 -153 34l-42 -73l-56 33l44 76q-55 47 -84.5 121t-29.5 169q0 111 38.5 192.5t111 125t171.5 43.5q85 0 153 -34l42 73l56 -33l-44 -75q55 -47 84.5 -121zM163 223.5q18 -56.5 52 -93.5
l283 486q-49 27 -116 27q-112 0 -174.5 -75.5t-62.5 -214.5q0 -73 18 -129.5zM556.5 137.5q62.5 75.5 62.5 215.5q0 148 -69 223l-284 -487q50 -27 116 -27q112 0 174.5 75.5z" />
    <glyph glyph-name="Oslashacute" unicode="&#x1fe;" horiz-adv-x="764" 
d="M673.5 523q29.5 -74 29.5 -170q0 -110 -39 -191.5t-111.5 -125.5t-170.5 -44q-85 0 -153 34l-42 -73l-56 33l44 76q-55 47 -84.5 121t-29.5 169q0 111 38.5 192.5t111 125t171.5 43.5q85 0 153 -34l42 73l56 -33l-44 -75q55 -47 84.5 -121zM163 223.5q18 -56.5 52 -93.5
l283 486q-49 27 -116 27q-112 0 -174.5 -75.5t-62.5 -214.5q0 -73 18 -129.5zM556.5 137.5q62.5 75.5 62.5 215.5q0 148 -69 223l-284 -487q50 -27 116 -27q112 0 174.5 75.5zM410 765h-56l101 152h88z" />
    <glyph glyph-name="Otilde" unicode="&#xd5;" horiz-adv-x="764" 
d="M211.5 36q-72.5 44 -111.5 125t-39 191q0 111 38.5 192.5t111 125t171.5 43.5t171.5 -43.5t111 -125t38.5 -191.5t-39 -191.5t-111.5 -125.5t-170.5 -44t-170.5 44zM556.5 137.5q62.5 75.5 62.5 215.5t-62 215t-175 75q-112 0 -174.5 -75.5t-62.5 -214.5t62.5 -215
t174.5 -76t174.5 75.5zM245.5 870.5q24.5 30.5 64.5 30.5q21 0 40 -8.5t44 -24.5q21 -13 33.5 -19t24.5 -6q22 0 34 16t12 39h45q0 -54 -24.5 -84.5t-64.5 -30.5q-21 0 -40 8.5t-44 24.5q-21 13 -33.5 19t-24.5 6q-22 0 -34 -16t-12 -39h-45q0 54 24.5 84.5z" />
    <glyph glyph-name="uni1E4C" unicode="&#x1e4c;" horiz-adv-x="764" 
d="M211.5 36q-72.5 44 -111.5 125t-39 191q0 111 38.5 192.5t111 125t171.5 43.5t171.5 -43.5t111 -125t38.5 -191.5t-39 -191.5t-111.5 -125.5t-170.5 -44t-170.5 44zM556.5 137.5q62.5 75.5 62.5 215.5t-62 215t-175 75q-112 0 -174.5 -75.5t-62.5 -214.5t62.5 -215
t174.5 -76t174.5 75.5zM245.5 870.5q24.5 30.5 64.5 30.5q21 0 40 -8.5t44 -24.5q21 -13 33.5 -19t24.5 -6q22 0 34 16t12 39h45q0 -54 -24.5 -84.5t-64.5 -30.5q-21 0 -40 8.5t-44 24.5q-21 13 -33.5 19t-24.5 6q-22 0 -34 -16t-12 -39h-45q0 54 24.5 84.5zM410 925h-56
l101 152h88z" />
    <glyph glyph-name="uni1E4E" unicode="&#x1e4e;" horiz-adv-x="764" 
d="M211.5 36q-72.5 44 -111.5 125t-39 191q0 111 38.5 192.5t111 125t171.5 43.5t171.5 -43.5t111 -125t38.5 -191.5t-39 -191.5t-111.5 -125.5t-170.5 -44t-170.5 44zM556.5 137.5q62.5 75.5 62.5 215.5t-62 215t-175 75q-112 0 -174.5 -75.5t-62.5 -214.5t62.5 -215
t174.5 -76t174.5 75.5zM245.5 870.5q24.5 30.5 64.5 30.5q21 0 40 -8.5t44 -24.5q21 -13 33.5 -19t24.5 -6q22 0 34 16t12 39h45q0 -54 -24.5 -84.5t-64.5 -30.5q-21 0 -40 8.5t-44 24.5q-21 13 -33.5 19t-24.5 6q-22 0 -34 -16t-12 -39h-45q0 54 24.5 84.5zM252 1045h89
v-86h-89v86zM423 1045h89v-86h-89v86z" />
    <glyph glyph-name="uni022C" unicode="&#x22c;" horiz-adv-x="764" 
d="M211.5 36q-72.5 44 -111.5 125t-39 191q0 111 38.5 192.5t111 125t171.5 43.5t171.5 -43.5t111 -125t38.5 -191.5t-39 -191.5t-111.5 -125.5t-170.5 -44t-170.5 44zM556.5 137.5q62.5 75.5 62.5 215.5t-62 215t-175 75q-112 0 -174.5 -75.5t-62.5 -214.5t62.5 -215
t174.5 -76t174.5 75.5zM245.5 870.5q24.5 30.5 64.5 30.5q21 0 40 -8.5t44 -24.5q21 -13 33.5 -19t24.5 -6q22 0 34 16t12 39h45q0 -54 -24.5 -84.5t-64.5 -30.5q-21 0 -40 8.5t-44 24.5q-21 13 -33.5 19t-24.5 6q-22 0 -34 -16t-12 -39h-45q0 54 24.5 84.5zM232 971v61h300
v-61h-300z" />
    <glyph glyph-name="OE" unicode="&#x152;" horiz-adv-x="1045" 
d="M153 92q-92 92 -92 261t92 260.5t261 91.5h582v-68h-366v-245h346v-68h-346v-256h366v-68h-582q-169 0 -261 92zM550 68v569h-131q-274 0 -274 -284q0 -142 69 -213.5t205 -71.5h131z" />
    <glyph glyph-name="P" unicode="P" horiz-adv-x="645" 
d="M87 705h279q111 0 172.5 -54t61.5 -153t-62 -154t-172 -55h-197v-289h-82v705zM358 357q161 0 161 141q0 139 -161 139h-189v-280h189z" />
    <glyph glyph-name="Thorn" unicode="&#xde;" horiz-adv-x="645" 
d="M541 500q59 -50 59 -141t-60 -141.5t-167 -50.5h-205v-167h-81v705h81v-155h205q109 0 168 -50zM481 265.5q38 30.5 38 93.5t-38 93t-117 30h-196v-247h196q79 0 117 30.5z" />
    <glyph glyph-name="Q" unicode="Q" horiz-adv-x="764" 
d="M544 -10.5q17 -16.5 35 -45.5l67 -108l-69 -36l-83 135q-35 57 -112 57q-98 0 -170.5 44t-111.5 125t-39 191q0 111 38.5 192.5t111 125t171.5 43.5q98 0 170.5 -43.5t111.5 -125t39 -191.5q0 -128 -51.5 -216.5t-146.5 -123.5q22 -7 39 -23.5zM207.5 138
q62.5 -76 174.5 -76t174.5 75.5t62.5 215.5t-62 215t-175 75q-112 0 -174.5 -75.5t-62.5 -214.5t62.5 -215z" />
    <glyph glyph-name="R" unicode="R" horiz-adv-x="686" 
d="M642 0h-90l-120 226q-22 41 -51.5 56.5t-80.5 15.5h-132v-298h-81v705h290q115 0 175.5 -51t60.5 -150q0 -82 -46.5 -132.5t-132.5 -63.5q27 -8 47.5 -27t37.5 -51zM370 366q82 0 122.5 34t40.5 103q0 68 -40 101t-123 33h-202v-271h202z" />
    <glyph glyph-name="Racute" unicode="&#x154;" horiz-adv-x="686" 
d="M642 0h-90l-120 226q-22 41 -51.5 56.5t-80.5 15.5h-132v-298h-81v705h290q115 0 175.5 -51t60.5 -150q0 -82 -46.5 -132.5t-132.5 -63.5q27 -8 47.5 -27t37.5 -51zM370 366q82 0 122.5 34t40.5 103q0 68 -40 101t-123 33h-202v-271h202zM369 765h-56l101 152h88z" />
    <glyph glyph-name="Rcaron" unicode="&#x158;" horiz-adv-x="686" 
d="M642 0h-90l-120 226q-22 41 -51.5 56.5t-80.5 15.5h-132v-298h-81v705h290q115 0 175.5 -51t60.5 -150q0 -82 -46.5 -132.5t-132.5 -63.5q27 -8 47.5 -27t37.5 -51zM370 366q82 0 122.5 34t40.5 103q0 68 -40 101t-123 33h-202v-271h202zM414 917h73l-119 -152h-54
l-119 152h73l73 -104z" />
    <glyph glyph-name="Rcommaaccent" unicode="&#x156;" horiz-adv-x="686" 
d="M642 0h-90l-120 226q-22 41 -51.5 56.5t-80.5 15.5h-132v-298h-81v705h290q115 0 175.5 -51t60.5 -150q0 -82 -46.5 -132.5t-132.5 -63.5q27 -8 47.5 -27t37.5 -51zM370 366q82 0 122.5 34t40.5 103q0 68 -40 101t-123 33h-202v-271h202zM390 -72v-58q0 -40 -11.5 -71
t-39.5 -58l-37 27q19 19 27 37.5t10 39.5h-47v83h98z" />
    <glyph glyph-name="uni0210" unicode="&#x210;" horiz-adv-x="686" 
d="M642 0h-90l-120 226q-22 41 -51.5 56.5t-80.5 15.5h-132v-298h-81v705h290q115 0 175.5 -51t60.5 -150q0 -82 -46.5 -132.5t-132.5 -63.5q27 -8 47.5 -27t37.5 -51zM370 366q82 0 122.5 34t40.5 103q0 68 -40 101t-123 33h-202v-271h202zM259 765l-97 152h70l71 -152h-44
zM379 765l-98 152h71l71 -152h-44z" />
    <glyph glyph-name="uni1E5A" unicode="&#x1e5a;" horiz-adv-x="686" 
d="M642 0h-90l-120 226q-22 41 -51.5 56.5t-80.5 15.5h-132v-298h-81v705h290q115 0 175.5 -51t60.5 -150q0 -82 -46.5 -132.5t-132.5 -63.5q27 -8 47.5 -27t37.5 -51zM370 366q82 0 122.5 34t40.5 103q0 68 -40 101t-123 33h-202v-271h202zM295 -94h92v-88h-92v88z" />
    <glyph glyph-name="uni0212" unicode="&#x212;" horiz-adv-x="686" 
d="M642 0h-90l-120 226q-22 41 -51.5 56.5t-80.5 15.5h-132v-298h-81v705h290q115 0 175.5 -51t60.5 -150q0 -82 -46.5 -132.5t-132.5 -63.5q27 -8 47.5 -27t37.5 -51zM370 366q82 0 122.5 34t40.5 103q0 68 -40 101t-123 33h-202v-271h202zM439.5 880.5
q42.5 -25.5 64.5 -80.5l-51 -22q-22 40 -48.5 55t-63.5 15t-63.5 -15t-48.5 -55l-51 22q22 55 64.5 80.5t98.5 25.5t98.5 -25.5z" />
    <glyph glyph-name="uni1E5E" unicode="&#x1e5e;" horiz-adv-x="686" 
d="M642 0h-90l-120 226q-22 41 -51.5 56.5t-80.5 15.5h-132v-298h-81v705h290q115 0 175.5 -51t60.5 -150q0 -82 -46.5 -132.5t-132.5 -63.5q27 -8 47.5 -27t37.5 -51zM370 366q82 0 122.5 34t40.5 103q0 68 -40 101t-123 33h-202v-271h202zM191 -168v59h300v-59h-300z" />
    <glyph glyph-name="S" unicode="S" horiz-adv-x="617" 
d="M47 81l32 63q52 -44 106.5 -63t126.5 -19q85 0 131 33t46 93q0 35 -22 57t-58 35t-97 27q-82 19 -134.5 40t-85 60t-32.5 102q0 60 31.5 106.5t90 72t135.5 25.5q73 0 136.5 -23t107.5 -66l-31 -63q-50 43 -101.5 62.5t-111.5 19.5q-82 0 -128.5 -34.5t-46.5 -96.5
q0 -53 41 -80t124 -46q91 -22 143 -40.5t86.5 -55.5t34.5 -99q0 -60 -31.5 -105t-90.5 -69.5t-138 -24.5q-165 0 -264 89z" />
    <glyph glyph-name="Sacute" unicode="&#x15a;" horiz-adv-x="617" 
d="M47 81l32 63q52 -44 106.5 -63t126.5 -19q85 0 131 33t46 93q0 35 -22 57t-58 35t-97 27q-82 19 -134.5 40t-85 60t-32.5 102q0 60 31.5 106.5t90 72t135.5 25.5q73 0 136.5 -23t107.5 -66l-31 -63q-50 43 -101.5 62.5t-111.5 19.5q-82 0 -128.5 -34.5t-46.5 -96.5
q0 -53 41 -80t124 -46q91 -22 143 -40.5t86.5 -55.5t34.5 -99q0 -60 -31.5 -105t-90.5 -69.5t-138 -24.5q-165 0 -264 89zM337 765h-56l101 152h88z" />
    <glyph glyph-name="uni1E64" unicode="&#x1e64;" horiz-adv-x="617" 
d="M47 81l32 63q52 -44 106.5 -63t126.5 -19q85 0 131 33t46 93q0 35 -22 57t-58 35t-97 27q-82 19 -134.5 40t-85 60t-32.5 102q0 60 31.5 106.5t90 72t135.5 25.5q73 0 136.5 -23t107.5 -66l-31 -63q-50 43 -101.5 62.5t-111.5 19.5q-82 0 -128.5 -34.5t-46.5 -96.5
q0 -53 41 -80t124 -46q91 -22 143 -40.5t86.5 -55.5t34.5 -99q0 -60 -31.5 -105t-90.5 -69.5t-138 -24.5q-165 0 -264 89zM345 765h-56l101 152h88zM148 916h98v-91h-98v91z" />
    <glyph glyph-name="Scaron" unicode="&#x160;" horiz-adv-x="617" 
d="M47 81l32 63q52 -44 106.5 -63t126.5 -19q85 0 131 33t46 93q0 35 -22 57t-58 35t-97 27q-82 19 -134.5 40t-85 60t-32.5 102q0 60 31.5 106.5t90 72t135.5 25.5q73 0 136.5 -23t107.5 -66l-31 -63q-50 43 -101.5 62.5t-111.5 19.5q-82 0 -128.5 -34.5t-46.5 -96.5
q0 -53 41 -80t124 -46q91 -22 143 -40.5t86.5 -55.5t34.5 -99q0 -60 -31.5 -105t-90.5 -69.5t-138 -24.5q-165 0 -264 89zM382 917h73l-119 -152h-54l-119 152h73l73 -104z" />
    <glyph glyph-name="uni1E66" unicode="&#x1e66;" horiz-adv-x="617" 
d="M47 81l32 63q52 -44 106.5 -63t126.5 -19q85 0 131 33t46 93q0 35 -22 57t-58 35t-97 27q-82 19 -134.5 40t-85 60t-32.5 102q0 60 31.5 106.5t90 72t135.5 25.5q73 0 136.5 -23t107.5 -66l-31 -63q-50 43 -101.5 62.5t-111.5 19.5q-82 0 -128.5 -34.5t-46.5 -96.5
q0 -53 41 -80t124 -46q91 -22 143 -40.5t86.5 -55.5t34.5 -99q0 -60 -31.5 -105t-90.5 -69.5t-138 -24.5q-165 0 -264 89zM382 917h73l-119 -152h-54l-119 152h73l73 -104zM260 1047h98v-91h-98v91z" />
    <glyph glyph-name="Scedilla" unicode="&#x15e;" horiz-adv-x="617" 
d="M506 50q-65 -54 -176 -58l-4 -35q16 2 24 2q32 0 54 -17.5t22 -51.5q0 -36 -30.5 -59.5t-85.5 -23.5q-20 0 -45 5t-43 14l13 43q36 -14 76 -14q27 0 41 9t14 26q0 13 -9 20t-26 7q-22 0 -45 -9l-20 16l8 69q-139 9 -227 88l32 63q52 -44 106.5 -63t126.5 -19q85 0 131 33
t46 93q0 35 -22 57t-58 35t-97 27q-82 19 -134.5 40t-85 60t-32.5 102q0 60 31.5 106.5t90 72t135.5 25.5q73 0 136.5 -23t107.5 -66l-31 -63q-50 43 -101.5 62.5t-111.5 19.5q-82 0 -128.5 -34.5t-46.5 -96.5q0 -53 41 -80t124 -46q91 -22 143 -40.5t86.5 -55.5t34.5 -99
q0 -87 -65 -141z" />
    <glyph glyph-name="Scircumflex" unicode="&#x15c;" horiz-adv-x="617" 
d="M47 81l32 63q52 -44 106.5 -63t126.5 -19q85 0 131 33t46 93q0 35 -22 57t-58 35t-97 27q-82 19 -134.5 40t-85 60t-32.5 102q0 60 31.5 106.5t90 72t135.5 25.5q73 0 136.5 -23t107.5 -66l-31 -63q-50 43 -101.5 62.5t-111.5 19.5q-82 0 -128.5 -34.5t-46.5 -96.5
q0 -53 41 -80t124 -46q91 -22 143 -40.5t86.5 -55.5t34.5 -99q0 -60 -31.5 -105t-90.5 -69.5t-138 -24.5q-165 0 -264 89zM236 765h-73l119 152h54l119 -152h-73l-73 103z" />
    <glyph glyph-name="Scommaaccent" unicode="&#x218;" horiz-adv-x="617" 
d="M47 81l32 63q52 -44 106.5 -63t126.5 -19q85 0 131 33t46 93q0 35 -22 57t-58 35t-97 27q-82 19 -134.5 40t-85 60t-32.5 102q0 60 31.5 106.5t90 72t135.5 25.5q73 0 136.5 -23t107.5 -66l-31 -63q-50 43 -101.5 62.5t-111.5 19.5q-82 0 -128.5 -34.5t-46.5 -96.5
q0 -53 41 -80t124 -46q91 -22 143 -40.5t86.5 -55.5t34.5 -99q0 -60 -31.5 -105t-90.5 -69.5t-138 -24.5q-165 0 -264 89zM361 -72v-58q0 -40 -11.5 -71t-39.5 -58l-37 27q19 19 27 37.5t10 39.5h-47v83h98z" />
    <glyph glyph-name="uni1E60" unicode="&#x1e60;" horiz-adv-x="617" 
d="M47 81l32 63q52 -44 106.5 -63t126.5 -19q85 0 131 33t46 93q0 35 -22 57t-58 35t-97 27q-82 19 -134.5 40t-85 60t-32.5 102q0 60 31.5 106.5t90 72t135.5 25.5q73 0 136.5 -23t107.5 -66l-31 -63q-50 43 -101.5 62.5t-111.5 19.5q-82 0 -128.5 -34.5t-46.5 -96.5
q0 -53 41 -80t124 -46q91 -22 143 -40.5t86.5 -55.5t34.5 -99q0 -60 -31.5 -105t-90.5 -69.5t-138 -24.5q-165 0 -264 89zM260 887h98v-91h-98v91z" />
    <glyph glyph-name="uni1E62" unicode="&#x1e62;" horiz-adv-x="617" 
d="M47 81l32 63q52 -44 106.5 -63t126.5 -19q85 0 131 33t46 93q0 35 -22 57t-58 35t-97 27q-82 19 -134.5 40t-85 60t-32.5 102q0 60 31.5 106.5t90 72t135.5 25.5q73 0 136.5 -23t107.5 -66l-31 -63q-50 43 -101.5 62.5t-111.5 19.5q-82 0 -128.5 -34.5t-46.5 -96.5
q0 -53 41 -80t124 -46q91 -22 143 -40.5t86.5 -55.5t34.5 -99q0 -60 -31.5 -105t-90.5 -69.5t-138 -24.5q-165 0 -264 89zM266 -94h92v-88h-92v88z" />
    <glyph glyph-name="uni1E68" unicode="&#x1e68;" horiz-adv-x="617" 
d="M47 81l32 63q52 -44 106.5 -63t126.5 -19q85 0 131 33t46 93q0 35 -22 57t-58 35t-97 27q-82 19 -134.5 40t-85 60t-32.5 102q0 60 31.5 106.5t90 72t135.5 25.5q73 0 136.5 -23t107.5 -66l-31 -63q-50 43 -101.5 62.5t-111.5 19.5q-82 0 -128.5 -34.5t-46.5 -96.5
q0 -53 41 -80t124 -46q91 -22 143 -40.5t86.5 -55.5t34.5 -99q0 -60 -31.5 -105t-90.5 -69.5t-138 -24.5q-165 0 -264 89zM266 -94h92v-88h-92v88zM260 887h98v-91h-98v91z" />
    <glyph glyph-name="uni1E9E" unicode="&#x1e9e;" horiz-adv-x="688" 
d="M591.5 307.5q38.5 -45.5 38.5 -114.5q0 -58 -27.5 -103.5t-77 -71t-113.5 -25.5q-52 0 -99 16.5t-84 47.5l28 63q39 -30 74.5 -44t72.5 -14q68 0 106.5 35.5t38.5 98.5q0 127 -167 127h-127v69h96q72 0 111.5 33t39.5 94q0 58 -40 90.5t-111 32.5q-93 0 -138 -46.5
t-45 -143.5v-452h-81v456q0 127 67 191.5t198 64.5q106 0 168 -51t62 -137q0 -55 -26.5 -96t-73.5 -60q71 -15 109.5 -60.5z" />
    <glyph glyph-name="uni018F" unicode="&#x18f;" horiz-adv-x="742" 
d="M526 669.5q75 -43.5 115 -124.5t40 -192q0 -109 -37.5 -190.5t-107 -126t-162.5 -44.5q-96 0 -166.5 43t-108.5 124t-38 192v41h536q-9 121 -73.5 186t-175.5 65q-128 0 -222 -82l-31 63q45 42 112.5 65.5t141.5 23.5q102 0 177 -43.5zM532.5 130q58.5 68 64.5 193h-452
q6 -125 65.5 -193t161.5 -68t160.5 68z" />
    <glyph glyph-name="T" unicode="T" horiz-adv-x="598" 
d="M257 0v635h-245v70h574v-70h-246v-635h-83z" />
    <glyph glyph-name="Tbar" unicode="&#x166;" horiz-adv-x="598" 
d="M586 635h-246v-244h142v-67h-142v-324h-83v324h-142v67h142v244h-245v70h574v-70z" />
    <glyph glyph-name="Tcaron" unicode="&#x164;" horiz-adv-x="598" 
d="M257 0v635h-245v70h574v-70h-246v-635h-83zM372 917h73l-119 -152h-54l-119 152h73l73 -104z" />
    <glyph glyph-name="uni0162" unicode="&#x162;" horiz-adv-x="598" 
d="M318 0l-5 -43q16 2 24 2q32 0 54 -17.5t22 -51.5q0 -36 -30.5 -59.5t-85.5 -23.5q-20 0 -45 5t-43 14l13 43q36 -14 76 -14q27 0 41 9t14 26q0 13 -9 20t-26 7q-22 0 -45 -9l-20 16l9 76h-5v635h-245v70h574v-70h-246v-635h-22z" />
    <glyph glyph-name="uni021A" unicode="&#x21a;" horiz-adv-x="598" 
d="M257 0v635h-245v70h574v-70h-246v-635h-83zM348 -72v-58q0 -40 -11.5 -71t-39.5 -58l-37 27q19 19 27 37.5t10 39.5h-47v83h98z" />
    <glyph glyph-name="uni1E6C" unicode="&#x1e6c;" horiz-adv-x="598" 
d="M257 0v635h-245v70h574v-70h-246v-635h-83zM253 -94h92v-88h-92v88z" />
    <glyph glyph-name="uni1E6E" unicode="&#x1e6e;" horiz-adv-x="598" 
d="M257 0v635h-245v70h574v-70h-246v-635h-83zM149 -168v59h300v-59h-300z" />
    <glyph glyph-name="U" unicode="U" horiz-adv-x="724" 
d="M153 64q-71 72 -71 212v429h81v-436q0 -103 50.5 -155t148.5 -52t148 52t50 155v436h82v-429q0 -139 -71.5 -211.5t-208.5 -72.5q-138 0 -209 72z" />
    <glyph glyph-name="Uacute" unicode="&#xda;" horiz-adv-x="724" 
d="M153 64q-71 72 -71 212v429h81v-436q0 -103 50.5 -155t148.5 -52t148 52t50 155v436h82v-429q0 -139 -71.5 -211.5t-208.5 -72.5q-138 0 -209 72zM390 765h-56l101 152h88z" />
    <glyph glyph-name="Ubreve" unicode="&#x16c;" horiz-adv-x="724" 
d="M153 64q-71 72 -71 212v429h81v-436q0 -103 50.5 -155t148.5 -52t148 52t50 155v436h82v-429q0 -139 -71.5 -211.5t-208.5 -72.5q-138 0 -209 72zM263.5 802.5q-42.5 25.5 -64.5 80.5l51 22q22 -40 48.5 -55t63.5 -15t63.5 15t48.5 55l51 -22q-22 -55 -64.5 -80.5
t-98.5 -25.5t-98.5 25.5z" />
    <glyph glyph-name="Ucircumflex" unicode="&#xdb;" horiz-adv-x="724" 
d="M153 64q-71 72 -71 212v429h81v-436q0 -103 50.5 -155t148.5 -52t148 52t50 155v436h82v-429q0 -139 -71.5 -211.5t-208.5 -72.5q-138 0 -209 72zM289 765h-73l119 152h54l119 -152h-73l-73 103z" />
    <glyph glyph-name="uni0214" unicode="&#x214;" horiz-adv-x="724" 
d="M153 64q-71 72 -71 212v429h81v-436q0 -103 50.5 -155t148.5 -52t148 52t50 155v436h82v-429q0 -139 -71.5 -211.5t-208.5 -72.5q-138 0 -209 72zM280 765l-97 152h70l71 -152h-44zM400 765l-98 152h71l71 -152h-44z" />
    <glyph glyph-name="Udieresis" unicode="&#xdc;" horiz-adv-x="724" 
d="M153 64q-71 72 -71 212v429h81v-436q0 -103 50.5 -155t148.5 -52t148 52t50 155v436h82v-429q0 -139 -71.5 -211.5t-208.5 -72.5q-138 0 -209 72zM232 885h89v-86h-89v86zM403 885h89v-86h-89v86z" />
    <glyph glyph-name="uni1EE4" unicode="&#x1ee4;" horiz-adv-x="724" 
d="M153 64q-71 72 -71 212v429h81v-436q0 -103 50.5 -155t148.5 -52t148 52t50 155v436h82v-429q0 -139 -71.5 -211.5t-208.5 -72.5q-138 0 -209 72zM316 -94h92v-88h-92v88z" />
    <glyph glyph-name="Ugrave" unicode="&#xd9;" horiz-adv-x="724" 
d="M153 64q-71 72 -71 212v429h81v-436q0 -103 50.5 -155t148.5 -52t148 52t50 155v436h82v-429q0 -139 -71.5 -211.5t-208.5 -72.5q-138 0 -209 72zM334 765l-133 152h88l101 -152h-56z" />
    <glyph glyph-name="uni1EE6" unicode="&#x1ee6;" horiz-adv-x="724" 
d="M153 64q-71 72 -71 212v429h81v-436q0 -103 50.5 -155t148.5 -52t148 52t50 155v436h82v-429q0 -139 -71.5 -211.5t-208.5 -72.5q-138 0 -209 72zM389 765h-53v18q0 17 11 27.5t30 19.5q14 8 20 12.5t6 11.5q0 9 -11 14t-30 5q-29 0 -61 -12l-14 43q39 17 81 17
q46 0 72.5 -17.5t26.5 -46.5q0 -19 -12 -30t-34 -21q-17 -9 -24.5 -15t-7.5 -16v-10z" />
    <glyph glyph-name="Uhorn" unicode="&#x1af;" horiz-adv-x="724" 
d="M759 830v-27q0 -59 -30.5 -96.5t-86.5 -48.5v-382q0 -139 -71.5 -211.5t-208.5 -72.5q-138 0 -209 72t-71 212v429h81v-436q0 -103 50.5 -155t148.5 -52t148 52t50 155v436h24q56 1 79.5 26t23.5 84v15h72z" />
    <glyph glyph-name="uni1EE8" unicode="&#x1ee8;" horiz-adv-x="724" 
d="M759 830v-27q0 -59 -30.5 -96.5t-86.5 -48.5v-382q0 -139 -71.5 -211.5t-208.5 -72.5q-138 0 -209 72t-71 212v429h81v-436q0 -103 50.5 -155t148.5 -52t148 52t50 155v436h24q56 1 79.5 26t23.5 84v15h72zM390 765h-56l101 152h88z" />
    <glyph glyph-name="uni1EF0" unicode="&#x1ef0;" horiz-adv-x="724" 
d="M759 830v-27q0 -59 -30.5 -96.5t-86.5 -48.5v-382q0 -139 -71.5 -211.5t-208.5 -72.5q-138 0 -209 72t-71 212v429h81v-436q0 -103 50.5 -155t148.5 -52t148 52t50 155v436h24q56 1 79.5 26t23.5 84v15h72zM316 -94h92v-88h-92v88z" />
    <glyph glyph-name="uni1EEA" unicode="&#x1eea;" horiz-adv-x="724" 
d="M759 830v-27q0 -59 -30.5 -96.5t-86.5 -48.5v-382q0 -139 -71.5 -211.5t-208.5 -72.5q-138 0 -209 72t-71 212v429h81v-436q0 -103 50.5 -155t148.5 -52t148 52t50 155v436h24q56 1 79.5 26t23.5 84v15h72zM334 765l-133 152h88l101 -152h-56z" />
    <glyph glyph-name="uni1EEC" unicode="&#x1eec;" horiz-adv-x="724" 
d="M759 830v-27q0 -59 -30.5 -96.5t-86.5 -48.5v-382q0 -139 -71.5 -211.5t-208.5 -72.5q-138 0 -209 72t-71 212v429h81v-436q0 -103 50.5 -155t148.5 -52t148 52t50 155v436h24q56 1 79.5 26t23.5 84v15h72zM389 765h-53v18q0 17 11 27.5t30 19.5q14 8 20 12.5t6 11.5
q0 9 -11 14t-30 5q-29 0 -61 -12l-14 43q39 17 81 17q46 0 72.5 -17.5t26.5 -46.5q0 -19 -12 -30t-34 -21q-17 -9 -24.5 -15t-7.5 -16v-10z" />
    <glyph glyph-name="uni1EEE" unicode="&#x1eee;" horiz-adv-x="724" 
d="M759 830v-27q0 -59 -30.5 -96.5t-86.5 -48.5v-382q0 -139 -71.5 -211.5t-208.5 -72.5q-138 0 -209 72t-71 212v429h81v-436q0 -103 50.5 -155t148.5 -52t148 52t50 155v436h24q56 1 79.5 26t23.5 84v15h72zM225.5 870.5q24.5 30.5 64.5 30.5q21 0 40 -8.5t44 -24.5
q21 -13 33.5 -19t24.5 -6q22 0 34 16t12 39h45q0 -54 -24.5 -84.5t-64.5 -30.5q-21 0 -40 8.5t-44 24.5q-21 13 -33.5 19t-24.5 6q-22 0 -34 -16t-12 -39h-45q0 54 24.5 84.5z" />
    <glyph glyph-name="Uhungarumlaut" unicode="&#x170;" horiz-adv-x="724" 
d="M153 64q-71 72 -71 212v429h81v-436q0 -103 50.5 -155t148.5 -52t148 52t50 155v436h82v-429q0 -139 -71.5 -211.5t-208.5 -72.5q-138 0 -209 72zM504 917l-98 -152h-43l5 11l-7 -11h-43l70 152h116z" />
    <glyph glyph-name="uni0216" unicode="&#x216;" horiz-adv-x="724" 
d="M153 64q-71 72 -71 212v429h81v-436q0 -103 50.5 -155t148.5 -52t148 52t50 155v436h82v-429q0 -139 -71.5 -211.5t-208.5 -72.5q-138 0 -209 72zM460.5 880.5q42.5 -25.5 64.5 -80.5l-51 -22q-22 40 -48.5 55t-63.5 15t-63.5 -15t-48.5 -55l-51 22q22 55 64.5 80.5
t98.5 25.5t98.5 -25.5z" />
    <glyph glyph-name="Umacron" unicode="&#x16a;" horiz-adv-x="724" 
d="M153 64q-71 72 -71 212v429h81v-436q0 -103 50.5 -155t148.5 -52t148 52t50 155v436h82v-429q0 -139 -71.5 -211.5t-208.5 -72.5q-138 0 -209 72zM212 811v61h300v-61h-300z" />
    <glyph glyph-name="uni1E7A" unicode="&#x1e7a;" horiz-adv-x="724" 
d="M153 64q-71 72 -71 212v429h81v-436q0 -103 50.5 -155t148.5 -52t148 52t50 155v436h82v-429q0 -139 -71.5 -211.5t-208.5 -72.5q-138 0 -209 72zM212 811v61h300v-61h-300zM232 1045h89v-86h-89v86zM403 1045h89v-86h-89v86z" />
    <glyph glyph-name="Uogonek" unicode="&#x172;" horiz-adv-x="724" 
d="M642 705v-429q0 -108 -43.5 -176t-127.5 -94q-41 -13 -60.5 -33t-19.5 -50t17 -46.5t48 -16.5q26 0 58 17l16 -47q-35 -23 -85 -23q-52 0 -84.5 29.5t-32.5 75.5q0 49 37 80h-3q-138 0 -209 72t-71 212v429h81v-436q0 -103 50.5 -155t148.5 -52t148 52t50 155v436h82z
" />
    <glyph glyph-name="Uring" unicode="&#x16e;" horiz-adv-x="724" 
d="M153 64q-71 72 -71 212v429h81v-436q0 -103 50.5 -155t148.5 -52t148 52t50 155v436h82v-429q0 -139 -71.5 -211.5t-208.5 -72.5q-138 0 -209 72zM290.5 788.5q-29.5 28.5 -29.5 70.5t29.5 70.5t71.5 28.5t71.5 -28.5t29.5 -70.5t-29.5 -70.5t-71.5 -28.5t-71.5 28.5z
M396.5 823.5q13.5 14.5 13.5 35.5t-13.5 35.5t-34.5 14.5t-34.5 -14.5t-13.5 -35.5t13.5 -35.5t34.5 -14.5t34.5 14.5z" />
    <glyph glyph-name="Utilde" unicode="&#x168;" horiz-adv-x="724" 
d="M153 64q-71 72 -71 212v429h81v-436q0 -103 50.5 -155t148.5 -52t148 52t50 155v436h82v-429q0 -139 -71.5 -211.5t-208.5 -72.5q-138 0 -209 72zM225.5 870.5q24.5 30.5 64.5 30.5q21 0 40 -8.5t44 -24.5q21 -13 33.5 -19t24.5 -6q22 0 34 16t12 39h45
q0 -54 -24.5 -84.5t-64.5 -30.5q-21 0 -40 8.5t-44 24.5q-21 13 -33.5 19t-24.5 6q-22 0 -34 -16t-12 -39h-45q0 54 24.5 84.5z" />
    <glyph glyph-name="uni1E78" unicode="&#x1e78;" horiz-adv-x="724" 
d="M153 64q-71 72 -71 212v429h81v-436q0 -103 50.5 -155t148.5 -52t148 52t50 155v436h82v-429q0 -139 -71.5 -211.5t-208.5 -72.5q-138 0 -209 72zM225.5 870.5q24.5 30.5 64.5 30.5q21 0 40 -8.5t44 -24.5q21 -13 33.5 -19t24.5 -6q22 0 34 16t12 39h45
q0 -54 -24.5 -84.5t-64.5 -30.5q-21 0 -40 8.5t-44 24.5q-21 13 -33.5 19t-24.5 6q-22 0 -34 -16t-12 -39h-45q0 54 24.5 84.5zM390 925h-56l101 152h88z" />
    <glyph glyph-name="V" unicode="V" horiz-adv-x="691" 
d="M605 705h84l-308 -705h-71l-308 705h86l258 -602z" />
    <glyph glyph-name="W" unicode="W" horiz-adv-x="1101" 
d="M987 705h80l-246 -705h-70l-201 577l-201 -577h-69l-247 705h83l200 -589l205 589l62 -1l202 -589z" />
    <glyph glyph-name="Wacute" unicode="&#x1e82;" horiz-adv-x="1101" 
d="M987 705h80l-246 -705h-70l-201 577l-201 -577h-69l-247 705h83l200 -589l205 589l62 -1l202 -589zM578 765h-56l101 152h88z" />
    <glyph glyph-name="Wcircumflex" unicode="&#x174;" horiz-adv-x="1101" 
d="M987 705h80l-246 -705h-70l-201 577l-201 -577h-69l-247 705h83l200 -589l205 589l62 -1l202 -589zM477 765h-73l119 152h54l119 -152h-73l-73 103z" />
    <glyph glyph-name="Wdieresis" unicode="&#x1e84;" horiz-adv-x="1101" 
d="M987 705h80l-246 -705h-70l-201 577l-201 -577h-69l-247 705h83l200 -589l205 589l62 -1l202 -589zM420 885h89v-86h-89v86zM591 885h89v-86h-89v86z" />
    <glyph glyph-name="Wgrave" unicode="&#x1e80;" horiz-adv-x="1101" 
d="M987 705h80l-246 -705h-70l-201 577l-201 -577h-69l-247 705h83l200 -589l205 589l62 -1l202 -589zM522 765l-133 152h88l101 -152h-56z" />
    <glyph glyph-name="X" unicode="X" horiz-adv-x="646" 
d="M370 360l268 -360h-97l-218 299l-218 -299h-97l268 361l-255 344h97l206 -283l206 283h96z" />
    <glyph glyph-name="Y" unicode="Y" horiz-adv-x="601" 
d="M618 705l-277 -372v-333h-82v334l-277 371h95l224 -304l224 304h93z" />
    <glyph glyph-name="Yacute" unicode="&#xdd;" horiz-adv-x="601" 
d="M618 705l-277 -372v-333h-82v334l-277 371h95l224 -304l224 304h93zM328 765h-56l101 152h88z" />
    <glyph glyph-name="Ycircumflex" unicode="&#x176;" horiz-adv-x="601" 
d="M618 705l-277 -372v-333h-82v334l-277 371h95l224 -304l224 304h93zM227 765h-73l119 152h54l119 -152h-73l-73 103z" />
    <glyph glyph-name="Ydieresis" unicode="&#x178;" horiz-adv-x="601" 
d="M618 705l-277 -372v-333h-82v334l-277 371h95l224 -304l224 304h93zM170 885h89v-86h-89v86zM341 885h89v-86h-89v86z" />
    <glyph glyph-name="uni1E8E" unicode="&#x1e8e;" horiz-adv-x="601" 
d="M618 705l-277 -372v-333h-82v334l-277 371h95l224 -304l224 304h93zM251 887h98v-91h-98v91z" />
    <glyph glyph-name="uni1EF4" unicode="&#x1ef4;" horiz-adv-x="601" 
d="M618 705l-277 -372v-333h-82v334l-277 371h95l224 -304l224 304h93zM254 -94h92v-88h-92v88z" />
    <glyph glyph-name="Ygrave" unicode="&#x1ef2;" horiz-adv-x="601" 
d="M618 705l-277 -372v-333h-82v334l-277 371h95l224 -304l224 304h93zM272 765l-133 152h88l101 -152h-56z" />
    <glyph glyph-name="uni1EF6" unicode="&#x1ef6;" horiz-adv-x="601" 
d="M618 705l-277 -372v-333h-82v334l-277 371h95l224 -304l224 304h93zM327 765h-53v18q0 17 11 27.5t30 19.5q14 8 20 12.5t6 11.5q0 9 -11 14t-30 5q-29 0 -61 -12l-14 43q39 17 81 17q46 0 72.5 -17.5t26.5 -46.5q0 -19 -12 -30t-34 -21q-17 -9 -24.5 -15t-7.5 -16v-10z
" />
    <glyph glyph-name="uni0232" unicode="&#x232;" horiz-adv-x="601" 
d="M618 705l-277 -372v-333h-82v334l-277 371h95l224 -304l224 304h93zM150 811v61h300v-61h-300z" />
    <glyph glyph-name="uni1EF8" unicode="&#x1ef8;" horiz-adv-x="601" 
d="M618 705l-277 -372v-333h-82v334l-277 371h95l224 -304l224 304h93zM163.5 870.5q24.5 30.5 64.5 30.5q21 0 40 -8.5t44 -24.5q21 -13 33.5 -19t24.5 -6q22 0 34 16t12 39h45q0 -54 -24.5 -84.5t-64.5 -30.5q-21 0 -40 8.5t-44 24.5q-21 13 -33.5 19t-24.5 6
q-22 0 -34 -16t-12 -39h-45q0 54 24.5 84.5z" />
    <glyph glyph-name="Z" unicode="Z" horiz-adv-x="590" 
d="M139 69h414v-69h-508v61l403 575h-403v69h498v-60z" />
    <glyph glyph-name="Zacute" unicode="&#x179;" horiz-adv-x="590" 
d="M139 69h414v-69h-508v61l403 575h-403v69h498v-60zM323 765h-56l101 152h88z" />
    <glyph glyph-name="Zcaron" unicode="&#x17d;" horiz-adv-x="590" 
d="M139 69h414v-69h-508v61l403 575h-403v69h498v-60zM368 917h73l-119 -152h-54l-119 152h73l73 -104z" />
    <glyph glyph-name="Zdotaccent" unicode="&#x17b;" horiz-adv-x="590" 
d="M139 69h414v-69h-508v61l403 575h-403v69h498v-60zM246 887h98v-91h-98v91z" />
    <glyph glyph-name="uni1E92" unicode="&#x1e92;" horiz-adv-x="590" 
d="M139 69h414v-69h-508v61l403 575h-403v69h498v-60zM253 -94h92v-88h-92v88z" />
    <glyph glyph-name="Iacute_J.loclNLD" horiz-adv-x="582" 
d="M87 0v705h82v-705h-82zM156 765h-56l101 152h88zM248 62l60 4q50 4 77.5 35.5t27.5 86.5v517h82v-518q0 -87 -45 -136t-131 -54l-65 -4zM482 765h-56l101 152h88z" />
    <glyph glyph-name="a" unicode="a" horiz-adv-x="530" 
d="M411.5 451.5q45.5 -47.5 45.5 -144.5v-307h-79v83q-19 -43 -58 -66.5t-90 -23.5q-47 0 -86.5 19t-62.5 53t-23 75q0 55 28 85.5t92 44t178 13.5h22v33q0 61 -25 88.5t-81 27.5q-84 0 -167 -52l-27 59q38 27 91.5 43.5t103.5 16.5q93 0 138.5 -47.5zM339.5 97.5
q38.5 40.5 38.5 104.5v29h-18q-88 0 -134 -7.5t-65.5 -25t-19.5 -51.5q0 -39 28.5 -64.5t71.5 -25.5q60 0 98.5 40.5z" />
    <glyph glyph-name="aacute" unicode="&#xe1;" horiz-adv-x="530" 
d="M411.5 451.5q45.5 -47.5 45.5 -144.5v-307h-79v83q-19 -43 -58 -66.5t-90 -23.5q-47 0 -86.5 19t-62.5 53t-23 75q0 55 28 85.5t92 44t178 13.5h22v33q0 61 -25 88.5t-81 27.5q-84 0 -167 -52l-27 59q38 27 91.5 43.5t103.5 16.5q93 0 138.5 -47.5zM339.5 97.5
q38.5 40.5 38.5 104.5v29h-18q-88 0 -134 -7.5t-65.5 -25t-19.5 -51.5q0 -39 28.5 -64.5t71.5 -25.5q60 0 98.5 40.5zM302 551h-56l99 202h93z" />
    <glyph glyph-name="abreve" unicode="&#x103;" horiz-adv-x="530" 
d="M411.5 451.5q45.5 -47.5 45.5 -144.5v-307h-79v83q-19 -43 -58 -66.5t-90 -23.5q-47 0 -86.5 19t-62.5 53t-23 75q0 55 28 85.5t92 44t178 13.5h22v33q0 61 -25 88.5t-81 27.5q-84 0 -167 -52l-27 59q38 27 91.5 43.5t103.5 16.5q93 0 138.5 -47.5zM339.5 97.5
q38.5 40.5 38.5 104.5v29h-18q-88 0 -134 -7.5t-65.5 -25t-19.5 -51.5q0 -39 28.5 -64.5t71.5 -25.5q60 0 98.5 40.5zM174.5 612q-44.5 31 -65.5 96l51 21q41 -88 114 -88t114 88l51 -21q-20 -65 -64.5 -96t-100.5 -31q-55 0 -99.5 31z" />
    <glyph glyph-name="uni1EAF" unicode="&#x1eaf;" horiz-adv-x="530" 
d="M411.5 451.5q45.5 -47.5 45.5 -144.5v-307h-79v83q-19 -43 -58 -66.5t-90 -23.5q-47 0 -86.5 19t-62.5 53t-23 75q0 55 28 85.5t92 44t178 13.5h22v33q0 61 -25 88.5t-81 27.5q-84 0 -167 -52l-27 59q38 27 91.5 43.5t103.5 16.5q93 0 138.5 -47.5zM339.5 97.5
q38.5 40.5 38.5 104.5v29h-18q-88 0 -134 -7.5t-65.5 -25t-19.5 -51.5q0 -39 28.5 -64.5t71.5 -25.5q60 0 98.5 40.5zM301 654h-54l100 142h86zM175.5 571.5q-42.5 25.5 -64.5 80.5l47 20q22 -39 50.5 -55t65.5 -16t65.5 16t50.5 55l47 -20q-22 -55 -64.5 -80.5t-98.5 -25.5
t-98.5 25.5z" />
    <glyph glyph-name="uni1EB7" unicode="&#x1eb7;" horiz-adv-x="530" 
d="M411.5 451.5q45.5 -47.5 45.5 -144.5v-307h-79v83q-19 -43 -58 -66.5t-90 -23.5q-47 0 -86.5 19t-62.5 53t-23 75q0 55 28 85.5t92 44t178 13.5h22v33q0 61 -25 88.5t-81 27.5q-84 0 -167 -52l-27 59q38 27 91.5 43.5t103.5 16.5q93 0 138.5 -47.5zM339.5 97.5
q38.5 40.5 38.5 104.5v29h-18q-88 0 -134 -7.5t-65.5 -25t-19.5 -51.5q0 -39 28.5 -64.5t71.5 -25.5q60 0 98.5 40.5zM225 -94h92v-88h-92v88zM174.5 612q-44.5 31 -65.5 96l51 21q41 -88 114 -88t114 88l51 -21q-20 -65 -64.5 -96t-100.5 -31q-55 0 -99.5 31z" />
    <glyph glyph-name="uni1EB1" unicode="&#x1eb1;" horiz-adv-x="530" 
d="M411.5 451.5q45.5 -47.5 45.5 -144.5v-307h-79v83q-19 -43 -58 -66.5t-90 -23.5q-47 0 -86.5 19t-62.5 53t-23 75q0 55 28 85.5t92 44t178 13.5h22v33q0 61 -25 88.5t-81 27.5q-84 0 -167 -52l-27 59q38 27 91.5 43.5t103.5 16.5q93 0 138.5 -47.5zM339.5 97.5
q38.5 40.5 38.5 104.5v29h-18q-88 0 -134 -7.5t-65.5 -25t-19.5 -51.5q0 -39 28.5 -64.5t71.5 -25.5q60 0 98.5 40.5zM247 654l-132 142h86l100 -142h-54zM175.5 571.5q-42.5 25.5 -64.5 80.5l47 20q22 -39 50.5 -55t65.5 -16t65.5 16t50.5 55l47 -20q-22 -55 -64.5 -80.5
t-98.5 -25.5t-98.5 25.5z" />
    <glyph glyph-name="uni1EB3" unicode="&#x1eb3;" horiz-adv-x="530" 
d="M411.5 451.5q45.5 -47.5 45.5 -144.5v-307h-79v83q-19 -43 -58 -66.5t-90 -23.5q-47 0 -86.5 19t-62.5 53t-23 75q0 55 28 85.5t92 44t178 13.5h22v33q0 61 -25 88.5t-81 27.5q-84 0 -167 -52l-27 59q38 27 91.5 43.5t103.5 16.5q93 0 138.5 -47.5zM339.5 97.5
q38.5 40.5 38.5 104.5v29h-18q-88 0 -134 -7.5t-65.5 -25t-19.5 -51.5q0 -39 28.5 -64.5t71.5 -25.5q60 0 98.5 40.5zM301 654h-53v17q0 17 11 26.5t31 17.5q13 6 19 10t6 10q0 8 -11 13t-30 5q-29 0 -61 -12l-14 43q42 17 81 17q46 0 72.5 -17.5t26.5 -45.5q0 -18 -11 -27
t-34 -20q-16 -7 -24.5 -13t-8.5 -15v-9zM175.5 571.5q-42.5 25.5 -64.5 80.5l47 20q22 -39 50.5 -55t65.5 -16t65.5 16t50.5 55l47 -20q-22 -55 -64.5 -80.5t-98.5 -25.5t-98.5 25.5z" />
    <glyph glyph-name="uni1EB5" unicode="&#x1eb5;" horiz-adv-x="530" 
d="M411.5 451.5q45.5 -47.5 45.5 -144.5v-307h-79v83q-19 -43 -58 -66.5t-90 -23.5q-47 0 -86.5 19t-62.5 53t-23 75q0 55 28 85.5t92 44t178 13.5h22v33q0 61 -25 88.5t-81 27.5q-84 0 -167 -52l-27 59q38 27 91.5 43.5t103.5 16.5q93 0 138.5 -47.5zM339.5 97.5
q38.5 40.5 38.5 104.5v29h-18q-88 0 -134 -7.5t-65.5 -25t-19.5 -51.5q0 -39 28.5 -64.5t71.5 -25.5q60 0 98.5 40.5zM137.5 775.5q24.5 28.5 64.5 28.5q21 0 39.5 -7.5t44.5 -22.5q23 -12 34.5 -17t23.5 -5q22 0 34 14t12 35h45q0 -46 -24.5 -74.5t-64.5 -28.5
q-21 0 -39.5 7.5t-44.5 22.5q-23 12 -34.5 17t-23.5 5q-22 0 -34 -14t-12 -35h-45q0 46 24.5 74.5zM175.5 571.5q-42.5 25.5 -64.5 80.5l47 20q22 -39 50.5 -55t65.5 -16t65.5 16t50.5 55l47 -20q-22 -55 -64.5 -80.5t-98.5 -25.5t-98.5 25.5z" />
    <glyph glyph-name="uni01CE" unicode="&#x1ce;" horiz-adv-x="530" 
d="M411.5 451.5q45.5 -47.5 45.5 -144.5v-307h-79v83q-19 -43 -58 -66.5t-90 -23.5q-47 0 -86.5 19t-62.5 53t-23 75q0 55 28 85.5t92 44t178 13.5h22v33q0 61 -25 88.5t-81 27.5q-84 0 -167 -52l-27 59q38 27 91.5 43.5t103.5 16.5q93 0 138.5 -47.5zM339.5 97.5
q38.5 40.5 38.5 104.5v29h-18q-88 0 -134 -7.5t-65.5 -25t-19.5 -51.5q0 -39 28.5 -64.5t71.5 -25.5q60 0 98.5 40.5zM346 753h74l-118 -202h-56l-118 202h74l72 -143z" />
    <glyph glyph-name="acircumflex" unicode="&#xe2;" horiz-adv-x="530" 
d="M411.5 451.5q45.5 -47.5 45.5 -144.5v-307h-79v83q-19 -43 -58 -66.5t-90 -23.5q-47 0 -86.5 19t-62.5 53t-23 75q0 55 28 85.5t92 44t178 13.5h22v33q0 61 -25 88.5t-81 27.5q-84 0 -167 -52l-27 59q38 27 91.5 43.5t103.5 16.5q93 0 138.5 -47.5zM339.5 97.5
q38.5 40.5 38.5 104.5v29h-18q-88 0 -134 -7.5t-65.5 -25t-19.5 -51.5q0 -39 28.5 -64.5t71.5 -25.5q60 0 98.5 40.5zM202 551h-74l118 202h56l118 -202h-74l-72 143z" />
    <glyph glyph-name="uni1EA5" unicode="&#x1ea5;" horiz-adv-x="530" 
d="M411.5 451.5q45.5 -47.5 45.5 -144.5v-307h-79v83q-19 -43 -58 -66.5t-90 -23.5q-47 0 -86.5 19t-62.5 53t-23 75q0 55 28 85.5t92 44t178 13.5h22v33q0 61 -25 88.5t-81 27.5q-84 0 -167 -52l-27 59q38 27 91.5 43.5t103.5 16.5q93 0 138.5 -47.5zM339.5 97.5
q38.5 40.5 38.5 104.5v29h-18q-88 0 -134 -7.5t-65.5 -25t-19.5 -51.5q0 -39 28.5 -64.5t71.5 -25.5q60 0 98.5 40.5zM408 654h-49l91 142h85zM201 551h-73l119 147h54l119 -147h-73l-73 99z" />
    <glyph glyph-name="uni1EAD" unicode="&#x1ead;" horiz-adv-x="530" 
d="M411.5 451.5q45.5 -47.5 45.5 -144.5v-307h-79v83q-19 -43 -58 -66.5t-90 -23.5q-47 0 -86.5 19t-62.5 53t-23 75q0 55 28 85.5t92 44t178 13.5h22v33q0 61 -25 88.5t-81 27.5q-84 0 -167 -52l-27 59q38 27 91.5 43.5t103.5 16.5q93 0 138.5 -47.5zM339.5 97.5
q38.5 40.5 38.5 104.5v29h-18q-88 0 -134 -7.5t-65.5 -25t-19.5 -51.5q0 -39 28.5 -64.5t71.5 -25.5q60 0 98.5 40.5zM225 -94h92v-88h-92v88zM202 551h-74l118 202h56l118 -202h-74l-72 143z" />
    <glyph glyph-name="uni1EA7" unicode="&#x1ea7;" horiz-adv-x="530" 
d="M411.5 451.5q45.5 -47.5 45.5 -144.5v-307h-79v83q-19 -43 -58 -66.5t-90 -23.5q-47 0 -86.5 19t-62.5 53t-23 75q0 55 28 85.5t92 44t178 13.5h22v33q0 61 -25 88.5t-81 27.5q-84 0 -167 -52l-27 59q38 27 91.5 43.5t103.5 16.5q93 0 138.5 -47.5zM339.5 97.5
q38.5 40.5 38.5 104.5v29h-18q-88 0 -134 -7.5t-65.5 -25t-19.5 -51.5q0 -39 28.5 -64.5t71.5 -25.5q60 0 98.5 40.5zM401 654l-112 142h85l77 -142h-50zM201 551h-73l119 147h54l119 -147h-73l-73 99z" />
    <glyph glyph-name="uni1EA9" unicode="&#x1ea9;" horiz-adv-x="530" 
d="M411.5 451.5q45.5 -47.5 45.5 -144.5v-307h-79v83q-19 -43 -58 -66.5t-90 -23.5q-47 0 -86.5 19t-62.5 53t-23 75q0 55 28 85.5t92 44t178 13.5h22v33q0 61 -25 88.5t-81 27.5q-84 0 -167 -52l-27 59q38 27 91.5 43.5t103.5 16.5q93 0 138.5 -47.5zM339.5 97.5
q38.5 40.5 38.5 104.5v29h-18q-88 0 -134 -7.5t-65.5 -25t-19.5 -51.5q0 -39 28.5 -64.5t71.5 -25.5q60 0 98.5 40.5zM411 654h-53v17q0 17 11 26.5t31 17.5q13 6 19 10t6 10q0 8 -11 13t-30 5q-29 0 -61 -12l-14 43q42 17 81 17q46 0 72.5 -17.5t26.5 -45.5q0 -18 -11 -27
t-34 -20q-16 -7 -24.5 -13t-8.5 -15v-9zM201 551h-73l119 147h54l119 -147h-73l-73 99z" />
    <glyph glyph-name="uni1EAB" unicode="&#x1eab;" horiz-adv-x="530" 
d="M411.5 451.5q45.5 -47.5 45.5 -144.5v-307h-79v83q-19 -43 -58 -66.5t-90 -23.5q-47 0 -86.5 19t-62.5 53t-23 75q0 55 28 85.5t92 44t178 13.5h22v33q0 61 -25 88.5t-81 27.5q-84 0 -167 -52l-27 59q38 27 91.5 43.5t103.5 16.5q93 0 138.5 -47.5zM339.5 97.5
q38.5 40.5 38.5 104.5v29h-18q-88 0 -134 -7.5t-65.5 -25t-19.5 -51.5q0 -39 28.5 -64.5t71.5 -25.5q60 0 98.5 40.5zM138 784q25 28 64 28q21 0 40 -6.5t44 -18.5q15 -7 30.5 -12.5t27.5 -5.5q21 0 33.5 13t12.5 31h45q0 -43 -24.5 -70.5t-64.5 -27.5q-21 0 -40 6.5
t-44 18.5q-15 7 -30.5 12.5t-27.5 5.5q-21 0 -33.5 -13.5t-12.5 -31.5h-45q0 43 25 71zM201 551h-73l119 147h54l119 -147h-73l-73 99z" />
    <glyph glyph-name="uni0201" unicode="&#x201;" horiz-adv-x="530" 
d="M411.5 451.5q45.5 -47.5 45.5 -144.5v-307h-79v83q-19 -43 -58 -66.5t-90 -23.5q-47 0 -86.5 19t-62.5 53t-23 75q0 55 28 85.5t92 44t178 13.5h22v33q0 61 -25 88.5t-81 27.5q-84 0 -167 -52l-27 59q38 27 91.5 43.5t103.5 16.5q93 0 138.5 -47.5zM339.5 97.5
q38.5 40.5 38.5 104.5v29h-18q-88 0 -134 -7.5t-65.5 -25t-19.5 -51.5q0 -39 28.5 -64.5t71.5 -25.5q60 0 98.5 40.5zM193 551l-79 202h75l45 -202h-41zM314 551l-79 202h74l46 -202h-41z" />
    <glyph glyph-name="adieresis" unicode="&#xe4;" horiz-adv-x="530" 
d="M411.5 451.5q45.5 -47.5 45.5 -144.5v-307h-79v83q-19 -43 -58 -66.5t-90 -23.5q-47 0 -86.5 19t-62.5 53t-23 75q0 55 28 85.5t92 44t178 13.5h22v33q0 61 -25 88.5t-81 27.5q-84 0 -167 -52l-27 59q38 27 91.5 43.5t103.5 16.5q93 0 138.5 -47.5zM339.5 97.5
q38.5 40.5 38.5 104.5v29h-18q-88 0 -134 -7.5t-65.5 -25t-19.5 -51.5q0 -39 28.5 -64.5t71.5 -25.5q60 0 98.5 40.5zM144 695h89v-85h-89v85zM315 695h89v-85h-89v85z" />
    <glyph glyph-name="uni0227" unicode="&#x227;" horiz-adv-x="530" 
d="M411.5 451.5q45.5 -47.5 45.5 -144.5v-307h-79v83q-19 -43 -58 -66.5t-90 -23.5q-47 0 -86.5 19t-62.5 53t-23 75q0 55 28 85.5t92 44t178 13.5h22v33q0 61 -25 88.5t-81 27.5q-84 0 -167 -52l-27 59q38 27 91.5 43.5t103.5 16.5q93 0 138.5 -47.5zM339.5 97.5
q38.5 40.5 38.5 104.5v29h-18q-88 0 -134 -7.5t-65.5 -25t-19.5 -51.5q0 -39 28.5 -64.5t71.5 -25.5q60 0 98.5 40.5zM225 698h98v-91h-98v91z" />
    <glyph glyph-name="uni1EA1" unicode="&#x1ea1;" horiz-adv-x="530" 
d="M411.5 451.5q45.5 -47.5 45.5 -144.5v-307h-79v83q-19 -43 -58 -66.5t-90 -23.5q-47 0 -86.5 19t-62.5 53t-23 75q0 55 28 85.5t92 44t178 13.5h22v33q0 61 -25 88.5t-81 27.5q-84 0 -167 -52l-27 59q38 27 91.5 43.5t103.5 16.5q93 0 138.5 -47.5zM339.5 97.5
q38.5 40.5 38.5 104.5v29h-18q-88 0 -134 -7.5t-65.5 -25t-19.5 -51.5q0 -39 28.5 -64.5t71.5 -25.5q60 0 98.5 40.5zM225 -94h92v-88h-92v88z" />
    <glyph glyph-name="agrave" unicode="&#xe0;" horiz-adv-x="530" 
d="M411.5 451.5q45.5 -47.5 45.5 -144.5v-307h-79v83q-19 -43 -58 -66.5t-90 -23.5q-47 0 -86.5 19t-62.5 53t-23 75q0 55 28 85.5t92 44t178 13.5h22v33q0 61 -25 88.5t-81 27.5q-84 0 -167 -52l-27 59q38 27 91.5 43.5t103.5 16.5q93 0 138.5 -47.5zM339.5 97.5
q38.5 40.5 38.5 104.5v29h-18q-88 0 -134 -7.5t-65.5 -25t-19.5 -51.5q0 -39 28.5 -64.5t71.5 -25.5q60 0 98.5 40.5zM246 551l-136 202h93l99 -202h-56z" />
    <glyph glyph-name="uni1EA3" unicode="&#x1ea3;" horiz-adv-x="530" 
d="M411.5 451.5q45.5 -47.5 45.5 -144.5v-307h-79v83q-19 -43 -58 -66.5t-90 -23.5q-47 0 -86.5 19t-62.5 53t-23 75q0 55 28 85.5t92 44t178 13.5h22v33q0 61 -25 88.5t-81 27.5q-84 0 -167 -52l-27 59q38 27 91.5 43.5t103.5 16.5q93 0 138.5 -47.5zM339.5 97.5
q38.5 40.5 38.5 104.5v29h-18q-88 0 -134 -7.5t-65.5 -25t-19.5 -51.5q0 -39 28.5 -64.5t71.5 -25.5q60 0 98.5 40.5zM302 551h-52v28q0 21 10 35.5t28 30.5q14 14 19.5 21t5.5 16q0 12 -10.5 18.5t-30.5 6.5q-26 0 -58 -11l-15 44q40 17 80 17q47 0 73.5 -19.5t26.5 -49.5
q0 -23 -10.5 -37t-31.5 -30q-18 -15 -26.5 -25.5t-8.5 -27.5v-17z" />
    <glyph glyph-name="uni0203" unicode="&#x203;" horiz-adv-x="530" 
d="M411.5 451.5q45.5 -47.5 45.5 -144.5v-307h-79v83q-19 -43 -58 -66.5t-90 -23.5q-47 0 -86.5 19t-62.5 53t-23 75q0 55 28 85.5t92 44t178 13.5h22v33q0 61 -25 88.5t-81 27.5q-84 0 -167 -52l-27 59q38 27 91.5 43.5t103.5 16.5q93 0 138.5 -47.5zM339.5 97.5
q38.5 40.5 38.5 104.5v29h-18q-88 0 -134 -7.5t-65.5 -25t-19.5 -51.5q0 -39 28.5 -64.5t71.5 -25.5q60 0 98.5 40.5zM373.5 697q44.5 -31 65.5 -95l-51 -22q-41 88 -114 88t-114 -88l-51 21q20 65 64.5 96t100.5 31q55 0 99.5 -31z" />
    <glyph glyph-name="amacron" unicode="&#x101;" horiz-adv-x="530" 
d="M411.5 451.5q45.5 -47.5 45.5 -144.5v-307h-79v83q-19 -43 -58 -66.5t-90 -23.5q-47 0 -86.5 19t-62.5 53t-23 75q0 55 28 85.5t92 44t178 13.5h22v33q0 61 -25 88.5t-81 27.5q-84 0 -167 -52l-27 59q38 27 91.5 43.5t103.5 16.5q93 0 138.5 -47.5zM339.5 97.5
q38.5 40.5 38.5 104.5v29h-18q-88 0 -134 -7.5t-65.5 -25t-19.5 -51.5q0 -39 28.5 -64.5t71.5 -25.5q60 0 98.5 40.5zM124 622v61h300v-61h-300z" />
    <glyph glyph-name="aogonek" unicode="&#x105;" horiz-adv-x="530" 
d="M501 -170q-35 -23 -85 -23q-52 0 -84.5 29.5t-32.5 76.5q0 37 20.5 66t58.5 46v58q-19 -43 -58 -66.5t-90 -23.5q-47 0 -86.5 19t-62.5 53t-23 75q0 54 28 85t92 44.5t178 13.5h22v33q0 61 -25 88.5t-81 27.5q-84 0 -167 -52l-27 59q38 27 91.5 43.5t103.5 16.5
q93 0 138.5 -47.5t45.5 -144.5v-307h-6q-39 0 -64 -21.5t-25 -55.5q0 -30 17 -46.5t48 -16.5q27 0 58 17zM339.5 97.5q38.5 40.5 38.5 104.5v29h-18q-87 0 -133.5 -7.5t-66 -25.5t-19.5 -51q0 -39 28.5 -64.5t71.5 -25.5q60 0 98.5 40.5z" />
    <glyph glyph-name="aring" unicode="&#xe5;" horiz-adv-x="530" 
d="M411.5 451.5q45.5 -47.5 45.5 -144.5v-307h-79v83q-19 -43 -58 -66.5t-90 -23.5q-47 0 -86.5 19t-62.5 53t-23 75q0 55 28 85.5t92 44t178 13.5h22v33q0 61 -25 88.5t-81 27.5q-84 0 -167 -52l-27 59q38 27 91.5 43.5t103.5 16.5q93 0 138.5 -47.5zM339.5 97.5
q38.5 40.5 38.5 104.5v29h-18q-88 0 -134 -7.5t-65.5 -25t-19.5 -51.5q0 -39 28.5 -64.5t71.5 -25.5q60 0 98.5 40.5zM202.5 581.5q-29.5 28.5 -29.5 70.5t29.5 70.5t71.5 28.5t71.5 -28.5t29.5 -70.5t-29.5 -70.5t-71.5 -28.5t-71.5 28.5zM308.5 616.5q13.5 14.5 13.5 35.5
t-13.5 35.5t-34.5 14.5t-34.5 -14.5t-13.5 -35.5t13.5 -35.5t34.5 -14.5t34.5 14.5z" />
    <glyph glyph-name="aringacute" unicode="&#x1fb;" horiz-adv-x="530" 
d="M202.5 582.5q-29.5 28.5 -29.5 70.5t29.5 70.5t71.5 28.5q29 0 52 -14l75 112h89l-129 -145q14 -23 14 -52q0 -42 -29.5 -70.5t-71.5 -28.5t-71.5 28.5zM239.5 688.5q-13.5 -14.5 -13.5 -35.5t13.5 -35.5t34.5 -14.5t34.5 14.5t13.5 35.5t-13.5 35.5t-34.5 14.5
t-34.5 -14.5zM411.5 451.5q45.5 -47.5 45.5 -144.5v-307h-79v83q-19 -43 -58 -66.5t-90 -23.5q-47 0 -86.5 19t-62.5 53t-23 75q0 55 28 85.5t92 44t178 13.5h22v33q0 61 -25 88.5t-81 27.5q-84 0 -167 -52l-27 59q38 27 91.5 43.5t103.5 16.5q93 0 138.5 -47.5zM339.5 97.5
q38.5 40.5 38.5 104.5v29h-18q-88 0 -134 -7.5t-65.5 -25t-19.5 -51.5q0 -39 28.5 -64.5t71.5 -25.5q60 0 98.5 40.5z" />
    <glyph glyph-name="atilde" unicode="&#xe3;" horiz-adv-x="530" 
d="M411.5 451.5q45.5 -47.5 45.5 -144.5v-307h-79v83q-19 -43 -58 -66.5t-90 -23.5q-47 0 -86.5 19t-62.5 53t-23 75q0 55 28 85.5t92 44t178 13.5h22v33q0 61 -25 88.5t-81 27.5q-84 0 -167 -52l-27 59q38 27 91.5 43.5t103.5 16.5q93 0 138.5 -47.5zM339.5 97.5
q38.5 40.5 38.5 104.5v29h-18q-88 0 -134 -7.5t-65.5 -25t-19.5 -51.5q0 -39 28.5 -64.5t71.5 -25.5q60 0 98.5 40.5zM137.5 682q24.5 30 64.5 30q21 0 40 -8.5t44 -24.5q23 -13 34.5 -18.5t23.5 -5.5q22 0 34 15.5t12 38.5h45q0 -54 -24.5 -84t-64.5 -30q-21 0 -40 8.5
t-44 24.5q-23 13 -34.5 18.5t-23.5 5.5q-22 0 -34 -15.5t-12 -38.5h-45q0 54 24.5 84z" />
    <glyph glyph-name="ae" unicode="&#xe6;" horiz-adv-x="853" 
d="M809 231h-349q4 -85 45 -128.5t115 -43.5q81 0 154 58l27 -59q-32 -29 -81.5 -47t-99.5 -18q-74 0 -126 32t-79 92q-19 -59 -65 -91.5t-112 -32.5q-50 0 -91 19t-65 52.5t-24 75.5q0 55 28 85.5t92.5 44t179.5 13.5h23v30q0 62 -25.5 90.5t-80.5 28.5q-85 0 -170 -52
l-27 59q38 27 92 43.5t104 16.5q123 0 162 -87q29 42 73.5 64.5t98.5 22.5q94 0 147.5 -64.5t53.5 -175.5v-28zM507 396q-38 -40 -45 -113h276q-3 74 -37 113.5t-94 39.5q-62 0 -100 -40zM343 99q38 42 38 107v25h-19q-88 0 -135 -7.5t-66.5 -25.5t-19.5 -51q0 -40 29.5 -65
t75.5 -25q59 0 97 42z" />
    <glyph glyph-name="aeacute" unicode="&#x1fd;" horiz-adv-x="853" 
d="M809 231h-349q4 -85 45 -128.5t115 -43.5q81 0 154 58l27 -59q-32 -29 -81.5 -47t-99.5 -18q-74 0 -126 32t-79 92q-19 -59 -65 -91.5t-112 -32.5q-50 0 -91 19t-65 52.5t-24 75.5q0 55 28 85.5t92.5 44t179.5 13.5h23v30q0 62 -25.5 90.5t-80.5 28.5q-85 0 -170 -52
l-27 59q38 27 92 43.5t104 16.5q123 0 162 -87q29 42 73.5 64.5t98.5 22.5q94 0 147.5 -64.5t53.5 -175.5v-28zM507 396q-38 -40 -45 -113h276q-3 74 -37 113.5t-94 39.5q-62 0 -100 -40zM343 99q38 42 38 107v25h-19q-88 0 -135 -7.5t-66.5 -25.5t-19.5 -51q0 -40 29.5 -65
t75.5 -25q59 0 97 42zM449 551h-56l99 202h93z" />
    <glyph glyph-name="b" unicode="b" horiz-adv-x="582" 
d="M433 468q49 -31 76 -88t27 -132q0 -76 -27 -133.5t-76 -89.5t-113 -32q-57 0 -99.5 25t-64.5 71v-89h-81v705h81v-302q22 46 64.5 71t99.5 25q64 0 113 -31zM414 109.5q39 49.5 39 138.5q0 87 -39 135t-110 48t-109.5 -48t-38.5 -137t38.5 -137.5t109.5 -48.5t110 49.5z
" />
    <glyph glyph-name="c" unicode="c" horiz-adv-x="479" 
d="M156 24q-53 31 -81.5 87.5t-28.5 132.5t29.5 133.5t83 89.5t125.5 32q49 0 96 -17.5t76 -46.5l-27 -60q-69 56 -140 56q-75 0 -117 -49t-42 -138q0 -88 42 -136t117 -48q71 0 140 56l27 -60q-31 -29 -78 -46t-97 -17q-72 0 -125 31z" />
    <glyph glyph-name="cacute" unicode="&#x107;" horiz-adv-x="479" 
d="M156 24q-53 31 -81.5 87.5t-28.5 132.5t29.5 133.5t83 89.5t125.5 32q49 0 96 -17.5t76 -46.5l-27 -60q-69 56 -140 56q-75 0 -117 -49t-42 -138q0 -88 42 -136t117 -48q71 0 140 56l27 -60q-31 -29 -78 -46t-97 -17q-72 0 -125 31zM308 551h-56l99 202h93z" />
    <glyph glyph-name="ccaron" unicode="&#x10d;" horiz-adv-x="479" 
d="M156 24q-53 31 -81.5 87.5t-28.5 132.5t29.5 133.5t83 89.5t125.5 32q49 0 96 -17.5t76 -46.5l-27 -60q-69 56 -140 56q-75 0 -117 -49t-42 -138q0 -88 42 -136t117 -48q71 0 140 56l27 -60q-31 -29 -78 -46t-97 -17q-72 0 -125 31zM352 753h74l-118 -202h-56l-118 202
h74l72 -143z" />
    <glyph glyph-name="ccedilla" unicode="&#xe7;" horiz-adv-x="479" 
d="M384 12q-43 -17 -90 -19l-4 -36q16 2 24 2q32 0 54 -17.5t22 -51.5q0 -36 -30.5 -59.5t-85.5 -23.5q-21 0 -45.5 5t-42.5 14l13 43q36 -14 76 -14q27 0 41 9t14 26q0 13 -9 20t-26 7q-22 0 -45 -9l-20 16l8 72q-89 14 -140.5 80t-51.5 168q0 76 29.5 133.5t83 89.5
t125.5 32q49 0 96 -17.5t76 -46.5l-27 -60q-69 56 -140 56q-75 0 -117 -49t-42 -138q0 -88 42 -136t117 -48q71 0 140 56l27 -60q-29 -27 -72 -44z" />
    <glyph glyph-name="uni1E09" unicode="&#x1e09;" horiz-adv-x="479" 
d="M444 753l-136 -202h-56l99 202h93zM384 12q-43 -17 -90 -19l-4 -36q16 2 24 2q32 0 54 -17.5t22 -51.5q0 -36 -30.5 -59.5t-85.5 -23.5q-21 0 -45.5 5t-42.5 14l13 43q36 -14 76 -14q27 0 41 9t14 26q0 13 -9 20t-26 7q-22 0 -45 -9l-20 16l8 72q-89 14 -140.5 80
t-51.5 168q0 76 29.5 133.5t83 89.5t125.5 32q49 0 96 -17.5t76 -46.5l-27 -60q-69 56 -140 56q-75 0 -117 -49t-42 -138q0 -88 42 -136t117 -48q71 0 140 56l27 -60q-29 -27 -72 -44z" />
    <glyph glyph-name="ccircumflex" unicode="&#x109;" horiz-adv-x="479" 
d="M156 24q-53 31 -81.5 87.5t-28.5 132.5t29.5 133.5t83 89.5t125.5 32q49 0 96 -17.5t76 -46.5l-27 -60q-69 56 -140 56q-75 0 -117 -49t-42 -138q0 -88 42 -136t117 -48q71 0 140 56l27 -60q-31 -29 -78 -46t-97 -17q-72 0 -125 31zM208 551h-74l118 202h56l118 -202h-74
l-72 143z" />
    <glyph glyph-name="cdotaccent" unicode="&#x10b;" horiz-adv-x="479" 
d="M156 24q-53 31 -81.5 87.5t-28.5 132.5t29.5 133.5t83 89.5t125.5 32q49 0 96 -17.5t76 -46.5l-27 -60q-69 56 -140 56q-75 0 -117 -49t-42 -138q0 -88 42 -136t117 -48q71 0 140 56l27 -60q-31 -29 -78 -46t-97 -17q-72 0 -125 31zM231 698h98v-91h-98v91z" />
    <glyph glyph-name="d" unicode="d" horiz-adv-x="582" 
d="M507 705v-705h-81v89q-22 -46 -64.5 -71t-99.5 -25q-64 0 -113 32t-76 89.5t-27 133.5q0 75 27 132t76 88t113 31q57 0 99.5 -25t64.5 -71v302h81zM387.5 108.5q38.5 48.5 38.5 137.5t-38.5 137t-109.5 48t-110.5 -48t-39.5 -135q0 -89 39.5 -138.5t110.5 -49.5
t109.5 48.5z" />
    <glyph glyph-name="eth" unicode="&#xf0;" horiz-adv-x="559" 
d="M487 448q26 -74 26 -160q0 -145 -61 -220t-177 -75q-68 0 -120 28.5t-80.5 81t-28.5 121.5t28.5 121t79.5 81t118 29q104 0 156 -70q-21 101 -89 169l-161 -58l-17 51l130 46q-57 40 -134 60l20 59q113 -28 189 -92l128 46l16 -51l-100 -36q51 -57 77 -131zM386.5 103.5
q39.5 43.5 39.5 120.5q0 79 -39 122t-110 43t-110 -43t-39 -122t39 -121.5t110 -42.5q70 0 109.5 43.5z" />
    <glyph glyph-name="dcaron" unicode="&#x10f;" horiz-adv-x="582" 
d="M426 705h81v-705h-81v89q-22 -46 -64.5 -71t-99.5 -25q-64 0 -113 32t-76 89.5t-27 133.5q0 75 27 132t76 88t113 31q57 0 99.5 -25t64.5 -71v302zM540 705h64l-26 -190h-38v190zM387.5 108.5q38.5 48.5 38.5 137.5t-38.5 137t-109.5 48t-110.5 -48t-39.5 -135
q0 -89 39.5 -138.5t110.5 -49.5t109.5 48.5z" />
    <glyph glyph-name="dcroat" unicode="&#x111;" horiz-adv-x="582" 
d="M599 555h-92v-555h-81v89q-22 -46 -64.5 -71t-99.5 -25q-64 0 -113 32t-76 89.5t-27 133.5q0 75 27 132t76 88t113 31q57 0 99.5 -25t64.5 -71v152h-193v61h193v89h81v-89h92v-61zM387.5 108.5q38.5 48.5 38.5 137.5t-38.5 137t-109.5 48t-110.5 -48t-39.5 -135
q0 -89 39.5 -138.5t110.5 -49.5t109.5 48.5z" />
    <glyph glyph-name="uni1E0D" unicode="&#x1e0d;" horiz-adv-x="582" 
d="M507 705v-705h-81v89q-22 -46 -64.5 -71t-99.5 -25q-64 0 -113 32t-76 89.5t-27 133.5q0 75 27 132t76 88t113 31q57 0 99.5 -25t64.5 -71v302h81zM387.5 108.5q38.5 48.5 38.5 137.5t-38.5 137t-109.5 48t-110.5 -48t-39.5 -135q0 -89 39.5 -138.5t110.5 -49.5
t109.5 48.5zM247 -94h92v-88h-92v88z" />
    <glyph glyph-name="uni1E0F" unicode="&#x1e0f;" horiz-adv-x="582" 
d="M507 705v-705h-81v89q-22 -46 -64.5 -71t-99.5 -25q-64 0 -113 32t-76 89.5t-27 133.5q0 75 27 132t76 88t113 31q57 0 99.5 -25t64.5 -71v302h81zM387.5 108.5q38.5 48.5 38.5 137.5t-38.5 137t-109.5 48t-110.5 -48t-39.5 -135q0 -89 39.5 -138.5t110.5 -49.5
t109.5 48.5zM143 -168v59h300v-59h-300z" />
    <glyph glyph-name="uni01C6" unicode="&#x1c6;" horiz-adv-x="1085" 
d="M507 705v-705h-81v89q-22 -46 -64.5 -71t-99.5 -25q-64 0 -113 32t-76 89.5t-27 133.5q0 75 27 132t76 88t113 31q57 0 99.5 -25t64.5 -71v302h81zM387.5 108.5q38.5 48.5 38.5 137.5t-38.5 137t-109.5 48t-110.5 -48t-39.5 -135q0 -89 39.5 -138.5t110.5 -49.5
t109.5 48.5zM730 64h313v-64h-413v56l304 367h-294v64h392v-59zM910 753h74l-118 -202h-56l-118 202h74l72 -143z" />
    <glyph glyph-name="e" unicode="e" horiz-adv-x="527" 
d="M483 231h-356q4 -85 46 -128.5t119 -43.5q85 0 156 58l27 -59q-32 -30 -82 -47.5t-102 -17.5q-114 0 -179.5 67t-65.5 185q0 75 29 132.5t81.5 89.5t119.5 32q97 0 152 -63.5t55 -174.5v-30zM174.5 396q-38.5 -40 -45.5 -113h283q-2 74 -37 113.5t-98 39.5
q-64 0 -102.5 -40z" />
    <glyph glyph-name="eacute" unicode="&#xe9;" horiz-adv-x="527" 
d="M483 231h-356q4 -85 46 -128.5t119 -43.5q85 0 156 58l27 -59q-32 -30 -82 -47.5t-102 -17.5q-114 0 -179.5 67t-65.5 185q0 75 29 132.5t81.5 89.5t119.5 32q97 0 152 -63.5t55 -174.5v-30zM174.5 396q-38.5 -40 -45.5 -113h283q-2 74 -37 113.5t-98 39.5
q-64 0 -102.5 -40zM304 551h-56l99 202h93z" />
    <glyph glyph-name="ebreve" unicode="&#x115;" horiz-adv-x="527" 
d="M483 231h-356q4 -85 46 -128.5t119 -43.5q85 0 156 58l27 -59q-32 -30 -82 -47.5t-102 -17.5q-114 0 -179.5 67t-65.5 185q0 75 29 132.5t81.5 89.5t119.5 32q97 0 152 -63.5t55 -174.5v-30zM174.5 396q-38.5 -40 -45.5 -113h283q-2 74 -37 113.5t-98 39.5
q-64 0 -102.5 -40zM176.5 612q-44.5 31 -65.5 96l51 21q41 -88 114 -88t114 88l51 -21q-20 -65 -64.5 -96t-100.5 -31q-55 0 -99.5 31z" />
    <glyph glyph-name="ecaron" unicode="&#x11b;" horiz-adv-x="527" 
d="M483 231h-356q4 -85 46 -128.5t119 -43.5q85 0 156 58l27 -59q-32 -30 -82 -47.5t-102 -17.5q-114 0 -179.5 67t-65.5 185q0 75 29 132.5t81.5 89.5t119.5 32q97 0 152 -63.5t55 -174.5v-30zM174.5 396q-38.5 -40 -45.5 -113h283q-2 74 -37 113.5t-98 39.5
q-64 0 -102.5 -40zM348 753h74l-118 -202h-56l-118 202h74l72 -143z" />
    <glyph glyph-name="uni1E1D" unicode="&#x1e1d;" horiz-adv-x="527" 
d="M176.5 612q-44.5 31 -65.5 96l51 21q41 -88 114 -88t114 88l51 -21q-20 -65 -64.5 -96t-100.5 -31q-55 0 -99.5 31zM483 231h-356q4 -85 46 -128.5t119 -43.5q85 0 156 58l27 -59q-29 -28 -74 -45t-93 -19l-4 -37q16 2 24 2q32 0 54 -17.5t22 -51.5q0 -36 -30.5 -59.5
t-85.5 -23.5q-20 0 -45 5t-43 14l13 43q36 -14 76 -14q27 0 41 9t14 26q0 13 -9 20t-26 7q-22 0 -45 -9l-20 16l8 71q-97 11 -151.5 77t-54.5 173q0 75 29 132.5t81.5 89.5t119.5 32q97 0 152 -63.5t55 -174.5v-30zM174.5 396q-38.5 -40 -45.5 -113h283q-2 74 -37 113.5
t-98 39.5q-64 0 -102.5 -40z" />
    <glyph glyph-name="ecircumflex" unicode="&#xea;" horiz-adv-x="527" 
d="M483 231h-356q4 -85 46 -128.5t119 -43.5q85 0 156 58l27 -59q-32 -30 -82 -47.5t-102 -17.5q-114 0 -179.5 67t-65.5 185q0 75 29 132.5t81.5 89.5t119.5 32q97 0 152 -63.5t55 -174.5v-30zM174.5 396q-38.5 -40 -45.5 -113h283q-2 74 -37 113.5t-98 39.5
q-64 0 -102.5 -40zM204 551h-74l118 202h56l118 -202h-74l-72 143z" />
    <glyph glyph-name="uni1EBF" unicode="&#x1ebf;" horiz-adv-x="527" 
d="M483 231h-356q4 -85 46 -128.5t119 -43.5q85 0 156 58l27 -59q-32 -30 -82 -47.5t-102 -17.5q-114 0 -179.5 67t-65.5 185q0 75 29 132.5t81.5 89.5t119.5 32q97 0 152 -63.5t55 -174.5v-30zM174.5 396q-38.5 -40 -45.5 -113h283q-2 74 -37 113.5t-98 39.5
q-64 0 -102.5 -40zM410 654h-49l91 142h85zM203 551h-73l119 147h54l119 -147h-73l-73 99z" />
    <glyph glyph-name="uni1EC7" unicode="&#x1ec7;" horiz-adv-x="527" 
d="M483 231h-356q4 -85 46 -128.5t119 -43.5q85 0 156 58l27 -59q-32 -30 -82 -47.5t-102 -17.5q-114 0 -179.5 67t-65.5 185q0 75 29 132.5t81.5 89.5t119.5 32q97 0 152 -63.5t55 -174.5v-30zM174.5 396q-38.5 -40 -45.5 -113h283q-2 74 -37 113.5t-98 39.5
q-64 0 -102.5 -40zM244 -94h92v-88h-92v88zM204 551h-74l118 202h56l118 -202h-74l-72 143z" />
    <glyph glyph-name="uni1EC1" unicode="&#x1ec1;" horiz-adv-x="527" 
d="M483 231h-356q4 -85 46 -128.5t119 -43.5q85 0 156 58l27 -59q-32 -30 -82 -47.5t-102 -17.5q-114 0 -179.5 67t-65.5 185q0 75 29 132.5t81.5 89.5t119.5 32q97 0 152 -63.5t55 -174.5v-30zM174.5 396q-38.5 -40 -45.5 -113h283q-2 74 -37 113.5t-98 39.5
q-64 0 -102.5 -40zM403 654l-112 142h85l77 -142h-50zM203 551h-73l119 147h54l119 -147h-73l-73 99z" />
    <glyph glyph-name="uni1EC3" unicode="&#x1ec3;" horiz-adv-x="527" 
d="M483 231h-356q4 -85 46 -128.5t119 -43.5q85 0 156 58l27 -59q-32 -30 -82 -47.5t-102 -17.5q-114 0 -179.5 67t-65.5 185q0 75 29 132.5t81.5 89.5t119.5 32q97 0 152 -63.5t55 -174.5v-30zM174.5 396q-38.5 -40 -45.5 -113h283q-2 74 -37 113.5t-98 39.5
q-64 0 -102.5 -40zM413 654h-53v17q0 17 11 26.5t31 17.5q13 6 19 10t6 10q0 8 -11 13t-30 5q-29 0 -61 -12l-14 43q42 17 81 17q46 0 72.5 -17.5t26.5 -45.5q0 -18 -11 -27t-34 -20q-16 -7 -24.5 -13t-8.5 -15v-9zM203 551h-73l119 147h54l119 -147h-73l-73 99z" />
    <glyph glyph-name="uni1EC5" unicode="&#x1ec5;" horiz-adv-x="527" 
d="M483 231h-356q4 -85 46 -128.5t119 -43.5q85 0 156 58l27 -59q-32 -30 -82 -47.5t-102 -17.5q-114 0 -179.5 67t-65.5 185q0 75 29 132.5t81.5 89.5t119.5 32q97 0 152 -63.5t55 -174.5v-30zM174.5 396q-38.5 -40 -45.5 -113h283q-2 74 -37 113.5t-98 39.5
q-64 0 -102.5 -40zM140 784q25 28 64 28q21 0 40 -6.5t44 -18.5q15 -7 30.5 -12.5t27.5 -5.5q21 0 33.5 13t12.5 31h45q0 -43 -24.5 -70.5t-64.5 -27.5q-21 0 -40 6.5t-44 18.5q-15 7 -30.5 12.5t-27.5 5.5q-21 0 -33.5 -13.5t-12.5 -31.5h-45q0 43 25 71zM203 551h-73
l119 147h54l119 -147h-73l-73 99z" />
    <glyph glyph-name="uni0205" unicode="&#x205;" horiz-adv-x="527" 
d="M483 231h-356q4 -85 46 -128.5t119 -43.5q85 0 156 58l27 -59q-32 -30 -82 -47.5t-102 -17.5q-114 0 -179.5 67t-65.5 185q0 75 29 132.5t81.5 89.5t119.5 32q97 0 152 -63.5t55 -174.5v-30zM174.5 396q-38.5 -40 -45.5 -113h283q-2 74 -37 113.5t-98 39.5
q-64 0 -102.5 -40zM195 551l-79 202h75l45 -202h-41zM316 551l-79 202h74l46 -202h-41z" />
    <glyph glyph-name="edieresis" unicode="&#xeb;" horiz-adv-x="527" 
d="M483 231h-356q4 -85 46 -128.5t119 -43.5q85 0 156 58l27 -59q-32 -30 -82 -47.5t-102 -17.5q-114 0 -179.5 67t-65.5 185q0 75 29 132.5t81.5 89.5t119.5 32q97 0 152 -63.5t55 -174.5v-30zM174.5 396q-38.5 -40 -45.5 -113h283q-2 74 -37 113.5t-98 39.5
q-64 0 -102.5 -40zM146 695h89v-85h-89v85zM317 695h89v-85h-89v85z" />
    <glyph glyph-name="edotaccent" unicode="&#x117;" horiz-adv-x="527" 
d="M483 231h-356q4 -85 46 -128.5t119 -43.5q85 0 156 58l27 -59q-32 -30 -82 -47.5t-102 -17.5q-114 0 -179.5 67t-65.5 185q0 75 29 132.5t81.5 89.5t119.5 32q97 0 152 -63.5t55 -174.5v-30zM174.5 396q-38.5 -40 -45.5 -113h283q-2 74 -37 113.5t-98 39.5
q-64 0 -102.5 -40zM227 698h98v-91h-98v91z" />
    <glyph glyph-name="uni1EB9" unicode="&#x1eb9;" horiz-adv-x="527" 
d="M483 231h-356q4 -85 46 -128.5t119 -43.5q85 0 156 58l27 -59q-32 -30 -82 -47.5t-102 -17.5q-114 0 -179.5 67t-65.5 185q0 75 29 132.5t81.5 89.5t119.5 32q97 0 152 -63.5t55 -174.5v-30zM174.5 396q-38.5 -40 -45.5 -113h283q-2 74 -37 113.5t-98 39.5
q-64 0 -102.5 -40zM244 -94h92v-88h-92v88z" />
    <glyph glyph-name="egrave" unicode="&#xe8;" horiz-adv-x="527" 
d="M483 231h-356q4 -85 46 -128.5t119 -43.5q85 0 156 58l27 -59q-32 -30 -82 -47.5t-102 -17.5q-114 0 -179.5 67t-65.5 185q0 75 29 132.5t81.5 89.5t119.5 32q97 0 152 -63.5t55 -174.5v-30zM174.5 396q-38.5 -40 -45.5 -113h283q-2 74 -37 113.5t-98 39.5
q-64 0 -102.5 -40zM248 551l-136 202h93l99 -202h-56z" />
    <glyph glyph-name="uni1EBB" unicode="&#x1ebb;" horiz-adv-x="527" 
d="M483 231h-356q4 -85 46 -128.5t119 -43.5q85 0 156 58l27 -59q-32 -30 -82 -47.5t-102 -17.5q-114 0 -179.5 67t-65.5 185q0 75 29 132.5t81.5 89.5t119.5 32q97 0 152 -63.5t55 -174.5v-30zM174.5 396q-38.5 -40 -45.5 -113h283q-2 74 -37 113.5t-98 39.5
q-64 0 -102.5 -40zM304 551h-52v28q0 21 10 35.5t28 30.5q14 14 19.5 21t5.5 16q0 12 -10.5 18.5t-30.5 6.5q-26 0 -58 -11l-15 44q40 17 80 17q47 0 73.5 -19.5t26.5 -49.5q0 -23 -10.5 -37t-31.5 -30q-18 -15 -26.5 -25.5t-8.5 -27.5v-17z" />
    <glyph glyph-name="uni0207" unicode="&#x207;" horiz-adv-x="527" 
d="M483 231h-356q4 -85 46 -128.5t119 -43.5q85 0 156 58l27 -59q-32 -30 -82 -47.5t-102 -17.5q-114 0 -179.5 67t-65.5 185q0 75 29 132.5t81.5 89.5t119.5 32q97 0 152 -63.5t55 -174.5v-30zM174.5 396q-38.5 -40 -45.5 -113h283q-2 74 -37 113.5t-98 39.5
q-64 0 -102.5 -40zM375.5 697q44.5 -31 65.5 -95l-51 -22q-41 88 -114 88t-114 -88l-51 21q20 65 64.5 96t100.5 31q55 0 99.5 -31z" />
    <glyph glyph-name="emacron" unicode="&#x113;" horiz-adv-x="527" 
d="M483 231h-356q4 -85 46 -128.5t119 -43.5q85 0 156 58l27 -59q-32 -30 -82 -47.5t-102 -17.5q-114 0 -179.5 67t-65.5 185q0 75 29 132.5t81.5 89.5t119.5 32q97 0 152 -63.5t55 -174.5v-30zM174.5 396q-38.5 -40 -45.5 -113h283q-2 74 -37 113.5t-98 39.5
q-64 0 -102.5 -40zM126 622v61h300v-61h-300z" />
    <glyph glyph-name="uni1E17" unicode="&#x1e17;" horiz-adv-x="527" 
d="M483 231h-356q4 -85 46 -128.5t119 -43.5q85 0 156 58l27 -59q-32 -30 -82 -47.5t-102 -17.5q-114 0 -179.5 67t-65.5 185q0 75 29 132.5t81.5 89.5t119.5 32q97 0 152 -63.5t55 -174.5v-30zM174.5 396q-38.5 -40 -45.5 -113h283q-2 74 -37 113.5t-98 39.5
q-64 0 -102.5 -40zM126 622v61h300v-61h-300zM304 744h-56l99 202h93z" />
    <glyph glyph-name="uni1E15" unicode="&#x1e15;" horiz-adv-x="527" 
d="M483 231h-356q4 -85 46 -128.5t119 -43.5q85 0 156 58l27 -59q-32 -30 -82 -47.5t-102 -17.5q-114 0 -179.5 67t-65.5 185q0 75 29 132.5t81.5 89.5t119.5 32q97 0 152 -63.5t55 -174.5v-30zM174.5 396q-38.5 -40 -45.5 -113h283q-2 74 -37 113.5t-98 39.5
q-64 0 -102.5 -40zM126 622v61h300v-61h-300zM248 744l-136 202h93l99 -202h-56z" />
    <glyph glyph-name="eogonek" unicode="&#x119;" horiz-adv-x="527" 
d="M483 231h-356q4 -85 46 -128.5t119 -43.5q85 0 156 58l27 -58q-7 -7 -18.5 -15t-32.5 -19q-48 -27 -68 -50t-20 -52q0 -30 17 -46.5t48 -16.5q26 0 58 17l16 -47q-35 -23 -85 -23q-52 0 -84.5 29t-32.5 76q0 49 35 82q-5 -1 -17 -1q-114 0 -179.5 67t-65.5 185
q0 75 29 132.5t81.5 89.5t119.5 32q97 0 152 -63.5t55 -174.5v-30zM174.5 396q-38.5 -40 -45.5 -113h283q-2 74 -37 113.5t-98 39.5q-64 0 -102.5 -40z" />
    <glyph glyph-name="uni1EBD" unicode="&#x1ebd;" horiz-adv-x="527" 
d="M483 231h-356q4 -85 46 -128.5t119 -43.5q85 0 156 58l27 -59q-32 -30 -82 -47.5t-102 -17.5q-114 0 -179.5 67t-65.5 185q0 75 29 132.5t81.5 89.5t119.5 32q97 0 152 -63.5t55 -174.5v-30zM174.5 396q-38.5 -40 -45.5 -113h283q-2 74 -37 113.5t-98 39.5
q-64 0 -102.5 -40zM139.5 682q24.5 30 64.5 30q21 0 40 -8.5t44 -24.5q23 -13 34.5 -18.5t23.5 -5.5q22 0 34 15.5t12 38.5h45q0 -54 -24.5 -84t-64.5 -30q-21 0 -40 8.5t-44 24.5q-23 13 -34.5 18.5t-23.5 5.5q-22 0 -34 -15.5t-12 -38.5h-45q0 54 24.5 84z" />
    <glyph glyph-name="uni0259" unicode="&#x259;" horiz-adv-x="527" 
d="M417.5 431.5q64.5 -67.5 64.5 -184.5q0 -77 -28 -134.5t-78.5 -88.5t-117.5 -31q-101 0 -157.5 63t-56.5 176v29h357q-4 84 -45.5 127.5t-115.5 43.5q-80 0 -161 -58l-27 59q36 31 87.5 48.5t102.5 17.5q111 0 175.5 -67.5zM356.5 95q37.5 40 44.5 114h-283
q3 -75 38.5 -114.5t99.5 -39.5q63 0 100.5 40z" />
    <glyph glyph-name="f" unicode="f" horiz-adv-x="328" 
d="M183 487h138v-64h-138v-423h-81v423h-95v64h95v16q0 97 48.5 147t149.5 56l40 2l6 -63l-46 -3q-61 -4 -89 -34.5t-28 -93.5v-27z" />
    <glyph glyph-name="g" unicode="g" horiz-adv-x="586" 
d="M511 487v-454q0 -109 -56 -164.5t-166 -55.5q-128 0 -215 66l27 60q49 -32 92 -46t96 -14q70 0 106 37.5t36 109.5v86q-21 -47 -64.5 -72t-102.5 -25q-64 0 -113.5 30t-77 85t-27.5 127t27.5 127t77 85t113.5 30q58 0 101 -25t65 -71v84h81zM390 128.5q40 46.5 40 128.5
q0 81 -39.5 127.5t-110.5 46.5t-111.5 -46.5t-40.5 -127.5q0 -82 40.5 -128.5t111.5 -46.5q70 0 110 46.5z" />
    <glyph glyph-name="gbreve" unicode="&#x11f;" horiz-adv-x="586" 
d="M511 487v-454q0 -109 -56 -164.5t-166 -55.5q-128 0 -215 66l27 60q49 -32 92 -46t96 -14q70 0 106 37.5t36 109.5v86q-21 -47 -64.5 -72t-102.5 -25q-64 0 -113.5 30t-77 85t-27.5 127t27.5 127t77 85t113.5 30q58 0 101 -25t65 -71v84h81zM390 128.5q40 46.5 40 128.5
q0 81 -39.5 127.5t-110.5 46.5t-111.5 -46.5t-40.5 -127.5q0 -82 40.5 -128.5t111.5 -46.5q70 0 110 46.5zM195.5 612q-44.5 31 -65.5 96l51 21q41 -88 114 -88t114 88l51 -21q-20 -65 -64.5 -96t-100.5 -31q-55 0 -99.5 31z" />
    <glyph glyph-name="gcaron" unicode="&#x1e7;" horiz-adv-x="586" 
d="M511 487v-454q0 -109 -56 -164.5t-166 -55.5q-128 0 -215 66l27 60q49 -32 92 -46t96 -14q70 0 106 37.5t36 109.5v86q-21 -47 -64.5 -72t-102.5 -25q-64 0 -113.5 30t-77 85t-27.5 127t27.5 127t77 85t113.5 30q58 0 101 -25t65 -71v84h81zM390 128.5q40 46.5 40 128.5
q0 81 -39.5 127.5t-110.5 46.5t-111.5 -46.5t-40.5 -127.5q0 -82 40.5 -128.5t111.5 -46.5q70 0 110 46.5zM367 753h74l-118 -202h-56l-118 202h74l72 -143z" />
    <glyph glyph-name="gcircumflex" unicode="&#x11d;" horiz-adv-x="586" 
d="M511 487v-454q0 -109 -56 -164.5t-166 -55.5q-128 0 -215 66l27 60q49 -32 92 -46t96 -14q70 0 106 37.5t36 109.5v86q-21 -47 -64.5 -72t-102.5 -25q-64 0 -113.5 30t-77 85t-27.5 127t27.5 127t77 85t113.5 30q58 0 101 -25t65 -71v84h81zM390 128.5q40 46.5 40 128.5
q0 81 -39.5 127.5t-110.5 46.5t-111.5 -46.5t-40.5 -127.5q0 -82 40.5 -128.5t111.5 -46.5q70 0 110 46.5zM223 551h-74l118 202h56l118 -202h-74l-72 143z" />
    <glyph glyph-name="gcommaaccent" unicode="&#x123;" horiz-adv-x="586" 
d="M511 487v-454q0 -109 -56 -164.5t-166 -55.5q-128 0 -215 66l27 60q49 -32 92 -46t96 -14q70 0 106 37.5t36 109.5v86q-21 -47 -64.5 -72t-102.5 -25q-64 0 -113.5 30t-77 85t-27.5 127t27.5 127t77 85t113.5 30q58 0 101 -25t65 -71v84h81zM390 128.5q40 46.5 40 128.5
q0 81 -39.5 127.5t-110.5 46.5t-111.5 -46.5t-40.5 -127.5q0 -82 40.5 -128.5t111.5 -46.5q70 0 110 46.5zM344 663v-83h-98v58q0 40 11.5 71t39.5 58l36 -27q-18 -19 -26 -37.5t-10 -39.5h47z" />
    <glyph glyph-name="gdotaccent" unicode="&#x121;" horiz-adv-x="586" 
d="M511 487v-454q0 -109 -56 -164.5t-166 -55.5q-128 0 -215 66l27 60q49 -32 92 -46t96 -14q70 0 106 37.5t36 109.5v86q-21 -47 -64.5 -72t-102.5 -25q-64 0 -113.5 30t-77 85t-27.5 127t27.5 127t77 85t113.5 30q58 0 101 -25t65 -71v84h81zM390 128.5q40 46.5 40 128.5
q0 81 -39.5 127.5t-110.5 46.5t-111.5 -46.5t-40.5 -127.5q0 -82 40.5 -128.5t111.5 -46.5q70 0 110 46.5zM246 698h98v-91h-98v91z" />
    <glyph glyph-name="uni1E21" unicode="&#x1e21;" horiz-adv-x="586" 
d="M511 487v-454q0 -109 -56 -164.5t-166 -55.5q-128 0 -215 66l27 60q49 -32 92 -46t96 -14q70 0 106 37.5t36 109.5v86q-21 -47 -64.5 -72t-102.5 -25q-64 0 -113.5 30t-77 85t-27.5 127t27.5 127t77 85t113.5 30q58 0 101 -25t65 -71v84h81zM390 128.5q40 46.5 40 128.5
q0 81 -39.5 127.5t-110.5 46.5t-111.5 -46.5t-40.5 -127.5q0 -82 40.5 -128.5t111.5 -46.5q70 0 110 46.5zM145 622v61h300v-61h-300z" />
    <glyph glyph-name="h" unicode="h" horiz-adv-x="568" 
d="M495 306v-306h-81v301q0 68 -26.5 99t-84.5 31q-67 0 -107 -41t-40 -111v-279h-81v705h81v-296q24 44 66.5 67t97.5 23q175 0 175 -193z" />
    <glyph glyph-name="hbar" unicode="&#x127;" horiz-adv-x="568" 
d="M495 306v-306h-81v301q0 68 -26.5 99t-84.5 31q-67 0 -107 -41t-40 -111v-279h-81v555h-92v61h92v89h81v-89h193v-61h-193v-146q24 44 66.5 67t97.5 23q175 0 175 -193z" />
    <glyph glyph-name="uni1E2B" unicode="&#x1e2b;" horiz-adv-x="568" 
d="M495 306v-306h-81v301q0 68 -26.5 99t-84.5 31q-67 0 -107 -41t-40 -111v-279h-81v705h81v-296q24 44 66.5 67t97.5 23q175 0 175 -193zM185.5 -180q-44.5 31 -65.5 95l51 22q22 -47 50 -68t64 -21t64 21t50 68l51 -21q-20 -65 -64.5 -96t-100.5 -31q-55 0 -99.5 31z" />
    <glyph glyph-name="hcircumflex" unicode="&#x125;" horiz-adv-x="568" 
d="M495 306v-306h-81v301q0 68 -26.5 99t-84.5 31q-67 0 -107 -41t-40 -111v-279h-81v705h81v-296q24 44 66.5 67t97.5 23q175 0 175 -193zM43 765h-73l119 152h54l119 -152h-73l-73 103z" />
    <glyph glyph-name="uni1E25" unicode="&#x1e25;" horiz-adv-x="568" 
d="M495 306v-306h-81v301q0 68 -26.5 99t-84.5 31q-67 0 -107 -41t-40 -111v-279h-81v705h81v-296q24 44 66.5 67t97.5 23q175 0 175 -193zM239 -94h92v-88h-92v88z" />
    <glyph glyph-name="i" unicode="i" horiz-adv-x="232" 
d="M75 0v487h81v-487h-81zM67 698h98v-91h-98v91z" />
    <glyph glyph-name="dotlessi" unicode="&#x131;" horiz-adv-x="232" 
d="M75 0v487h81v-487h-81z" />
    <glyph glyph-name="iacute" unicode="&#xed;" horiz-adv-x="232" 
d="M75 0v487h81v-487h-81zM144 551h-56l99 202h93z" />
    <glyph glyph-name="ibreve" unicode="&#x12d;" horiz-adv-x="232" 
d="M75 0v487h81v-487h-81zM16.5 612q-44.5 31 -65.5 96l51 21q41 -88 114 -88t114 88l51 -21q-20 -65 -64.5 -96t-100.5 -31q-55 0 -99.5 31z" />
    <glyph glyph-name="icircumflex" unicode="&#xee;" horiz-adv-x="232" 
d="M75 0v487h81v-487h-81zM44 551h-74l118 202h56l118 -202h-74l-72 143z" />
    <glyph glyph-name="uni0209" unicode="&#x209;" horiz-adv-x="232" 
d="M75 0v487h81v-487h-81zM35 551l-79 202h75l45 -202h-41zM156 551l-79 202h74l46 -202h-41z" />
    <glyph glyph-name="idieresis" unicode="&#xef;" horiz-adv-x="232" 
d="M75 0v487h81v-487h-81zM-14 695h89v-85h-89v85zM157 695h89v-85h-89v85z" />
    <glyph glyph-name="uni1E2F" unicode="&#x1e2f;" horiz-adv-x="232" 
d="M75 0v487h81v-487h-81zM-14 695h89v-85h-89v85zM157 695h89v-85h-89v85zM144 744h-56l99 202h93z" />
    <glyph glyph-name="i.loclTRK" horiz-adv-x="232" 
d="M75 0v487h81v-487h-81zM67 698h98v-91h-98v91z" />
    <glyph glyph-name="uni1ECB" unicode="&#x1ecb;" horiz-adv-x="232" 
d="M75 0v487h81v-487h-81zM67 698h98v-91h-98v91zM69 -94h92v-88h-92v88z" />
    <glyph glyph-name="igrave" unicode="&#xec;" horiz-adv-x="232" 
d="M75 0v487h81v-487h-81zM88 551l-136 202h93l99 -202h-56z" />
    <glyph glyph-name="uni1EC9" unicode="&#x1ec9;" horiz-adv-x="232" 
d="M75 0v487h81v-487h-81zM144 551h-52v28q0 21 10 35.5t28 30.5q14 14 19.5 21t5.5 16q0 12 -10.5 18.5t-30.5 6.5q-26 0 -58 -11l-15 44q40 17 80 17q47 0 73.5 -19.5t26.5 -49.5q0 -23 -10.5 -37t-31.5 -30q-18 -15 -26.5 -25.5t-8.5 -27.5v-17z" />
    <glyph glyph-name="uni020B" unicode="&#x20b;" horiz-adv-x="232" 
d="M75 0v487h81v-487h-81zM215.5 697q44.5 -31 65.5 -95l-51 -22q-41 88 -114 88t-114 -88l-51 21q20 65 64.5 96t100.5 31q55 0 99.5 -31z" />
    <glyph glyph-name="imacron" unicode="&#x12b;" horiz-adv-x="232" 
d="M75 0v487h81v-487h-81zM-34 622v61h300v-61h-300z" />
    <glyph glyph-name="iogonek" unicode="&#x12f;" horiz-adv-x="232" 
d="M165 698v-91h-98v91h98zM201 -170q-39 -23 -86 -23q-52 0 -84.5 29.5t-32.5 76.5q0 35 20 64.5t57 46.5v463h81v-487h-5q-41 0 -65.5 -22t-24.5 -55q0 -30 17.5 -46.5t48.5 -16.5q26 0 57 17z" />
    <glyph glyph-name="itilde" unicode="&#x129;" horiz-adv-x="232" 
d="M75 0v487h81v-487h-81zM-20.5 682q24.5 30 64.5 30q21 0 40 -8.5t44 -24.5q23 -13 34.5 -18.5t23.5 -5.5q22 0 34 15.5t12 38.5h45q0 -54 -24.5 -84t-64.5 -30q-21 0 -40 8.5t-44 24.5q-23 13 -34.5 18.5t-23.5 5.5q-22 0 -34 -15.5t-12 -38.5h-45q0 54 24.5 84z" />
    <glyph glyph-name="j" unicode="j" horiz-adv-x="232" 
d="M156 5q0 -90 -44 -135t-136 -51l-45 -3l-6 63l45 3q105 7 105 112v493h81v-482zM67 698h98v-91h-98v91z" />
    <glyph glyph-name="uni0237" unicode="&#x237;" horiz-adv-x="232" 
d="M156 5q0 -90 -44 -135t-136 -51l-45 -3l-6 63l45 3q105 7 105 112v493h81v-482z" />
    <glyph glyph-name="jcircumflex" unicode="&#x135;" horiz-adv-x="232" 
d="M156 5q0 -90 -44 -135t-136 -51l-45 -3l-6 63l45 3q105 7 105 112v493h81v-482zM44 551h-74l118 202h56l118 -202h-74l-72 143z" />
    <glyph glyph-name="k" unicode="k" horiz-adv-x="500" 
d="M509 0h-105l-248 233v-233h-81v705h81v-439l227 220h103l-242 -233z" />
    <glyph glyph-name="kcommaaccent" unicode="&#x137;" horiz-adv-x="500" 
d="M509 0h-105l-248 233v-233h-81v705h81v-439l227 220h103l-242 -233zM299 -72v-58q0 -40 -11.5 -71t-39.5 -58l-37 27q19 19 27 37.5t10 39.5h-47v83h98z" />
    <glyph glyph-name="kgreenlandic" unicode="&#x138;" horiz-adv-x="500" 
d="M509 0h-105l-248 233v-233h-81v487h81v-221l227 220h103l-242 -233z" />
    <glyph glyph-name="l" unicode="l" horiz-adv-x="232" 
d="M75 0v705h81v-705h-81z" />
    <glyph glyph-name="lacute" unicode="&#x13a;" horiz-adv-x="232" 
d="M75 0v705h81v-705h-81zM144 765h-56l101 152h88z" />
    <glyph glyph-name="lcaron" unicode="&#x13e;" horiz-adv-x="232" 
d="M75 0v705h81v-705h-81zM230 515h-38v190h64z" />
    <glyph glyph-name="lcommaaccent" unicode="&#x13c;" horiz-adv-x="232" 
d="M75 0v705h81v-705h-81zM165 -72v-58q0 -40 -11.5 -71t-39.5 -58l-37 27q19 19 27 37.5t10 39.5h-47v83h98z" />
    <glyph glyph-name="ldot" unicode="&#x140;" horiz-adv-x="261" 
d="M75 0v705h81v-705h-81zM194 400h102v-94h-102v94z" />
    <glyph glyph-name="uni1E37" unicode="&#x1e37;" horiz-adv-x="232" 
d="M75 0v705h81v-705h-81zM70 -94h92v-88h-92v88z" />
    <glyph glyph-name="uni01C9" unicode="&#x1c9;" horiz-adv-x="464" 
d="M75 0v705h81v-705h-81zM388 5q0 -90 -44 -135t-136 -51l-45 -3l-6 63l45 3q105 7 105 112v493h81v-482zM299 698h98v-91h-98v91z" />
    <glyph glyph-name="uni1E3B" unicode="&#x1e3b;" horiz-adv-x="232" 
d="M75 0v705h81v-705h-81zM-34 -168v59h300v-59h-300z" />
    <glyph glyph-name="lslash" unicode="&#x142;" horiz-adv-x="282" 
d="M290 404l-108 -63v-341h-81v294l-75 -43l-33 58l108 63v333h81v-286l75 43z" />
    <glyph glyph-name="m" unicode="m" horiz-adv-x="852" 
d="M779 306v-306h-81v302q0 67 -23.5 98t-75.5 31q-61 0 -96 -41t-35 -112v-278h-81v302q0 68 -24 98.5t-76 30.5q-61 0 -96 -41t-35 -112v-278h-81v487h80v-77q22 43 61 66t90 23q113 0 149 -96q21 45 64 70.5t98 25.5q162 0 162 -193z" />
    <glyph glyph-name="uni1E43" unicode="&#x1e43;" horiz-adv-x="852" 
d="M779 306v-306h-81v302q0 67 -23.5 98t-75.5 31q-61 0 -96 -41t-35 -112v-278h-81v302q0 68 -24 98.5t-76 30.5q-61 0 -96 -41t-35 -112v-278h-81v487h80v-77q22 43 61 66t90 23q113 0 149 -96q21 45 64 70.5t98 25.5q162 0 162 -193zM381 -94h92v-88h-92v88z" />
    <glyph glyph-name="n" unicode="n" horiz-adv-x="568" 
d="M495 306v-306h-81v301q0 68 -26.5 99t-84.5 31q-67 0 -107 -41t-40 -111v-279h-81v487h80v-80q24 45 67 68.5t98 23.5q175 0 175 -193z" />
    <glyph glyph-name="nacute" unicode="&#x144;" horiz-adv-x="568" 
d="M495 306v-306h-81v301q0 68 -26.5 99t-84.5 31q-67 0 -107 -41t-40 -111v-279h-81v487h80v-80q24 45 67 68.5t98 23.5q175 0 175 -193zM313 551h-56l99 202h93z" />
    <glyph glyph-name="napostrophe" unicode="&#x149;" horiz-adv-x="568" 
d="M196 753v-57q0 -40 -11.5 -71t-39.5 -58l-36 27q18 20 26 38t10 39h-47v82h98zM495 306v-306h-81v301q0 68 -26.5 99t-84.5 31q-67 0 -107 -41t-40 -111v-279h-81v487h80v-80q24 45 67 68.5t98 23.5q175 0 175 -193z" />
    <glyph glyph-name="ncaron" unicode="&#x148;" horiz-adv-x="568" 
d="M495 306v-306h-81v301q0 68 -26.5 99t-84.5 31q-67 0 -107 -41t-40 -111v-279h-81v487h80v-80q24 45 67 68.5t98 23.5q175 0 175 -193zM357 753h74l-118 -202h-56l-118 202h74l72 -143z" />
    <glyph glyph-name="ncommaaccent" unicode="&#x146;" horiz-adv-x="568" 
d="M495 306v-306h-81v301q0 68 -26.5 99t-84.5 31q-67 0 -107 -41t-40 -111v-279h-81v487h80v-80q24 45 67 68.5t98 23.5q175 0 175 -193zM334 -72v-58q0 -40 -11.5 -71t-39.5 -58l-37 27q19 19 27 37.5t10 39.5h-47v83h98z" />
    <glyph glyph-name="uni1E45" unicode="&#x1e45;" horiz-adv-x="568" 
d="M495 306v-306h-81v301q0 68 -26.5 99t-84.5 31q-67 0 -107 -41t-40 -111v-279h-81v487h80v-80q24 45 67 68.5t98 23.5q175 0 175 -193zM236 698h98v-91h-98v91z" />
    <glyph glyph-name="uni1E47" unicode="&#x1e47;" horiz-adv-x="568" 
d="M495 306v-306h-81v301q0 68 -26.5 99t-84.5 31q-67 0 -107 -41t-40 -111v-279h-81v487h80v-80q24 45 67 68.5t98 23.5q175 0 175 -193zM239 -94h92v-88h-92v88z" />
    <glyph glyph-name="eng" unicode="&#x14b;" horiz-adv-x="568" 
d="M495 306v-301q0 -87 -42.5 -133t-137.5 -53l-45 -3l-6 63l45 3q105 7 105 112v307q0 70 -27.5 100t-83.5 30q-65 0 -106 -40t-41 -112v-279h-81v487h80v-80q24 45 67 68.5t98 23.5q175 0 175 -193z" />
    <glyph glyph-name="uni01CC" unicode="&#x1cc;" horiz-adv-x="800" 
d="M495 306v-306h-81v301q0 68 -26.5 99t-84.5 31q-67 0 -107 -41t-40 -111v-279h-81v487h80v-80q24 45 67 68.5t98 23.5q175 0 175 -193zM724 5q0 -90 -44 -135t-136 -51l-45 -3l-6 63l45 3q105 7 105 112v493h81v-482zM635 698h98v-91h-98v91z" />
    <glyph glyph-name="uni1E49" unicode="&#x1e49;" horiz-adv-x="568" 
d="M495 306v-306h-81v301q0 68 -26.5 99t-84.5 31q-67 0 -107 -41t-40 -111v-279h-81v487h80v-80q24 45 67 68.5t98 23.5q175 0 175 -193zM135 -168v59h300v-59h-300z" />
    <glyph glyph-name="ntilde" unicode="&#xf1;" horiz-adv-x="568" 
d="M495 306v-306h-81v301q0 68 -26.5 99t-84.5 31q-67 0 -107 -41t-40 -111v-279h-81v487h80v-80q24 45 67 68.5t98 23.5q175 0 175 -193zM148.5 682q24.5 30 64.5 30q21 0 40 -8.5t44 -24.5q23 -13 34.5 -18.5t23.5 -5.5q22 0 34 15.5t12 38.5h45q0 -54 -24.5 -84
t-64.5 -30q-21 0 -40 8.5t-44 24.5q-23 13 -34.5 18.5t-23.5 5.5q-22 0 -34 -15.5t-12 -38.5h-45q0 54 24.5 84z" />
    <glyph glyph-name="o" unicode="o" horiz-adv-x="555" 
d="M155.5 24q-52.5 31 -81 88.5t-28.5 133.5t28.5 133.5t81 88.5t121.5 31t122 -31t81.5 -88.5t28.5 -133.5t-28.5 -133.5t-81.5 -88.5t-122 -31t-121.5 31zM387.5 107.5q38.5 47.5 38.5 138.5q0 89 -39 137.5t-110 48.5t-110 -48.5t-39 -137.5q0 -90 38.5 -138t110.5 -48
t110.5 47.5z" />
    <glyph glyph-name="oacute" unicode="&#xf3;" horiz-adv-x="555" 
d="M155.5 24q-52.5 31 -81 88.5t-28.5 133.5t28.5 133.5t81 88.5t121.5 31t122 -31t81.5 -88.5t28.5 -133.5t-28.5 -133.5t-81.5 -88.5t-122 -31t-121.5 31zM387.5 107.5q38.5 47.5 38.5 138.5q0 89 -39 137.5t-110 48.5t-110 -48.5t-39 -137.5q0 -90 38.5 -138t110.5 -48
t110.5 47.5zM305 551h-56l99 202h93z" />
    <glyph glyph-name="obreve" unicode="&#x14f;" horiz-adv-x="555" 
d="M155.5 24q-52.5 31 -81 88.5t-28.5 133.5t28.5 133.5t81 88.5t121.5 31t122 -31t81.5 -88.5t28.5 -133.5t-28.5 -133.5t-81.5 -88.5t-122 -31t-121.5 31zM387.5 107.5q38.5 47.5 38.5 138.5q0 89 -39 137.5t-110 48.5t-110 -48.5t-39 -137.5q0 -90 38.5 -138t110.5 -48
t110.5 47.5zM177.5 612q-44.5 31 -65.5 96l51 21q41 -88 114 -88t114 88l51 -21q-20 -65 -64.5 -96t-100.5 -31q-55 0 -99.5 31z" />
    <glyph glyph-name="ocircumflex" unicode="&#xf4;" horiz-adv-x="555" 
d="M155.5 24q-52.5 31 -81 88.5t-28.5 133.5t28.5 133.5t81 88.5t121.5 31t122 -31t81.5 -88.5t28.5 -133.5t-28.5 -133.5t-81.5 -88.5t-122 -31t-121.5 31zM387.5 107.5q38.5 47.5 38.5 138.5q0 89 -39 137.5t-110 48.5t-110 -48.5t-39 -137.5q0 -90 38.5 -138t110.5 -48
t110.5 47.5zM205 551h-74l118 202h56l118 -202h-74l-72 143z" />
    <glyph glyph-name="uni1ED1" unicode="&#x1ed1;" horiz-adv-x="555" 
d="M155.5 24q-52.5 31 -81 88.5t-28.5 133.5t28.5 133.5t81 88.5t121.5 31t122 -31t81.5 -88.5t28.5 -133.5t-28.5 -133.5t-81.5 -88.5t-122 -31t-121.5 31zM387.5 107.5q38.5 47.5 38.5 138.5q0 89 -39 137.5t-110 48.5t-110 -48.5t-39 -137.5q0 -90 38.5 -138t110.5 -48
t110.5 47.5zM411 654h-49l91 142h85zM204 551h-73l119 147h54l119 -147h-73l-73 99z" />
    <glyph glyph-name="uni1ED9" unicode="&#x1ed9;" horiz-adv-x="555" 
d="M155.5 24q-52.5 31 -81 88.5t-28.5 133.5t28.5 133.5t81 88.5t121.5 31t122 -31t81.5 -88.5t28.5 -133.5t-28.5 -133.5t-81.5 -88.5t-122 -31t-121.5 31zM387.5 107.5q38.5 47.5 38.5 138.5q0 89 -39 137.5t-110 48.5t-110 -48.5t-39 -137.5q0 -90 38.5 -138t110.5 -48
t110.5 47.5zM231 -94h92v-88h-92v88zM205 551h-74l118 202h56l118 -202h-74l-72 143z" />
    <glyph glyph-name="uni1ED3" unicode="&#x1ed3;" horiz-adv-x="555" 
d="M155.5 24q-52.5 31 -81 88.5t-28.5 133.5t28.5 133.5t81 88.5t121.5 31t122 -31t81.5 -88.5t28.5 -133.5t-28.5 -133.5t-81.5 -88.5t-122 -31t-121.5 31zM387.5 107.5q38.5 47.5 38.5 138.5q0 89 -39 137.5t-110 48.5t-110 -48.5t-39 -137.5q0 -90 38.5 -138t110.5 -48
t110.5 47.5zM404 654l-112 142h85l77 -142h-50zM204 551h-73l119 147h54l119 -147h-73l-73 99z" />
    <glyph glyph-name="uni1ED5" unicode="&#x1ed5;" horiz-adv-x="555" 
d="M155.5 24q-52.5 31 -81 88.5t-28.5 133.5t28.5 133.5t81 88.5t121.5 31t122 -31t81.5 -88.5t28.5 -133.5t-28.5 -133.5t-81.5 -88.5t-122 -31t-121.5 31zM387.5 107.5q38.5 47.5 38.5 138.5q0 89 -39 137.5t-110 48.5t-110 -48.5t-39 -137.5q0 -90 38.5 -138t110.5 -48
t110.5 47.5zM414 654h-53v17q0 17 11 26.5t31 17.5q13 6 19 10t6 10q0 8 -11 13t-30 5q-29 0 -61 -12l-14 43q42 17 81 17q46 0 72.5 -17.5t26.5 -45.5q0 -18 -11 -27t-34 -20q-16 -7 -24.5 -13t-8.5 -15v-9zM204 551h-73l119 147h54l119 -147h-73l-73 99z" />
    <glyph glyph-name="uni1ED7" unicode="&#x1ed7;" horiz-adv-x="555" 
d="M155.5 24q-52.5 31 -81 88.5t-28.5 133.5t28.5 133.5t81 88.5t121.5 31t122 -31t81.5 -88.5t28.5 -133.5t-28.5 -133.5t-81.5 -88.5t-122 -31t-121.5 31zM387.5 107.5q38.5 47.5 38.5 138.5q0 89 -39 137.5t-110 48.5t-110 -48.5t-39 -137.5q0 -90 38.5 -138t110.5 -48
t110.5 47.5zM141 784q25 28 64 28q21 0 40 -6.5t44 -18.5q15 -7 30.5 -12.5t27.5 -5.5q21 0 33.5 13t12.5 31h45q0 -43 -24.5 -70.5t-64.5 -27.5q-21 0 -40 6.5t-44 18.5q-15 7 -30.5 12.5t-27.5 5.5q-21 0 -33.5 -13.5t-12.5 -31.5h-45q0 43 25 71zM204 551h-73l119 147h54
l119 -147h-73l-73 99z" />
    <glyph glyph-name="uni020D" unicode="&#x20d;" horiz-adv-x="555" 
d="M155.5 24q-52.5 31 -81 88.5t-28.5 133.5t28.5 133.5t81 88.5t121.5 31t122 -31t81.5 -88.5t28.5 -133.5t-28.5 -133.5t-81.5 -88.5t-122 -31t-121.5 31zM387.5 107.5q38.5 47.5 38.5 138.5q0 89 -39 137.5t-110 48.5t-110 -48.5t-39 -137.5q0 -90 38.5 -138t110.5 -48
t110.5 47.5zM196 551l-79 202h75l45 -202h-41zM317 551l-79 202h74l46 -202h-41z" />
    <glyph glyph-name="odieresis" unicode="&#xf6;" horiz-adv-x="555" 
d="M155.5 24q-52.5 31 -81 88.5t-28.5 133.5t28.5 133.5t81 88.5t121.5 31t122 -31t81.5 -88.5t28.5 -133.5t-28.5 -133.5t-81.5 -88.5t-122 -31t-121.5 31zM387.5 107.5q38.5 47.5 38.5 138.5q0 89 -39 137.5t-110 48.5t-110 -48.5t-39 -137.5q0 -90 38.5 -138t110.5 -48
t110.5 47.5zM147 695h89v-85h-89v85zM318 695h89v-85h-89v85z" />
    <glyph glyph-name="uni022B" unicode="&#x22b;" horiz-adv-x="555" 
d="M155.5 24q-52.5 31 -81 88.5t-28.5 133.5t28.5 133.5t81 88.5t121.5 31t122 -31t81.5 -88.5t28.5 -133.5t-28.5 -133.5t-81.5 -88.5t-122 -31t-121.5 31zM387.5 107.5q38.5 47.5 38.5 138.5q0 89 -39 137.5t-110 48.5t-110 -48.5t-39 -137.5q0 -90 38.5 -138t110.5 -48
t110.5 47.5zM147 695h89v-85h-89v85zM318 695h89v-85h-89v85zM127 815v61h300v-61h-300z" />
    <glyph glyph-name="uni0231" unicode="&#x231;" horiz-adv-x="555" 
d="M155.5 24q-52.5 31 -81 88.5t-28.5 133.5t28.5 133.5t81 88.5t121.5 31t122 -31t81.5 -88.5t28.5 -133.5t-28.5 -133.5t-81.5 -88.5t-122 -31t-121.5 31zM387.5 107.5q38.5 47.5 38.5 138.5q0 89 -39 137.5t-110 48.5t-110 -48.5t-39 -137.5q0 -90 38.5 -138t110.5 -48
t110.5 47.5zM228 698h98v-91h-98v91zM127 815v61h300v-61h-300z" />
    <glyph glyph-name="uni1ECD" unicode="&#x1ecd;" horiz-adv-x="555" 
d="M155.5 24q-52.5 31 -81 88.5t-28.5 133.5t28.5 133.5t81 88.5t121.5 31t122 -31t81.5 -88.5t28.5 -133.5t-28.5 -133.5t-81.5 -88.5t-122 -31t-121.5 31zM387.5 107.5q38.5 47.5 38.5 138.5q0 89 -39 137.5t-110 48.5t-110 -48.5t-39 -137.5q0 -90 38.5 -138t110.5 -48
t110.5 47.5zM231 -94h92v-88h-92v88z" />
    <glyph glyph-name="ograve" unicode="&#xf2;" horiz-adv-x="555" 
d="M155.5 24q-52.5 31 -81 88.5t-28.5 133.5t28.5 133.5t81 88.5t121.5 31t122 -31t81.5 -88.5t28.5 -133.5t-28.5 -133.5t-81.5 -88.5t-122 -31t-121.5 31zM387.5 107.5q38.5 47.5 38.5 138.5q0 89 -39 137.5t-110 48.5t-110 -48.5t-39 -137.5q0 -90 38.5 -138t110.5 -48
t110.5 47.5zM249 551l-136 202h93l99 -202h-56z" />
    <glyph glyph-name="uni1ECF" unicode="&#x1ecf;" horiz-adv-x="555" 
d="M155.5 24q-52.5 31 -81 88.5t-28.5 133.5t28.5 133.5t81 88.5t121.5 31t122 -31t81.5 -88.5t28.5 -133.5t-28.5 -133.5t-81.5 -88.5t-122 -31t-121.5 31zM387.5 107.5q38.5 47.5 38.5 138.5q0 89 -39 137.5t-110 48.5t-110 -48.5t-39 -137.5q0 -90 38.5 -138t110.5 -48
t110.5 47.5zM305 551h-52v28q0 21 10 35.5t28 30.5q14 14 19.5 21t5.5 16q0 12 -10.5 18.5t-30.5 6.5q-26 0 -58 -11l-15 44q40 17 80 17q47 0 73.5 -19.5t26.5 -49.5q0 -23 -10.5 -37t-31.5 -30q-18 -15 -26.5 -25.5t-8.5 -27.5v-17z" />
    <glyph glyph-name="ohorn" unicode="&#x1a1;" horiz-adv-x="555" 
d="M488.5 502q-23.5 -36 -67.5 -51q43 -32 65.5 -85t22.5 -120q0 -76 -28.5 -133.5t-81.5 -88.5t-122 -31t-121.5 31t-81 88.5t-28.5 133.5t28.5 133.5t81 88.5t121.5 31q15 0 45 -4q16 -3 27 -3q46 0 68.5 25.5t22.5 83.5v15h72v-26q0 -52 -23.5 -88zM387.5 107.5
q38.5 47.5 38.5 138.5q0 89 -39 137.5t-110 48.5t-110 -48.5t-39 -137.5q0 -90 38.5 -138t110.5 -48t110.5 47.5z" />
    <glyph glyph-name="uni1EDB" unicode="&#x1edb;" horiz-adv-x="555" 
d="M488.5 502q-23.5 -36 -67.5 -51q43 -32 65.5 -85t22.5 -120q0 -76 -28.5 -133.5t-81.5 -88.5t-122 -31t-121.5 31t-81 88.5t-28.5 133.5t28.5 133.5t81 88.5t121.5 31q15 0 45 -4q16 -3 27 -3q46 0 68.5 25.5t22.5 83.5v15h72v-26q0 -52 -23.5 -88zM387.5 107.5
q38.5 47.5 38.5 138.5q0 89 -39 137.5t-110 48.5t-110 -48.5t-39 -137.5q0 -90 38.5 -138t110.5 -48t110.5 47.5zM305 551h-56l99 202h93z" />
    <glyph glyph-name="uni1EE3" unicode="&#x1ee3;" horiz-adv-x="555" 
d="M488.5 502q-23.5 -36 -67.5 -51q43 -32 65.5 -85t22.5 -120q0 -76 -28.5 -133.5t-81.5 -88.5t-122 -31t-121.5 31t-81 88.5t-28.5 133.5t28.5 133.5t81 88.5t121.5 31q15 0 45 -4q16 -3 27 -3q46 0 68.5 25.5t22.5 83.5v15h72v-26q0 -52 -23.5 -88zM387.5 107.5
q38.5 47.5 38.5 138.5q0 89 -39 137.5t-110 48.5t-110 -48.5t-39 -137.5q0 -90 38.5 -138t110.5 -48t110.5 47.5zM231 -94h92v-88h-92v88z" />
    <glyph glyph-name="uni1EDD" unicode="&#x1edd;" horiz-adv-x="555" 
d="M488.5 502q-23.5 -36 -67.5 -51q43 -32 65.5 -85t22.5 -120q0 -76 -28.5 -133.5t-81.5 -88.5t-122 -31t-121.5 31t-81 88.5t-28.5 133.5t28.5 133.5t81 88.5t121.5 31q15 0 45 -4q16 -3 27 -3q46 0 68.5 25.5t22.5 83.5v15h72v-26q0 -52 -23.5 -88zM387.5 107.5
q38.5 47.5 38.5 138.5q0 89 -39 137.5t-110 48.5t-110 -48.5t-39 -137.5q0 -90 38.5 -138t110.5 -48t110.5 47.5zM249 551l-136 202h93l99 -202h-56z" />
    <glyph glyph-name="uni1EDF" unicode="&#x1edf;" horiz-adv-x="555" 
d="M488.5 502q-23.5 -36 -67.5 -51q43 -32 65.5 -85t22.5 -120q0 -76 -28.5 -133.5t-81.5 -88.5t-122 -31t-121.5 31t-81 88.5t-28.5 133.5t28.5 133.5t81 88.5t121.5 31q15 0 45 -4q16 -3 27 -3q46 0 68.5 25.5t22.5 83.5v15h72v-26q0 -52 -23.5 -88zM387.5 107.5
q38.5 47.5 38.5 138.5q0 89 -39 137.5t-110 48.5t-110 -48.5t-39 -137.5q0 -90 38.5 -138t110.5 -48t110.5 47.5zM305 551h-52v28q0 21 10 35.5t28 30.5q14 14 19.5 21t5.5 16q0 12 -10.5 18.5t-30.5 6.5q-26 0 -58 -11l-15 44q40 17 80 17q47 0 73.5 -19.5t26.5 -49.5
q0 -23 -10.5 -37t-31.5 -30q-18 -15 -26.5 -25.5t-8.5 -27.5v-17z" />
    <glyph glyph-name="uni1EE1" unicode="&#x1ee1;" horiz-adv-x="555" 
d="M488.5 502q-23.5 -36 -67.5 -51q43 -32 65.5 -85t22.5 -120q0 -76 -28.5 -133.5t-81.5 -88.5t-122 -31t-121.5 31t-81 88.5t-28.5 133.5t28.5 133.5t81 88.5t121.5 31q15 0 45 -4q16 -3 27 -3q46 0 68.5 25.5t22.5 83.5v15h72v-26q0 -52 -23.5 -88zM387.5 107.5
q38.5 47.5 38.5 138.5q0 89 -39 137.5t-110 48.5t-110 -48.5t-39 -137.5q0 -90 38.5 -138t110.5 -48t110.5 47.5zM140.5 682q24.5 30 64.5 30q21 0 40 -8.5t44 -24.5q23 -13 34.5 -18.5t23.5 -5.5q22 0 34 15.5t12 38.5h45q0 -54 -24.5 -84t-64.5 -30q-21 0 -40 8.5
t-44 24.5q-23 13 -34.5 18.5t-23.5 5.5q-22 0 -34 -15.5t-12 -38.5h-45q0 54 24.5 84z" />
    <glyph glyph-name="ohungarumlaut" unicode="&#x151;" horiz-adv-x="555" 
d="M155.5 24q-52.5 31 -81 88.5t-28.5 133.5t28.5 133.5t81 88.5t121.5 31t122 -31t81.5 -88.5t28.5 -133.5t-28.5 -133.5t-81.5 -88.5t-122 -31t-121.5 31zM387.5 107.5q38.5 47.5 38.5 138.5q0 89 -39 137.5t-110 48.5t-110 -48.5t-39 -137.5q0 -90 38.5 -138t110.5 -48
t110.5 47.5zM237 551h-41l46 202h74zM358 551h-41l45 202h75z" />
    <glyph glyph-name="uni020F" unicode="&#x20f;" horiz-adv-x="555" 
d="M155.5 24q-52.5 31 -81 88.5t-28.5 133.5t28.5 133.5t81 88.5t121.5 31t122 -31t81.5 -88.5t28.5 -133.5t-28.5 -133.5t-81.5 -88.5t-122 -31t-121.5 31zM387.5 107.5q38.5 47.5 38.5 138.5q0 89 -39 137.5t-110 48.5t-110 -48.5t-39 -137.5q0 -90 38.5 -138t110.5 -48
t110.5 47.5zM376.5 697q44.5 -31 65.5 -95l-51 -22q-41 88 -114 88t-114 -88l-51 21q20 65 64.5 96t100.5 31q55 0 99.5 -31z" />
    <glyph glyph-name="omacron" unicode="&#x14d;" horiz-adv-x="555" 
d="M155.5 24q-52.5 31 -81 88.5t-28.5 133.5t28.5 133.5t81 88.5t121.5 31t122 -31t81.5 -88.5t28.5 -133.5t-28.5 -133.5t-81.5 -88.5t-122 -31t-121.5 31zM387.5 107.5q38.5 47.5 38.5 138.5q0 89 -39 137.5t-110 48.5t-110 -48.5t-39 -137.5q0 -90 38.5 -138t110.5 -48
t110.5 47.5zM127 622v61h300v-61h-300z" />
    <glyph glyph-name="uni1E53" unicode="&#x1e53;" horiz-adv-x="555" 
d="M155.5 24q-52.5 31 -81 88.5t-28.5 133.5t28.5 133.5t81 88.5t121.5 31t122 -31t81.5 -88.5t28.5 -133.5t-28.5 -133.5t-81.5 -88.5t-122 -31t-121.5 31zM387.5 107.5q38.5 47.5 38.5 138.5q0 89 -39 137.5t-110 48.5t-110 -48.5t-39 -137.5q0 -90 38.5 -138t110.5 -48
t110.5 47.5zM127 622v61h300v-61h-300zM305 744h-56l99 202h93z" />
    <glyph glyph-name="uni1E51" unicode="&#x1e51;" horiz-adv-x="555" 
d="M155.5 24q-52.5 31 -81 88.5t-28.5 133.5t28.5 133.5t81 88.5t121.5 31t122 -31t81.5 -88.5t28.5 -133.5t-28.5 -133.5t-81.5 -88.5t-122 -31t-121.5 31zM387.5 107.5q38.5 47.5 38.5 138.5q0 89 -39 137.5t-110 48.5t-110 -48.5t-39 -137.5q0 -90 38.5 -138t110.5 -48
t110.5 47.5zM127 622v61h300v-61h-300zM249 744l-136 202h93l99 -202h-56z" />
    <glyph glyph-name="uni01EB" unicode="&#x1eb;" horiz-adv-x="555" 
d="M298.5 -26q-19.5 -20 -19.5 -51q0 -30 17.5 -46.5t48.5 -16.5q26 0 58 17l16 -47q-35 -23 -86 -23q-52 0 -84 29t-32 76q0 50 34 82q-94 9 -149.5 76.5t-55.5 175.5q0 76 28.5 133.5t81 88.5t121.5 31t122 -31t81.5 -88.5t28.5 -133.5q0 -90 -39 -153.5t-108 -85.5
q-44 -13 -63.5 -33zM166.5 108q38.5 -48 110.5 -48t110.5 47.5t38.5 138.5q0 89 -39 137.5t-110 48.5t-110 -48.5t-39 -137.5q0 -90 38.5 -138z" />
    <glyph glyph-name="oslash" unicode="&#xf8;" horiz-adv-x="555" 
d="M487.5 363q21.5 -52 21.5 -117q0 -76 -28.5 -133.5t-81.5 -88.5t-122 -31q-57 0 -101 21l-35 -60l-49 29l35 61q-39 33 -60 85t-21 117q0 76 28.5 133.5t81 88.5t121.5 31q58 0 103 -21l34 59l49 -28l-36 -61q39 -33 60.5 -85zM165 109l180 309q-31 14 -68 14
q-71 0 -110 -48.5t-39 -137.5t37 -137zM388.5 107.5q38.5 47.5 38.5 138.5q0 87 -38 136l-179 -309q27 -13 67 -13q73 0 111.5 47.5z" />
    <glyph glyph-name="oslashacute" unicode="&#x1ff;" horiz-adv-x="555" 
d="M487.5 363q21.5 -52 21.5 -117q0 -76 -28.5 -133.5t-81.5 -88.5t-122 -31q-57 0 -101 21l-35 -60l-49 29l35 61q-39 33 -60 85t-21 117q0 76 28.5 133.5t81 88.5t121.5 31q58 0 103 -21l34 59l49 -28l-36 -61q39 -33 60.5 -85zM165 109l180 309q-31 14 -68 14
q-71 0 -110 -48.5t-39 -137.5t37 -137zM388.5 107.5q38.5 47.5 38.5 138.5q0 87 -38 136l-179 -309q27 -13 67 -13q73 0 111.5 47.5zM305 551h-56l99 202h93z" />
    <glyph glyph-name="otilde" unicode="&#xf5;" horiz-adv-x="555" 
d="M155.5 24q-52.5 31 -81 88.5t-28.5 133.5t28.5 133.5t81 88.5t121.5 31t122 -31t81.5 -88.5t28.5 -133.5t-28.5 -133.5t-81.5 -88.5t-122 -31t-121.5 31zM387.5 107.5q38.5 47.5 38.5 138.5q0 89 -39 137.5t-110 48.5t-110 -48.5t-39 -137.5q0 -90 38.5 -138t110.5 -48
t110.5 47.5zM140.5 682q24.5 30 64.5 30q21 0 40 -8.5t44 -24.5q23 -13 34.5 -18.5t23.5 -5.5q22 0 34 15.5t12 38.5h45q0 -54 -24.5 -84t-64.5 -30q-21 0 -40 8.5t-44 24.5q-23 13 -34.5 18.5t-23.5 5.5q-22 0 -34 -15.5t-12 -38.5h-45q0 54 24.5 84z" />
    <glyph glyph-name="uni1E4D" unicode="&#x1e4d;" horiz-adv-x="555" 
d="M155.5 24q-52.5 31 -81 88.5t-28.5 133.5t28.5 133.5t81 88.5t121.5 31t122 -31t81.5 -88.5t28.5 -133.5t-28.5 -133.5t-81.5 -88.5t-122 -31t-121.5 31zM387.5 107.5q38.5 47.5 38.5 138.5q0 89 -39 137.5t-110 48.5t-110 -48.5t-39 -137.5q0 -90 38.5 -138t110.5 -48
t110.5 47.5zM140.5 682q24.5 30 64.5 30q21 0 40 -8.5t44 -24.5q23 -13 34.5 -18.5t23.5 -5.5q22 0 34 15.5t12 38.5h45q0 -54 -24.5 -84t-64.5 -30q-21 0 -40 8.5t-44 24.5q-23 13 -34.5 18.5t-23.5 5.5q-22 0 -34 -15.5t-12 -38.5h-45q0 54 24.5 84zM305 744h-56l99 202
h93z" />
    <glyph glyph-name="uni1E4F" unicode="&#x1e4f;" horiz-adv-x="555" 
d="M155.5 24q-52.5 31 -81 88.5t-28.5 133.5t28.5 133.5t81 88.5t121.5 31t122 -31t81.5 -88.5t28.5 -133.5t-28.5 -133.5t-81.5 -88.5t-122 -31t-121.5 31zM387.5 107.5q38.5 47.5 38.5 138.5q0 89 -39 137.5t-110 48.5t-110 -48.5t-39 -137.5q0 -90 38.5 -138t110.5 -48
t110.5 47.5zM140.5 682q24.5 30 64.5 30q21 0 40 -8.5t44 -24.5q23 -13 34.5 -18.5t23.5 -5.5q22 0 34 15.5t12 38.5h45q0 -54 -24.5 -84t-64.5 -30q-21 0 -40 8.5t-44 24.5q-23 13 -34.5 18.5t-23.5 5.5q-22 0 -34 -15.5t-12 -38.5h-45q0 54 24.5 84zM147 888h89v-85h-89
v85zM318 888h89v-85h-89v85z" />
    <glyph glyph-name="uni022D" unicode="&#x22d;" horiz-adv-x="555" 
d="M155.5 24q-52.5 31 -81 88.5t-28.5 133.5t28.5 133.5t81 88.5t121.5 31t122 -31t81.5 -88.5t28.5 -133.5t-28.5 -133.5t-81.5 -88.5t-122 -31t-121.5 31zM387.5 107.5q38.5 47.5 38.5 138.5q0 89 -39 137.5t-110 48.5t-110 -48.5t-39 -137.5q0 -90 38.5 -138t110.5 -48
t110.5 47.5zM140.5 682q24.5 30 64.5 30q21 0 40 -8.5t44 -24.5q23 -13 34.5 -18.5t23.5 -5.5q22 0 34 15.5t12 38.5h45q0 -54 -24.5 -84t-64.5 -30q-21 0 -40 8.5t-44 24.5q-23 13 -34.5 18.5t-23.5 5.5q-22 0 -34 -15.5t-12 -38.5h-45q0 54 24.5 84zM127 815v61h300v-61
h-300z" />
    <glyph glyph-name="oe" unicode="&#x153;" horiz-adv-x="904" 
d="M860 231h-352q4 -85 45 -128.5t116 -43.5q81 0 156 58l27 -59q-32 -29 -82 -47t-100 -18q-71 0 -122.5 29.5t-79.5 85.5q-27 -55 -76.5 -85t-115.5 -30q-69 0 -121 31t-80.5 88.5t-28.5 133.5t28.5 133.5t80.5 88.5t121 31q66 0 115.5 -30t75.5 -85q28 55 77.5 85
t113.5 30q93 0 147.5 -64t54.5 -174v-30zM555.5 396q-38.5 -40 -45.5 -113h279q-2 74 -36.5 113.5t-95.5 39.5q-63 0 -101.5 -40zM386.5 107.5q38.5 47.5 38.5 138.5q0 89 -39 137.5t-109 48.5q-71 0 -110 -48.5t-39 -137.5q0 -90 38.5 -138t109.5 -48q72 0 110.5 47.5z" />
    <glyph glyph-name="p" unicode="p" horiz-adv-x="582" 
d="M433 467q49 -32 76 -89.5t27 -133.5t-27 -132.5t-75.5 -87.5t-113.5 -31q-57 0 -99.5 25t-64.5 71v-269h-81v667h81v-84q22 46 64.5 71t99.5 25q64 0 113 -32zM414 108q39 48 39 136t-39 137.5t-110 49.5t-109.5 -48t-38.5 -137t38.5 -137.5t109.5 -48.5t110 48z" />
    <glyph glyph-name="thorn" unicode="&#xfe;" horiz-adv-x="582" 
d="M431.5 468q49.5 -31 77 -89t27.5 -135t-27.5 -134t-76.5 -87t-112 -30q-57 0 -99.5 25t-64.5 71v-269h-81v885h81v-302q22 46 64.5 71t99.5 25q62 0 111.5 -31zM414.5 108.5q38.5 48.5 38.5 135.5t-39 137t-110 50t-109.5 -48t-38.5 -137t38.5 -137.5t109.5 -48.5
q72 0 110.5 48.5z" />
    <glyph glyph-name="q" unicode="q" horiz-adv-x="582" 
d="M507 487v-667h-81v269q-22 -46 -64.5 -71t-99.5 -25q-65 0 -113.5 31t-75.5 87.5t-27 132.5t27 133.5t76 89.5t113 32q57 0 99.5 -25t64.5 -71v84h81zM387.5 108.5q38.5 48.5 38.5 137.5t-38.5 137t-109.5 48t-110.5 -49.5t-39.5 -137.5t39.5 -136t110.5 -48t109.5 48.5z
" />
    <glyph glyph-name="r" unicode="r" horiz-adv-x="353" 
d="M351 429l-53 -5q-75 -7 -108.5 -47t-33.5 -99v-278h-81v487h79v-85q41 85 161 95l29 2z" />
    <glyph glyph-name="racute" unicode="&#x155;" horiz-adv-x="353" 
d="M351 429l-53 -5q-75 -7 -108.5 -47t-33.5 -99v-278h-81v487h79v-85q41 85 161 95l29 2zM242 551h-56l99 202h93z" />
    <glyph glyph-name="rcaron" unicode="&#x159;" horiz-adv-x="353" 
d="M351 429l-53 -5q-75 -7 -108.5 -47t-33.5 -99v-278h-81v487h79v-85q41 85 161 95l29 2zM286 753h74l-118 -202h-56l-118 202h74l72 -143z" />
    <glyph glyph-name="rcommaaccent" unicode="&#x157;" horiz-adv-x="353" 
d="M351 429l-53 -5q-75 -7 -108.5 -47t-33.5 -99v-278h-81v487h79v-85q41 85 161 95l29 2zM165 -72v-58q0 -40 -11.5 -71t-39.5 -58l-37 27q19 19 27 37.5t10 39.5h-47v83h98z" />
    <glyph glyph-name="uni0211" unicode="&#x211;" horiz-adv-x="353" 
d="M351 429l-53 -5q-75 -7 -108.5 -47t-33.5 -99v-278h-81v487h79v-85q41 85 161 95l29 2zM133 551l-79 202h75l45 -202h-41zM254 551l-79 202h74l46 -202h-41z" />
    <glyph glyph-name="uni1E5B" unicode="&#x1e5b;" horiz-adv-x="353" 
d="M351 429l-53 -5q-75 -7 -108.5 -47t-33.5 -99v-278h-81v487h79v-85q41 85 161 95l29 2zM70 -94h92v-88h-92v88z" />
    <glyph glyph-name="uni0213" unicode="&#x213;" horiz-adv-x="353" 
d="M351 429l-53 -5q-75 -7 -108.5 -47t-33.5 -99v-278h-81v487h79v-85q41 85 161 95l29 2zM313.5 697q44.5 -31 65.5 -95l-51 -22q-41 88 -114 88t-114 -88l-51 21q20 65 64.5 96t100.5 31q55 0 99.5 -31z" />
    <glyph glyph-name="uni1E5F" unicode="&#x1e5f;" horiz-adv-x="353" 
d="M351 429l-53 -5q-75 -7 -108.5 -47t-33.5 -99v-278h-81v487h79v-85q41 85 161 95l29 2zM-34 -168v59h300v-59h-300z" />
    <glyph glyph-name="s" unicode="s" horiz-adv-x="480" 
d="M45 56l27 60q39 -31 79.5 -44.5t91.5 -13.5q54 0 82.5 18.5t28.5 53.5q0 29 -19 46t-63 27l-82 19q-62 14 -95 48t-33 84q0 65 51 105t136 40q51 0 97 -16.5t77 -47.5l-27 -59q-67 57 -147 57q-51 0 -79.5 -19.5t-28.5 -54.5q0 -29 17.5 -46.5t56.5 -26.5l83 -20
q68 -16 101 -48.5t33 -84.5q0 -64 -51.5 -102t-140.5 -38q-123 0 -195 63z" />
    <glyph glyph-name="sacute" unicode="&#x15b;" horiz-adv-x="480" 
d="M45 56l27 60q39 -31 79.5 -44.5t91.5 -13.5q54 0 82.5 18.5t28.5 53.5q0 29 -19 46t-63 27l-82 19q-62 14 -95 48t-33 84q0 65 51 105t136 40q51 0 97 -16.5t77 -47.5l-27 -59q-67 57 -147 57q-51 0 -79.5 -19.5t-28.5 -54.5q0 -29 17.5 -46.5t56.5 -26.5l83 -20
q68 -16 101 -48.5t33 -84.5q0 -64 -51.5 -102t-140.5 -38q-123 0 -195 63zM277 551h-56l99 202h93z" />
    <glyph glyph-name="uni1E65" unicode="&#x1e65;" horiz-adv-x="480" 
d="M45 56l27 60q39 -31 79.5 -44.5t91.5 -13.5q54 0 82.5 18.5t28.5 53.5q0 29 -19 46t-63 27l-82 19q-62 14 -95 48t-33 84q0 65 51 105t136 40q51 0 97 -16.5t77 -47.5l-27 -59q-67 57 -147 57q-51 0 -79.5 -19.5t-28.5 -54.5q0 -29 17.5 -46.5t56.5 -26.5l83 -20
q68 -16 101 -48.5t33 -84.5q0 -64 -51.5 -102t-140.5 -38q-123 0 -195 63zM281 551h-56l99 202h93zM105 753h98v-91h-98v91z" />
    <glyph glyph-name="scaron" unicode="&#x161;" horiz-adv-x="480" 
d="M45 56l27 60q39 -31 79.5 -44.5t91.5 -13.5q54 0 82.5 18.5t28.5 53.5q0 29 -19 46t-63 27l-82 19q-62 14 -95 48t-33 84q0 65 51 105t136 40q51 0 97 -16.5t77 -47.5l-27 -59q-67 57 -147 57q-51 0 -79.5 -19.5t-28.5 -54.5q0 -29 17.5 -46.5t56.5 -26.5l83 -20
q68 -16 101 -48.5t33 -84.5q0 -64 -51.5 -102t-140.5 -38q-123 0 -195 63zM321 753h74l-118 -202h-56l-118 202h74l72 -143z" />
    <glyph glyph-name="uni1E67" unicode="&#x1e67;" horiz-adv-x="480" 
d="M45 56l27 60q39 -31 79.5 -44.5t91.5 -13.5q54 0 82.5 18.5t28.5 53.5q0 29 -19 46t-63 27l-82 19q-62 14 -95 48t-33 84q0 65 51 105t136 40q51 0 97 -16.5t77 -47.5l-27 -59q-67 57 -147 57q-51 0 -79.5 -19.5t-28.5 -54.5q0 -29 17.5 -46.5t56.5 -26.5l83 -20
q68 -16 101 -48.5t33 -84.5q0 -64 -51.5 -102t-140.5 -38q-123 0 -195 63zM321 753h74l-118 -202h-56l-118 202h74l72 -143zM200 891h98v-91h-98v91z" />
    <glyph glyph-name="scedilla" unicode="&#x15f;" horiz-adv-x="480" 
d="M385 34.5q-47 -37.5 -128 -41.5l-4 -36q16 2 24 2q32 0 54 -17.5t22 -51.5q0 -36 -30.5 -59.5t-85.5 -23.5q-20 0 -45 5t-43 14l13 43q36 -14 76 -14q27 0 41 9t14 26q0 13 -9 20t-26 7q-22 0 -45 -9l-20 16l8 71q-97 9 -156 61l27 60q39 -31 79.5 -44.5t91.5 -13.5
q54 0 82.5 18.5t28.5 53.5q0 29 -19 46t-63 27l-82 19q-62 14 -95 48t-33 84q0 65 51 105t136 40q51 0 97 -16.5t77 -47.5l-27 -59q-67 57 -147 57q-51 0 -79.5 -19.5t-28.5 -54.5q0 -29 17.5 -46.5t56.5 -26.5l83 -20q68 -16 101 -48.5t33 -84.5q0 -61 -47 -98.5z" />
    <glyph glyph-name="scircumflex" unicode="&#x15d;" horiz-adv-x="480" 
d="M45 56l27 60q39 -31 79.5 -44.5t91.5 -13.5q54 0 82.5 18.5t28.5 53.5q0 29 -19 46t-63 27l-82 19q-62 14 -95 48t-33 84q0 65 51 105t136 40q51 0 97 -16.5t77 -47.5l-27 -59q-67 57 -147 57q-51 0 -79.5 -19.5t-28.5 -54.5q0 -29 17.5 -46.5t56.5 -26.5l83 -20
q68 -16 101 -48.5t33 -84.5q0 -64 -51.5 -102t-140.5 -38q-123 0 -195 63zM177 551h-74l118 202h56l118 -202h-74l-72 143z" />
    <glyph glyph-name="scommaaccent" unicode="&#x219;" horiz-adv-x="480" 
d="M45 56l27 60q39 -31 79.5 -44.5t91.5 -13.5q54 0 82.5 18.5t28.5 53.5q0 29 -19 46t-63 27l-82 19q-62 14 -95 48t-33 84q0 65 51 105t136 40q51 0 97 -16.5t77 -47.5l-27 -59q-67 57 -147 57q-51 0 -79.5 -19.5t-28.5 -54.5q0 -29 17.5 -46.5t56.5 -26.5l83 -20
q68 -16 101 -48.5t33 -84.5q0 -64 -51.5 -102t-140.5 -38q-123 0 -195 63zM288 -72v-58q0 -40 -11.5 -71t-39.5 -58l-37 27q19 19 27 37.5t10 39.5h-47v83h98z" />
    <glyph glyph-name="uni1E61" unicode="&#x1e61;" horiz-adv-x="480" 
d="M45 56l27 60q39 -31 79.5 -44.5t91.5 -13.5q54 0 82.5 18.5t28.5 53.5q0 29 -19 46t-63 27l-82 19q-62 14 -95 48t-33 84q0 65 51 105t136 40q51 0 97 -16.5t77 -47.5l-27 -59q-67 57 -147 57q-51 0 -79.5 -19.5t-28.5 -54.5q0 -29 17.5 -46.5t56.5 -26.5l83 -20
q68 -16 101 -48.5t33 -84.5q0 -64 -51.5 -102t-140.5 -38q-123 0 -195 63zM200 698h98v-91h-98v91z" />
    <glyph glyph-name="uni1E63" unicode="&#x1e63;" horiz-adv-x="480" 
d="M45 56l27 60q39 -31 79.5 -44.5t91.5 -13.5q54 0 82.5 18.5t28.5 53.5q0 29 -19 46t-63 27l-82 19q-62 14 -95 48t-33 84q0 65 51 105t136 40q51 0 97 -16.5t77 -47.5l-27 -59q-67 57 -147 57q-51 0 -79.5 -19.5t-28.5 -54.5q0 -29 17.5 -46.5t56.5 -26.5l83 -20
q68 -16 101 -48.5t33 -84.5q0 -64 -51.5 -102t-140.5 -38q-123 0 -195 63zM193 -94h92v-88h-92v88z" />
    <glyph glyph-name="uni1E69" unicode="&#x1e69;" horiz-adv-x="480" 
d="M45 56l27 60q39 -31 79.5 -44.5t91.5 -13.5q54 0 82.5 18.5t28.5 53.5q0 29 -19 46t-63 27l-82 19q-62 14 -95 48t-33 84q0 65 51 105t136 40q51 0 97 -16.5t77 -47.5l-27 -59q-67 57 -147 57q-51 0 -79.5 -19.5t-28.5 -54.5q0 -29 17.5 -46.5t56.5 -26.5l83 -20
q68 -16 101 -48.5t33 -84.5q0 -64 -51.5 -102t-140.5 -38q-123 0 -195 63zM193 -94h92v-88h-92v88zM200 698h98v-91h-98v91z" />
    <glyph glyph-name="germandbls" unicode="&#xdf;" horiz-adv-x="616" 
d="M75 477q0 110 59.5 171.5t166.5 61.5q79 0 124 -34.5t45 -96.5q0 -41 -20.5 -70t-58.5 -63q-28 -24 -42 -42t-14 -39q0 -32 25.5 -49t78.5 -35q46 -16 75.5 -31t50.5 -43t21 -71q0 -64 -50.5 -103.5t-132.5 -39.5q-53 0 -101 16.5t-82 46.5l27 60q78 -57 157 -57
q49 0 76 19.5t27 54.5q0 33 -26.5 50.5t-81.5 36.5q-46 15 -74.5 29.5t-48.5 40.5t-20 67q0 36 18.5 62t54.5 59q32 30 47.5 50.5t15.5 47.5q0 33 -24 51t-68 18q-69 0 -106.5 -41.5t-37.5 -117.5v-486h-81v477z" />
    <glyph glyph-name="t" unicode="t" horiz-adv-x="340" 
d="M333 61l-4 -64q-23 -4 -50 -4q-88 0 -132.5 46t-44.5 128v256h-95v64h95v148h81v-148h138v-64h-138v-250q0 -115 106 -115q22 0 44 3z" />
    <glyph glyph-name="tbar" unicode="&#x167;" horiz-adv-x="350" 
d="M338 61l-4 -64q-23 -4 -50 -4q-88 0 -132.5 46t-44.5 128v82h-75v62h75v112h-95v64h95v148h81v-148h138v-64h-138v-112h118v-62h-118v-76q0 -115 106 -115q22 0 44 3z" />
    <glyph glyph-name="tcaron" unicode="&#x165;" horiz-adv-x="340" 
d="M310 705l-28 -171h-46v171h74zM333 61l-4 -64q-23 -4 -50 -4q-88 0 -132.5 46t-44.5 128v256h-95v64h95v148h81v-148h138v-64h-138v-250q0 -115 106 -115q22 0 44 3z" />
    <glyph glyph-name="uni0163" unicode="&#x163;" horiz-adv-x="340" 
d="M311 -58.5q22 -17.5 22 -51.5q0 -36 -30.5 -59.5t-85.5 -23.5q-20 0 -45 5t-43 14l13 43q36 -14 76 -14q27 0 41 9t14 26q0 13 -9 20t-26 7q-22 0 -45 -9l-20 16l10 89q-81 40 -81 154v256h-95v64h95v148h81v-148h138v-64h-138v-250q0 -115 106 -115q22 0 44 3l-4 -64
q-23 -4 -50 -4q-22 0 -42 3l-4 -39q16 2 24 2q32 0 54 -17.5z" />
    <glyph glyph-name="uni021B" unicode="&#x21b;" horiz-adv-x="340" 
d="M333 61l-4 -64q-23 -4 -50 -4q-88 0 -132.5 46t-44.5 128v256h-95v64h95v148h81v-148h138v-64h-138v-250q0 -115 106 -115q22 0 44 3zM268 -72v-58q0 -40 -11.5 -71t-39.5 -58l-37 27q19 19 27 37.5t10 39.5h-47v83h98z" />
    <glyph glyph-name="uni1E97" unicode="&#x1e97;" horiz-adv-x="340" 
d="M333 61l-4 -64q-23 -4 -50 -4q-88 0 -132.5 46t-44.5 128v256h-95v64h95v148h81v-148h138v-64h-138v-250q0 -115 106 -115q22 0 44 3zM13 815h89v-86h-89v86zM184 815h89v-86h-89v86z" />
    <glyph glyph-name="uni1E6D" unicode="&#x1e6d;" horiz-adv-x="340" 
d="M333 61l-4 -64q-23 -4 -50 -4q-88 0 -132.5 46t-44.5 128v256h-95v64h95v148h81v-148h138v-64h-138v-250q0 -115 106 -115q22 0 44 3zM173 -94h92v-88h-92v88z" />
    <glyph glyph-name="uni1E6F" unicode="&#x1e6f;" horiz-adv-x="340" 
d="M333 61l-4 -64q-23 -4 -50 -4q-88 0 -132.5 46t-44.5 128v256h-95v64h95v148h81v-148h138v-64h-138v-250q0 -115 106 -115q22 0 44 3zM69 -168v59h300v-59h-300z" />
    <glyph glyph-name="u" unicode="u" horiz-adv-x="561" 
d="M485 487v-487h-79v83q-23 -44 -64.5 -67t-93.5 -23q-87 0 -131 48.5t-44 143.5v302h81v-300q0 -65 26 -95.5t82 -30.5q64 0 103 41.5t39 109.5v275h81z" />
    <glyph glyph-name="uacute" unicode="&#xfa;" horiz-adv-x="561" 
d="M485 487v-487h-79v83q-23 -44 -64.5 -67t-93.5 -23q-87 0 -131 48.5t-44 143.5v302h81v-300q0 -65 26 -95.5t82 -30.5q64 0 103 41.5t39 109.5v275h81zM308 551h-56l99 202h93z" />
    <glyph glyph-name="ubreve" unicode="&#x16d;" horiz-adv-x="561" 
d="M485 487v-487h-79v83q-23 -44 -64.5 -67t-93.5 -23q-87 0 -131 48.5t-44 143.5v302h81v-300q0 -65 26 -95.5t82 -30.5q64 0 103 41.5t39 109.5v275h81zM180.5 612q-44.5 31 -65.5 96l51 21q41 -88 114 -88t114 88l51 -21q-20 -65 -64.5 -96t-100.5 -31q-55 0 -99.5 31z
" />
    <glyph glyph-name="ucircumflex" unicode="&#xfb;" horiz-adv-x="561" 
d="M485 487v-487h-79v83q-23 -44 -64.5 -67t-93.5 -23q-87 0 -131 48.5t-44 143.5v302h81v-300q0 -65 26 -95.5t82 -30.5q64 0 103 41.5t39 109.5v275h81zM208 551h-74l118 202h56l118 -202h-74l-72 143z" />
    <glyph glyph-name="uni0215" unicode="&#x215;" horiz-adv-x="561" 
d="M485 487v-487h-79v83q-23 -44 -64.5 -67t-93.5 -23q-87 0 -131 48.5t-44 143.5v302h81v-300q0 -65 26 -95.5t82 -30.5q64 0 103 41.5t39 109.5v275h81zM199 551l-79 202h75l45 -202h-41zM320 551l-79 202h74l46 -202h-41z" />
    <glyph glyph-name="udieresis" unicode="&#xfc;" horiz-adv-x="561" 
d="M485 487v-487h-79v83q-23 -44 -64.5 -67t-93.5 -23q-87 0 -131 48.5t-44 143.5v302h81v-300q0 -65 26 -95.5t82 -30.5q64 0 103 41.5t39 109.5v275h81zM150 695h89v-85h-89v85zM321 695h89v-85h-89v85z" />
    <glyph glyph-name="uni1EE5" unicode="&#x1ee5;" horiz-adv-x="561" 
d="M485 487v-487h-79v83q-23 -44 -64.5 -67t-93.5 -23q-87 0 -131 48.5t-44 143.5v302h81v-300q0 -65 26 -95.5t82 -30.5q64 0 103 41.5t39 109.5v275h81zM234 -94h92v-88h-92v88z" />
    <glyph glyph-name="ugrave" unicode="&#xf9;" horiz-adv-x="561" 
d="M485 487v-487h-79v83q-23 -44 -64.5 -67t-93.5 -23q-87 0 -131 48.5t-44 143.5v302h81v-300q0 -65 26 -95.5t82 -30.5q64 0 103 41.5t39 109.5v275h81zM252 551l-136 202h93l99 -202h-56z" />
    <glyph glyph-name="uni1EE7" unicode="&#x1ee7;" horiz-adv-x="561" 
d="M485 487v-487h-79v83q-23 -44 -64.5 -67t-93.5 -23q-87 0 -131 48.5t-44 143.5v302h81v-300q0 -65 26 -95.5t82 -30.5q64 0 103 41.5t39 109.5v275h81zM308 551h-52v28q0 21 10 35.5t28 30.5q14 14 19.5 21t5.5 16q0 12 -10.5 18.5t-30.5 6.5q-26 0 -58 -11l-15 44
q40 17 80 17q47 0 73.5 -19.5t26.5 -49.5q0 -23 -10.5 -37t-31.5 -30q-18 -15 -26.5 -25.5t-8.5 -27.5v-17z" />
    <glyph glyph-name="uhorn" unicode="&#x1b0;" horiz-adv-x="575" 
d="M603 616v-26q0 -61 -31 -99.5t-87 -47.5v-443h-79v83q-23 -44 -64.5 -67t-93.5 -23q-87 0 -131 48.5t-44 143.5v302h81v-300q0 -65 26 -95.5t82 -30.5q64 0 103 41.5t39 109.5v275h24q54 0 78 26.5t24 87.5v15h73z" />
    <glyph glyph-name="uni1EE9" unicode="&#x1ee9;" horiz-adv-x="575" 
d="M603 616v-26q0 -61 -31 -99.5t-87 -47.5v-443h-79v83q-23 -44 -64.5 -67t-93.5 -23q-87 0 -131 48.5t-44 143.5v302h81v-300q0 -65 26 -95.5t82 -30.5q64 0 103 41.5t39 109.5v275h24q54 0 78 26.5t24 87.5v15h73zM308 551h-56l99 202h93z" />
    <glyph glyph-name="uni1EF1" unicode="&#x1ef1;" horiz-adv-x="575" 
d="M603 616v-26q0 -61 -31 -99.5t-87 -47.5v-443h-79v83q-23 -44 -64.5 -67t-93.5 -23q-87 0 -131 48.5t-44 143.5v302h81v-300q0 -65 26 -95.5t82 -30.5q64 0 103 41.5t39 109.5v275h24q54 0 78 26.5t24 87.5v15h73zM234 -94h92v-88h-92v88z" />
    <glyph glyph-name="uni1EEB" unicode="&#x1eeb;" horiz-adv-x="575" 
d="M603 616v-26q0 -61 -31 -99.5t-87 -47.5v-443h-79v83q-23 -44 -64.5 -67t-93.5 -23q-87 0 -131 48.5t-44 143.5v302h81v-300q0 -65 26 -95.5t82 -30.5q64 0 103 41.5t39 109.5v275h24q54 0 78 26.5t24 87.5v15h73zM252 551l-136 202h93l99 -202h-56z" />
    <glyph glyph-name="uni1EED" unicode="&#x1eed;" horiz-adv-x="575" 
d="M603 616v-26q0 -61 -31 -99.5t-87 -47.5v-443h-79v83q-23 -44 -64.5 -67t-93.5 -23q-87 0 -131 48.5t-44 143.5v302h81v-300q0 -65 26 -95.5t82 -30.5q64 0 103 41.5t39 109.5v275h24q54 0 78 26.5t24 87.5v15h73zM308 551h-52v28q0 21 10 35.5t28 30.5q14 14 19.5 21
t5.5 16q0 12 -10.5 18.5t-30.5 6.5q-26 0 -58 -11l-15 44q40 17 80 17q47 0 73.5 -19.5t26.5 -49.5q0 -23 -10.5 -37t-31.5 -30q-18 -15 -26.5 -25.5t-8.5 -27.5v-17z" />
    <glyph glyph-name="uni1EEF" unicode="&#x1eef;" horiz-adv-x="575" 
d="M603 616v-26q0 -61 -31 -99.5t-87 -47.5v-443h-79v83q-23 -44 -64.5 -67t-93.5 -23q-87 0 -131 48.5t-44 143.5v302h81v-300q0 -65 26 -95.5t82 -30.5q64 0 103 41.5t39 109.5v275h24q54 0 78 26.5t24 87.5v15h73zM143.5 682q24.5 30 64.5 30q21 0 40 -8.5t44 -24.5
q23 -13 34.5 -18.5t23.5 -5.5q22 0 34 15.5t12 38.5h45q0 -54 -24.5 -84t-64.5 -30q-21 0 -40 8.5t-44 24.5q-23 13 -34.5 18.5t-23.5 5.5q-22 0 -34 -15.5t-12 -38.5h-45q0 54 24.5 84z" />
    <glyph glyph-name="uhungarumlaut" unicode="&#x171;" horiz-adv-x="561" 
d="M485 487v-487h-79v83q-23 -44 -64.5 -67t-93.5 -23q-87 0 -131 48.5t-44 143.5v302h81v-300q0 -65 26 -95.5t82 -30.5q64 0 103 41.5t39 109.5v275h81zM240 551h-41l46 202h74zM361 551h-41l45 202h75z" />
    <glyph glyph-name="uni0217" unicode="&#x217;" horiz-adv-x="561" 
d="M485 487v-487h-79v83q-23 -44 -64.5 -67t-93.5 -23q-87 0 -131 48.5t-44 143.5v302h81v-300q0 -65 26 -95.5t82 -30.5q64 0 103 41.5t39 109.5v275h81zM379.5 697q44.5 -31 65.5 -95l-51 -22q-41 88 -114 88t-114 -88l-51 21q20 65 64.5 96t100.5 31q55 0 99.5 -31z" />
    <glyph glyph-name="umacron" unicode="&#x16b;" horiz-adv-x="561" 
d="M485 487v-487h-79v83q-23 -44 -64.5 -67t-93.5 -23q-87 0 -131 48.5t-44 143.5v302h81v-300q0 -65 26 -95.5t82 -30.5q64 0 103 41.5t39 109.5v275h81zM130 622v61h300v-61h-300z" />
    <glyph glyph-name="uni1E7B" unicode="&#x1e7b;" horiz-adv-x="561" 
d="M485 487v-487h-79v83q-23 -44 -64.5 -67t-93.5 -23q-87 0 -131 48.5t-44 143.5v302h81v-300q0 -65 26 -95.5t82 -30.5q64 0 103 41.5t39 109.5v275h81zM130 622v61h300v-61h-300zM150 888h89v-85h-89v85zM321 888h89v-85h-89v85z" />
    <glyph glyph-name="uogonek" unicode="&#x173;" horiz-adv-x="561" 
d="M530 -170q-37 -23 -86 -23q-52 0 -84.5 29.5t-32.5 76.5q0 37 20.5 66t58.5 46v58q-23 -44 -64.5 -67t-93.5 -23q-87 0 -131 48.5t-44 143.5v302h81v-300q0 -65 26 -95.5t82 -30.5q64 0 103 41.5t39 109.5v275h81v-487h-5q-40 0 -65 -21.5t-25 -55.5q0 -30 17.5 -46.5
t48.5 -16.5q26 0 58 17z" />
    <glyph glyph-name="uring" unicode="&#x16f;" horiz-adv-x="561" 
d="M485 487v-487h-79v83q-23 -44 -64.5 -67t-93.5 -23q-87 0 -131 48.5t-44 143.5v302h81v-300q0 -65 26 -95.5t82 -30.5q64 0 103 41.5t39 109.5v275h81zM208.5 581.5q-29.5 28.5 -29.5 70.5t29.5 70.5t71.5 28.5t71.5 -28.5t29.5 -70.5t-29.5 -70.5t-71.5 -28.5
t-71.5 28.5zM314.5 616.5q13.5 14.5 13.5 35.5t-13.5 35.5t-34.5 14.5t-34.5 -14.5t-13.5 -35.5t13.5 -35.5t34.5 -14.5t34.5 14.5z" />
    <glyph glyph-name="utilde" unicode="&#x169;" horiz-adv-x="561" 
d="M485 487v-487h-79v83q-23 -44 -64.5 -67t-93.5 -23q-87 0 -131 48.5t-44 143.5v302h81v-300q0 -65 26 -95.5t82 -30.5q64 0 103 41.5t39 109.5v275h81zM143.5 682q24.5 30 64.5 30q21 0 40 -8.5t44 -24.5q23 -13 34.5 -18.5t23.5 -5.5q22 0 34 15.5t12 38.5h45
q0 -54 -24.5 -84t-64.5 -30q-21 0 -40 8.5t-44 24.5q-23 13 -34.5 18.5t-23.5 5.5q-22 0 -34 -15.5t-12 -38.5h-45q0 54 24.5 84z" />
    <glyph glyph-name="uni1E79" unicode="&#x1e79;" horiz-adv-x="561" 
d="M485 487v-487h-79v83q-23 -44 -64.5 -67t-93.5 -23q-87 0 -131 48.5t-44 143.5v302h81v-300q0 -65 26 -95.5t82 -30.5q64 0 103 41.5t39 109.5v275h81zM143.5 682q24.5 30 64.5 30q21 0 40 -8.5t44 -24.5q23 -13 34.5 -18.5t23.5 -5.5q22 0 34 15.5t12 38.5h45
q0 -54 -24.5 -84t-64.5 -30q-21 0 -40 8.5t-44 24.5q-23 13 -34.5 18.5t-23.5 5.5q-22 0 -34 -15.5t-12 -38.5h-45q0 54 24.5 84zM308 744h-56l99 202h93z" />
    <glyph glyph-name="v" unicode="v" horiz-adv-x="514" 
d="M424 486h81l-210 -486h-76l-209 486h86l163 -398z" />
    <glyph glyph-name="w" unicode="w" horiz-adv-x="842" 
d="M736 487h81l-181 -487h-78l-137 377l-138 -377h-77l-181 487h84l138 -391l141 391h70l139 -391z" />
    <glyph glyph-name="wacute" unicode="&#x1e83;" horiz-adv-x="842" 
d="M736 487h81l-181 -487h-78l-137 377l-138 -377h-77l-181 487h84l138 -391l141 391h70l139 -391zM449 551h-56l99 202h93z" />
    <glyph glyph-name="wcircumflex" unicode="&#x175;" horiz-adv-x="842" 
d="M736 487h81l-181 -487h-78l-137 377l-138 -377h-77l-181 487h84l138 -391l141 391h70l139 -391zM349 551h-74l118 202h56l118 -202h-74l-72 143z" />
    <glyph glyph-name="wdieresis" unicode="&#x1e85;" horiz-adv-x="842" 
d="M736 487h81l-181 -487h-78l-137 377l-138 -377h-77l-181 487h84l138 -391l141 391h70l139 -391zM291 695h89v-85h-89v85zM462 695h89v-85h-89v85z" />
    <glyph glyph-name="wgrave" unicode="&#x1e81;" horiz-adv-x="842" 
d="M736 487h81l-181 -487h-78l-137 377l-138 -377h-77l-181 487h84l138 -391l141 391h70l139 -391zM393 551l-136 202h93l99 -202h-56z" />
    <glyph glyph-name="x" unicode="x" horiz-adv-x="518" 
d="M307 251l202 -251h-98l-152 190l-151 -190h-99l202 251l-190 236h98l140 -177l140 177h99z" />
    <glyph glyph-name="y" unicode="y" horiz-adv-x="514" 
d="M424 486h81l-288 -666h-83l82 186l-206 480h86l163 -398z" />
    <glyph glyph-name="yacute" unicode="&#xfd;" horiz-adv-x="514" 
d="M424 486h81l-288 -666h-83l82 186l-206 480h86l163 -398zM286 551h-56l99 202h93z" />
    <glyph glyph-name="ycircumflex" unicode="&#x177;" horiz-adv-x="514" 
d="M424 486h81l-288 -666h-83l82 186l-206 480h86l163 -398zM186 551h-74l118 202h56l118 -202h-74l-72 143z" />
    <glyph glyph-name="ydieresis" unicode="&#xff;" horiz-adv-x="514" 
d="M424 486h81l-288 -666h-83l82 186l-206 480h86l163 -398zM128 695h89v-85h-89v85zM299 695h89v-85h-89v85z" />
    <glyph glyph-name="uni1E8F" unicode="&#x1e8f;" horiz-adv-x="514" 
d="M424 486h81l-288 -666h-83l82 186l-206 480h86l163 -398zM209 698h98v-91h-98v91z" />
    <glyph glyph-name="uni1EF5" unicode="&#x1ef5;" horiz-adv-x="514" 
d="M424 486h81l-288 -666h-83l82 186l-206 480h86l163 -398zM344 -94h92v-88h-92v88z" />
    <glyph glyph-name="ygrave" unicode="&#x1ef3;" horiz-adv-x="514" 
d="M424 486h81l-288 -666h-83l82 186l-206 480h86l163 -398zM230 551l-136 202h93l99 -202h-56z" />
    <glyph glyph-name="uni1EF7" unicode="&#x1ef7;" horiz-adv-x="514" 
d="M424 486h81l-288 -666h-83l82 186l-206 480h86l163 -398zM286 551h-52v28q0 21 10 35.5t28 30.5q14 14 19.5 21t5.5 16q0 12 -10.5 18.5t-30.5 6.5q-26 0 -58 -11l-15 44q40 17 80 17q47 0 73.5 -19.5t26.5 -49.5q0 -23 -10.5 -37t-31.5 -30q-18 -15 -26.5 -25.5
t-8.5 -27.5v-17z" />
    <glyph glyph-name="uni0233" unicode="&#x233;" horiz-adv-x="514" 
d="M424 486h81l-288 -666h-83l82 186l-206 480h86l163 -398zM108 622v61h300v-61h-300z" />
    <glyph glyph-name="uni1EF9" unicode="&#x1ef9;" horiz-adv-x="514" 
d="M424 486h81l-288 -666h-83l82 186l-206 480h86l163 -398zM121.5 682q24.5 30 64.5 30q21 0 40 -8.5t44 -24.5q23 -13 34.5 -18.5t23.5 -5.5q22 0 34 15.5t12 38.5h45q0 -54 -24.5 -84t-64.5 -30q-21 0 -40 8.5t-44 24.5q-23 13 -34.5 18.5t-23.5 5.5q-22 0 -34 -15.5
t-12 -38.5h-45q0 54 24.5 84z" />
    <glyph glyph-name="z" unicode="z" horiz-adv-x="503" 
d="M148 64h313v-64h-413v56l304 367h-294v64h392v-59z" />
    <glyph glyph-name="zacute" unicode="&#x17a;" horiz-adv-x="503" 
d="M148 64h313v-64h-413v56l304 367h-294v64h392v-59zM284 551h-56l99 202h93z" />
    <glyph glyph-name="zcaron" unicode="&#x17e;" horiz-adv-x="503" 
d="M148 64h313v-64h-413v56l304 367h-294v64h392v-59zM328 753h74l-118 -202h-56l-118 202h74l72 -143z" />
    <glyph glyph-name="zdotaccent" unicode="&#x17c;" horiz-adv-x="503" 
d="M148 64h313v-64h-413v56l304 367h-294v64h392v-59zM207 698h98v-91h-98v91z" />
    <glyph glyph-name="uni1E93" unicode="&#x1e93;" horiz-adv-x="503" 
d="M148 64h313v-64h-413v56l304 367h-294v64h392v-59zM204 -94h92v-88h-92v88z" />
    <glyph glyph-name="iacute_j.loclNLD" horiz-adv-x="464" 
d="M75 0v487h81v-487h-81zM144 551h-56l99 202h93zM388 5q0 -90 -44 -135t-136 -51l-45 -3l-6 63l45 3q105 7 105 112v493h81v-482zM376 551h-56l99 202h93z" />
    <glyph glyph-name="a.ss01" horiz-adv-x="582" 
d="M507 487v-487h-81v89q-22 -46 -64.5 -71t-99.5 -25q-65 0 -113.5 31t-75.5 87.5t-27 132.5t27 133.5t76 89.5t113 32q57 0 99.5 -25t64.5 -71v84h81zM387.5 108.5q38.5 48.5 38.5 137.5t-38.5 137t-109.5 48t-110.5 -49.5t-39.5 -137.5t39.5 -136t110.5 -48t109.5 48.5z
" />
    <glyph glyph-name="aacute.ss01" horiz-adv-x="582" 
d="M507 487v-487h-81v89q-22 -46 -64.5 -71t-99.5 -25q-65 0 -113.5 31t-75.5 87.5t-27 132.5t27 133.5t76 89.5t113 32q57 0 99.5 -25t64.5 -71v84h81zM387.5 108.5q38.5 48.5 38.5 137.5t-38.5 137t-109.5 48t-110.5 -49.5t-39.5 -137.5t39.5 -136t110.5 -48t109.5 48.5z
M320 551h-56l99 202h93z" />
    <glyph glyph-name="abreve.ss01" horiz-adv-x="582" 
d="M507 487v-487h-81v89q-22 -46 -64.5 -71t-99.5 -25q-65 0 -113.5 31t-75.5 87.5t-27 132.5t27 133.5t76 89.5t113 32q57 0 99.5 -25t64.5 -71v84h81zM387.5 108.5q38.5 48.5 38.5 137.5t-38.5 137t-109.5 48t-110.5 -49.5t-39.5 -137.5t39.5 -136t110.5 -48t109.5 48.5z
M192.5 612q-44.5 31 -65.5 96l51 21q41 -88 114 -88t114 88l51 -21q-20 -65 -64.5 -96t-100.5 -31q-55 0 -99.5 31z" />
    <glyph glyph-name="uni1EAF.ss01" horiz-adv-x="582" 
d="M507 487v-487h-81v89q-22 -46 -64.5 -71t-99.5 -25q-65 0 -113.5 31t-75.5 87.5t-27 132.5t27 133.5t76 89.5t113 32q57 0 99.5 -25t64.5 -71v84h81zM387.5 108.5q38.5 48.5 38.5 137.5t-38.5 137t-109.5 48t-110.5 -49.5t-39.5 -137.5t39.5 -136t110.5 -48t109.5 48.5z
M319 654h-54l100 142h86zM193.5 571.5q-42.5 25.5 -64.5 80.5l47 20q22 -39 50.5 -55t65.5 -16t65.5 16t50.5 55l47 -20q-22 -55 -64.5 -80.5t-98.5 -25.5t-98.5 25.5z" />
    <glyph glyph-name="uni1EB7.ss01" horiz-adv-x="582" 
d="M507 487v-487h-81v89q-22 -46 -64.5 -71t-99.5 -25q-65 0 -113.5 31t-75.5 87.5t-27 132.5t27 133.5t76 89.5t113 32q57 0 99.5 -25t64.5 -71v84h81zM387.5 108.5q38.5 48.5 38.5 137.5t-38.5 137t-109.5 48t-110.5 -49.5t-39.5 -137.5t39.5 -136t110.5 -48t109.5 48.5z
M246 -94h92v-88h-92v88zM192.5 612q-44.5 31 -65.5 96l51 21q41 -88 114 -88t114 88l51 -21q-20 -65 -64.5 -96t-100.5 -31q-55 0 -99.5 31z" />
    <glyph glyph-name="uni1EB1.ss01" horiz-adv-x="582" 
d="M507 487v-487h-81v89q-22 -46 -64.5 -71t-99.5 -25q-65 0 -113.5 31t-75.5 87.5t-27 132.5t27 133.5t76 89.5t113 32q57 0 99.5 -25t64.5 -71v84h81zM387.5 108.5q38.5 48.5 38.5 137.5t-38.5 137t-109.5 48t-110.5 -49.5t-39.5 -137.5t39.5 -136t110.5 -48t109.5 48.5z
M265 654l-132 142h86l100 -142h-54zM193.5 571.5q-42.5 25.5 -64.5 80.5l47 20q22 -39 50.5 -55t65.5 -16t65.5 16t50.5 55l47 -20q-22 -55 -64.5 -80.5t-98.5 -25.5t-98.5 25.5z" />
    <glyph glyph-name="uni1EB3.ss01" horiz-adv-x="582" 
d="M507 487v-487h-81v89q-22 -46 -64.5 -71t-99.5 -25q-65 0 -113.5 31t-75.5 87.5t-27 132.5t27 133.5t76 89.5t113 32q57 0 99.5 -25t64.5 -71v84h81zM387.5 108.5q38.5 48.5 38.5 137.5t-38.5 137t-109.5 48t-110.5 -49.5t-39.5 -137.5t39.5 -136t110.5 -48t109.5 48.5z
M319 654h-53v17q0 17 11 26.5t31 17.5q13 6 19 10t6 10q0 8 -11 13t-30 5q-29 0 -61 -12l-14 43q42 17 81 17q46 0 72.5 -17.5t26.5 -45.5q0 -18 -11 -27t-34 -20q-16 -7 -24.5 -13t-8.5 -15v-9zM193.5 571.5q-42.5 25.5 -64.5 80.5l47 20q22 -39 50.5 -55t65.5 -16t65.5 16
t50.5 55l47 -20q-22 -55 -64.5 -80.5t-98.5 -25.5t-98.5 25.5z" />
    <glyph glyph-name="uni1EB5.ss01" horiz-adv-x="582" 
d="M507 487v-487h-81v89q-22 -46 -64.5 -71t-99.5 -25q-65 0 -113.5 31t-75.5 87.5t-27 132.5t27 133.5t76 89.5t113 32q57 0 99.5 -25t64.5 -71v84h81zM387.5 108.5q38.5 48.5 38.5 137.5t-38.5 137t-109.5 48t-110.5 -49.5t-39.5 -137.5t39.5 -136t110.5 -48t109.5 48.5z
M155.5 775.5q24.5 28.5 64.5 28.5q21 0 39.5 -7.5t44.5 -22.5q23 -12 34.5 -17t23.5 -5q22 0 34 14t12 35h45q0 -46 -24.5 -74.5t-64.5 -28.5q-21 0 -39.5 7.5t-44.5 22.5q-23 12 -34.5 17t-23.5 5q-22 0 -34 -14t-12 -35h-45q0 46 24.5 74.5zM193.5 571.5
q-42.5 25.5 -64.5 80.5l47 20q22 -39 50.5 -55t65.5 -16t65.5 16t50.5 55l47 -20q-22 -55 -64.5 -80.5t-98.5 -25.5t-98.5 25.5z" />
    <glyph glyph-name="uni01CE.ss01" horiz-adv-x="582" 
d="M507 487v-487h-81v89q-22 -46 -64.5 -71t-99.5 -25q-65 0 -113.5 31t-75.5 87.5t-27 132.5t27 133.5t76 89.5t113 32q57 0 99.5 -25t64.5 -71v84h81zM387.5 108.5q38.5 48.5 38.5 137.5t-38.5 137t-109.5 48t-110.5 -49.5t-39.5 -137.5t39.5 -136t110.5 -48t109.5 48.5z
M364 753h74l-118 -202h-56l-118 202h74l72 -143z" />
    <glyph glyph-name="acircumflex.ss01" horiz-adv-x="582" 
d="M507 487v-487h-81v89q-22 -46 -64.5 -71t-99.5 -25q-65 0 -113.5 31t-75.5 87.5t-27 132.5t27 133.5t76 89.5t113 32q57 0 99.5 -25t64.5 -71v84h81zM387.5 108.5q38.5 48.5 38.5 137.5t-38.5 137t-109.5 48t-110.5 -49.5t-39.5 -137.5t39.5 -136t110.5 -48t109.5 48.5z
M220 551h-74l118 202h56l118 -202h-74l-72 143z" />
    <glyph glyph-name="uni1EA5.ss01" horiz-adv-x="582" 
d="M507 487v-487h-81v89q-22 -46 -64.5 -71t-99.5 -25q-65 0 -113.5 31t-75.5 87.5t-27 132.5t27 133.5t76 89.5t113 32q57 0 99.5 -25t64.5 -71v84h81zM387.5 108.5q38.5 48.5 38.5 137.5t-38.5 137t-109.5 48t-110.5 -49.5t-39.5 -137.5t39.5 -136t110.5 -48t109.5 48.5z
M426 654h-49l91 142h85zM219 551h-73l119 147h54l119 -147h-73l-73 99z" />
    <glyph glyph-name="uni1EAD.ss01" horiz-adv-x="582" 
d="M507 487v-487h-81v89q-22 -46 -64.5 -71t-99.5 -25q-65 0 -113.5 31t-75.5 87.5t-27 132.5t27 133.5t76 89.5t113 32q57 0 99.5 -25t64.5 -71v84h81zM387.5 108.5q38.5 48.5 38.5 137.5t-38.5 137t-109.5 48t-110.5 -49.5t-39.5 -137.5t39.5 -136t110.5 -48t109.5 48.5z
M246 -94h92v-88h-92v88zM220 551h-74l118 202h56l118 -202h-74l-72 143z" />
    <glyph glyph-name="uni1EA7.ss01" horiz-adv-x="582" 
d="M507 487v-487h-81v89q-22 -46 -64.5 -71t-99.5 -25q-65 0 -113.5 31t-75.5 87.5t-27 132.5t27 133.5t76 89.5t113 32q57 0 99.5 -25t64.5 -71v84h81zM387.5 108.5q38.5 48.5 38.5 137.5t-38.5 137t-109.5 48t-110.5 -49.5t-39.5 -137.5t39.5 -136t110.5 -48t109.5 48.5z
M419 654l-112 142h85l77 -142h-50zM219 551h-73l119 147h54l119 -147h-73l-73 99z" />
    <glyph glyph-name="uni1EA9.ss01" horiz-adv-x="582" 
d="M507 487v-487h-81v89q-22 -46 -64.5 -71t-99.5 -25q-65 0 -113.5 31t-75.5 87.5t-27 132.5t27 133.5t76 89.5t113 32q57 0 99.5 -25t64.5 -71v84h81zM387.5 108.5q38.5 48.5 38.5 137.5t-38.5 137t-109.5 48t-110.5 -49.5t-39.5 -137.5t39.5 -136t110.5 -48t109.5 48.5z
M429 654h-53v17q0 17 11 26.5t31 17.5q13 6 19 10t6 10q0 8 -11 13t-30 5q-29 0 -61 -12l-14 43q42 17 81 17q46 0 72.5 -17.5t26.5 -45.5q0 -18 -11 -27t-34 -20q-16 -7 -24.5 -13t-8.5 -15v-9zM219 551h-73l119 147h54l119 -147h-73l-73 99z" />
    <glyph glyph-name="uni1EAB.ss01" horiz-adv-x="582" 
d="M507 487v-487h-81v89q-22 -46 -64.5 -71t-99.5 -25q-65 0 -113.5 31t-75.5 87.5t-27 132.5t27 133.5t76 89.5t113 32q57 0 99.5 -25t64.5 -71v84h81zM387.5 108.5q38.5 48.5 38.5 137.5t-38.5 137t-109.5 48t-110.5 -49.5t-39.5 -137.5t39.5 -136t110.5 -48t109.5 48.5z
M156 784q25 28 64 28q21 0 40 -6.5t44 -18.5q15 -7 30.5 -12.5t27.5 -5.5q21 0 33.5 13t12.5 31h45q0 -43 -24.5 -70.5t-64.5 -27.5q-21 0 -40 6.5t-44 18.5q-15 7 -30.5 12.5t-27.5 5.5q-21 0 -33.5 -13.5t-12.5 -31.5h-45q0 43 25 71zM219 551h-73l119 147h54l119 -147
h-73l-73 99z" />
    <glyph glyph-name="uni0201.ss01" horiz-adv-x="582" 
d="M507 487v-487h-81v89q-22 -46 -64.5 -71t-99.5 -25q-65 0 -113.5 31t-75.5 87.5t-27 132.5t27 133.5t76 89.5t113 32q57 0 99.5 -25t64.5 -71v84h81zM387.5 108.5q38.5 48.5 38.5 137.5t-38.5 137t-109.5 48t-110.5 -49.5t-39.5 -137.5t39.5 -136t110.5 -48t109.5 48.5z
M211 551l-79 202h75l45 -202h-41zM332 551l-79 202h74l46 -202h-41z" />
    <glyph glyph-name="adieresis.ss01" horiz-adv-x="582" 
d="M507 487v-487h-81v89q-22 -46 -64.5 -71t-99.5 -25q-65 0 -113.5 31t-75.5 87.5t-27 132.5t27 133.5t76 89.5t113 32q57 0 99.5 -25t64.5 -71v84h81zM387.5 108.5q38.5 48.5 38.5 137.5t-38.5 137t-109.5 48t-110.5 -49.5t-39.5 -137.5t39.5 -136t110.5 -48t109.5 48.5z
M162 695h89v-85h-89v85zM333 695h89v-85h-89v85z" />
    <glyph glyph-name="uni0227.ss01" horiz-adv-x="582" 
d="M507 487v-487h-81v89q-22 -46 -64.5 -71t-99.5 -25q-65 0 -113.5 31t-75.5 87.5t-27 132.5t27 133.5t76 89.5t113 32q57 0 99.5 -25t64.5 -71v84h81zM387.5 108.5q38.5 48.5 38.5 137.5t-38.5 137t-109.5 48t-110.5 -49.5t-39.5 -137.5t39.5 -136t110.5 -48t109.5 48.5z
M243 698h98v-91h-98v91z" />
    <glyph glyph-name="uni1EA1.ss01" horiz-adv-x="582" 
d="M507 487v-487h-81v89q-22 -46 -64.5 -71t-99.5 -25q-65 0 -113.5 31t-75.5 87.5t-27 132.5t27 133.5t76 89.5t113 32q57 0 99.5 -25t64.5 -71v84h81zM387.5 108.5q38.5 48.5 38.5 137.5t-38.5 137t-109.5 48t-110.5 -49.5t-39.5 -137.5t39.5 -136t110.5 -48t109.5 48.5z
M246 -94h92v-88h-92v88z" />
    <glyph glyph-name="agrave.ss01" horiz-adv-x="582" 
d="M507 487v-487h-81v89q-22 -46 -64.5 -71t-99.5 -25q-65 0 -113.5 31t-75.5 87.5t-27 132.5t27 133.5t76 89.5t113 32q57 0 99.5 -25t64.5 -71v84h81zM387.5 108.5q38.5 48.5 38.5 137.5t-38.5 137t-109.5 48t-110.5 -49.5t-39.5 -137.5t39.5 -136t110.5 -48t109.5 48.5z
M264 551l-136 202h93l99 -202h-56z" />
    <glyph glyph-name="uni1EA3.ss01" horiz-adv-x="582" 
d="M507 487v-487h-81v89q-22 -46 -64.5 -71t-99.5 -25q-65 0 -113.5 31t-75.5 87.5t-27 132.5t27 133.5t76 89.5t113 32q57 0 99.5 -25t64.5 -71v84h81zM387.5 108.5q38.5 48.5 38.5 137.5t-38.5 137t-109.5 48t-110.5 -49.5t-39.5 -137.5t39.5 -136t110.5 -48t109.5 48.5z
M320 551h-52v28q0 21 10 35.5t28 30.5q14 14 19.5 21t5.5 16q0 12 -10.5 18.5t-30.5 6.5q-26 0 -58 -11l-15 44q40 17 80 17q47 0 73.5 -19.5t26.5 -49.5q0 -23 -10.5 -37t-31.5 -30q-18 -15 -26.5 -25.5t-8.5 -27.5v-17z" />
    <glyph glyph-name="uni0203.ss01" horiz-adv-x="582" 
d="M507 487v-487h-81v89q-22 -46 -64.5 -71t-99.5 -25q-65 0 -113.5 31t-75.5 87.5t-27 132.5t27 133.5t76 89.5t113 32q57 0 99.5 -25t64.5 -71v84h81zM387.5 108.5q38.5 48.5 38.5 137.5t-38.5 137t-109.5 48t-110.5 -49.5t-39.5 -137.5t39.5 -136t110.5 -48t109.5 48.5z
M391.5 697q44.5 -31 65.5 -95l-51 -22q-41 88 -114 88t-114 -88l-51 21q20 65 64.5 96t100.5 31q55 0 99.5 -31z" />
    <glyph glyph-name="amacron.ss01" horiz-adv-x="582" 
d="M507 487v-487h-81v89q-22 -46 -64.5 -71t-99.5 -25q-65 0 -113.5 31t-75.5 87.5t-27 132.5t27 133.5t76 89.5t113 32q57 0 99.5 -25t64.5 -71v84h81zM387.5 108.5q38.5 48.5 38.5 137.5t-38.5 137t-109.5 48t-110.5 -49.5t-39.5 -137.5t39.5 -136t110.5 -48t109.5 48.5z
M142 622v61h300v-61h-300z" />
    <glyph glyph-name="aogonek.ss01" horiz-adv-x="582" 
d="M551 -170q-35 -23 -86 -23q-52 0 -84.5 29.5t-32.5 76.5q0 37 20.5 65.5t57.5 45.5v65q-22 -46 -64.5 -71t-99.5 -25q-64 0 -113 31t-76 88t-27 132t27 133t76 90t113 32q57 0 99.5 -25t64.5 -71v84h81v-487h-6q-40 0 -65 -21.5t-25 -55.5q0 -30 17.5 -46.5t48.5 -16.5
q26 0 58 17zM387.5 108.5q38.5 48.5 38.5 137.5t-38.5 137t-109.5 48t-110.5 -49.5t-39.5 -137.5t39.5 -136t110.5 -48t109.5 48.5z" />
    <glyph glyph-name="aring.ss01" horiz-adv-x="582" 
d="M507 487v-487h-81v89q-22 -46 -64.5 -71t-99.5 -25q-65 0 -113.5 31t-75.5 87.5t-27 132.5t27 133.5t76 89.5t113 32q57 0 99.5 -25t64.5 -71v84h81zM387.5 108.5q38.5 48.5 38.5 137.5t-38.5 137t-109.5 48t-110.5 -49.5t-39.5 -137.5t39.5 -136t110.5 -48t109.5 48.5z
M220.5 581.5q-29.5 28.5 -29.5 70.5t29.5 70.5t71.5 28.5t71.5 -28.5t29.5 -70.5t-29.5 -70.5t-71.5 -28.5t-71.5 28.5zM326.5 616.5q13.5 14.5 13.5 35.5t-13.5 35.5t-34.5 14.5t-34.5 -14.5t-13.5 -35.5t13.5 -35.5t34.5 -14.5t34.5 14.5z" />
    <glyph glyph-name="aringacute.ss01" horiz-adv-x="582" 
d="M220 582.5q-30 28.5 -30 70.5t30 70.5t72 28.5q37 0 64 -22l42 89l72 31l-56 -111l-43 -25q22 -25 22 -61q0 -42 -29.5 -70.5t-71.5 -28.5t-72 28.5zM257 688.5q-14 -14.5 -14 -35.5t14 -35.5t35 -14.5t34.5 14.5t13.5 35.5t-13.5 35.5t-34.5 14.5t-35 -14.5zM507 487
v-487h-81v89q-22 -46 -64.5 -71t-99.5 -25q-65 0 -113.5 31t-75.5 87.5t-27 132.5t27 133.5t76 89.5t113 32q57 0 99.5 -25t64.5 -71v84h81zM387.5 108.5q38.5 48.5 38.5 137.5t-38.5 137t-109.5 48t-110.5 -49.5t-39.5 -137.5t39.5 -136t110.5 -48t109.5 48.5z" />
    <glyph glyph-name="atilde.ss01" horiz-adv-x="582" 
d="M507 487v-487h-81v89q-22 -46 -64.5 -71t-99.5 -25q-65 0 -113.5 31t-75.5 87.5t-27 132.5t27 133.5t76 89.5t113 32q57 0 99.5 -25t64.5 -71v84h81zM387.5 108.5q38.5 48.5 38.5 137.5t-38.5 137t-109.5 48t-110.5 -49.5t-39.5 -137.5t39.5 -136t110.5 -48t109.5 48.5z
M155.5 682q24.5 30 64.5 30q21 0 40 -8.5t44 -24.5q23 -13 34.5 -18.5t23.5 -5.5q22 0 34 15.5t12 38.5h45q0 -54 -24.5 -84t-64.5 -30q-21 0 -40 8.5t-44 24.5q-23 13 -34.5 18.5t-23.5 5.5q-22 0 -34 -15.5t-12 -38.5h-45q0 54 24.5 84z" />
    <glyph glyph-name="I_J.loclNLD" horiz-adv-x="582" 
d="M87 0v705h82v-705h-82zM248 62l60 4q50 4 77.5 35.5t27.5 86.5v517h82v-518q0 -87 -45 -136t-131 -54l-65 -4z" />
    <glyph glyph-name="i_j.loclNLD" horiz-adv-x="464" 
d="M75 0v487h81v-487h-81zM67 698h98v-91h-98v91zM388 5q0 -90 -44 -135t-136 -51l-45 -3l-6 63l45 3q105 7 105 112v493h81v-482zM299 698h98v-91h-98v91z" />
    <glyph glyph-name="ordfeminine" unicode="&#xaa;" horiz-adv-x="330" 
d="M257.5 681q30.5 -29 30.5 -93v-176h-68v46q-12 -24 -35 -37.5t-52 -13.5q-45 0 -74 26.5t-29 62.5q0 32 16.5 50.5t53.5 27t103 8.5h16v17q0 30 -14 43.5t-43 13.5q-49 0 -98 -30l-19 51q24 15 56.5 24t65.5 9q60 0 90.5 -29zM199 477.5q20 19.5 20 52.5v14h-10
q-46 0 -70 -4.5t-32.5 -13.5t-8.5 -25q0 -18 14 -30.5t37 -12.5q30 0 50 19.5z" />
    <glyph glyph-name="ordmasculine" unicode="&#xba;" horiz-adv-x="342" 
d="M61.5 449q-39.5 42 -39.5 110q0 67 39.5 109t108.5 42q70 0 110 -42t40 -109q0 -68 -40 -110t-110 -42q-69 0 -108.5 42zM228.5 488.5q19.5 24.5 19.5 70.5q0 45 -20 69.5t-58 24.5q-37 0 -56.5 -24.5t-19.5 -69.5q0 -46 19.5 -70.5t56.5 -24.5q39 0 58.5 24.5z" />
    <glyph glyph-name="uni0394" unicode="&#x394;" horiz-adv-x="727" 
d="M615 207l75 -177l-475 -30l-183 21l220 527l110 157zM123 70h476l-238 537z" />
    <glyph glyph-name="Sigma" unicode="&#x3a3;" horiz-adv-x="582" 
d="M539 705v-69h-401l242 -345l-1 -56l-241 -346h401v-69h-498v60l267 383l-267 382v60h498z" />
    <glyph glyph-name="uni03A9" unicode="&#x3a9;" horiz-adv-x="779" 
d="M706.5 351.5q-16.5 -48.5 -56 -113.5t-116.5 -169h182v-69h-261v66q106 159 145 240t39 142q0 91 -66.5 143t-183.5 52q-116 0 -182.5 -52t-66.5 -143q0 -61 39.5 -143t144.5 -239v-66h-261v69h182q-79 111 -119 176t-55 110.5t-15 94.5q0 80 41 139.5t116 92t176 32.5
t176.5 -32.5t116.5 -92.5t41 -139q0 -50 -16.5 -98.5z" />
    <glyph glyph-name="uni03BC" unicode="&#x3bc;" horiz-adv-x="561" 
d="M485 487v-487h-79v83q-23 -44 -64.5 -67t-93.5 -23q-59 0 -94 25v-198h-81v667h81v-300q0 -65 26 -95.5t82 -30.5q64 0 103 41.5t39 109.5v275h81z" />
    <glyph glyph-name="pi" unicode="&#x3c0;" horiz-adv-x="580" 
d="M572 57l-7 -64l-45 3q-92 6 -136 51t-44 135v241h-155q-2 -124 -18 -226.5t-49 -196.5h-86q67 199 73 423h-100v64h534v-64h-118v-251q0 -53 26 -80.5t79 -30.5z" />
    <glyph glyph-name="zero" unicode="0" 
d="M116 84q-63 92 -63 268q0 177 63 269t184 92t184 -91.5t63 -268.5t-63 -269t-184 -92t-184 92zM424 132q40 71 40 221q0 151 -39.5 220.5t-124.5 69.5q-84 0 -124 -70t-40 -220t40 -221t124 -71t124 71z" />
    <glyph glyph-name="one" unicode="1" 
d="M367 69h155v-69h-392v69h155v534l-124 -78l-38 63l185 117h59v-636z" />
    <glyph glyph-name="two" unicode="2" 
d="M539 69v-69h-454v62l247 272q50 56 72.5 100.5t22.5 89.5q0 58 -34 89t-96 31q-102 0 -200 -81l-31 63q42 40 105.5 63.5t127.5 23.5q97 0 153.5 -50t56.5 -135q0 -61 -27.5 -117t-90.5 -125l-200 -217h348z" />
    <glyph glyph-name="three" unicode="3" 
d="M492 300.5q33 -43.5 33 -109.5q0 -92 -62.5 -145t-169.5 -53q-68 0 -131 23t-106 64l31 63q96 -81 204 -81q75 0 114 33.5t39 98.5q0 129 -162 129h-81v69h65q78 0 120 34.5t42 99.5q0 57 -34 87.5t-97 30.5q-102 0 -200 -81l-31 63q43 41 105 64t129 23
q96 0 152.5 -48.5t56.5 -130.5q0 -61 -29.5 -106.5t-82.5 -65.5q62 -18 95 -61.5z" />
    <glyph glyph-name="four" unicode="4" 
d="M564 221v-68h-106v-153h-81v153h-326v62l340 490h67v-484h106zM136 221h241v347z" />
    <glyph glyph-name="five" unicode="5" 
d="M446.5 414q49.5 -28 76.5 -78.5t27 -116.5q0 -67 -29.5 -118t-83.5 -79.5t-126 -28.5q-64 0 -126.5 23.5t-105.5 63.5l31 63q98 -81 201 -81q74 0 116 42t42 114q0 70 -41.5 113t-110.5 43q-101 0 -161 -82h-57v413h423v-68h-342v-251q28 27 66.5 41.5t83.5 14.5
q67 0 116.5 -28z" />
    <glyph glyph-name="six" unicode="6" horiz-adv-x="599" 
d="M444 415q50 -28 78 -79t28 -117q0 -65 -29 -117t-81 -81t-117 -29q-128 0 -197.5 89t-69.5 254q0 119 32.5 204t93.5 129.5t146 44.5q61 0 119 -22.5t102 -64.5l-31 -63q-50 42 -95.5 61.5t-92.5 19.5q-91 0 -141.5 -80.5t-50.5 -227.5v-15q23 56 74 89t118 33
q64 0 114 -28zM428 104q41 43 41 114q0 70 -41.5 113t-109.5 43q-69 0 -112.5 -43.5t-43.5 -112.5q0 -70 43.5 -113.5t113.5 -43.5q68 0 109 43z" />
    <glyph glyph-name="seven" unicode="7" 
d="M67 705h466v-61l-330 -644h-89l329 636h-376v69z" />
    <glyph glyph-name="eight" unicode="8" 
d="M518.5 297q34.5 -46 34.5 -110q0 -91 -66 -142.5t-187 -51.5t-187 51.5t-66 142.5q0 65 35 111t97 64q-53 20 -84 63t-31 101q0 86 62.5 136.5t173.5 50.5t173.5 -50.5t62.5 -136.5q0 -58 -31 -101.5t-83 -62.5q62 -19 96.5 -65zM184.5 425q39.5 -33 115.5 -33t115.5 33
t39.5 95q0 59 -39.5 92t-115.5 33t-115.5 -33t-39.5 -92q0 -62 39.5 -95zM472 192q0 131 -172 131t-172 -131t172 -131t172 131z" />
    <glyph glyph-name="nine" unicode="9" 
d="M475.5 624q69.5 -89 69.5 -254q0 -179 -72 -278.5t-201 -99.5q-60 0 -118 22.5t-102 64.5l31 63q50 -42 95.5 -61.5t92.5 -19.5q91 0 141 80.5t50 227.5v13q-23 -56 -74.5 -88t-116.5 -32q-64 0 -114 28t-78 79t-28 117q0 65 29 117t81 81t117 29q128 0 197.5 -89z
M395.5 374.5q43.5 43.5 43.5 112.5q0 70 -43.5 113.5t-113.5 43.5q-68 0 -109 -43t-41 -114t41.5 -113.5t109.5 -42.5q69 0 112.5 43.5z" />
    <glyph glyph-name="one.ss01" 
d="M311 705h60v-705h-82v603l-125 -78l-38 63z" />
    <glyph glyph-name="one.tosf.ss01" 
d="M311 487h60v-487h-82v384l-125 -78l-38 63z" />
    <glyph glyph-name="zero.tosf" 
d="M171.5 24q-56.5 32 -88 89.5t-31.5 131.5t32 132t88.5 90t127.5 32q72 0 128.5 -32t88 -89.5t31.5 -131.5t-32 -132t-88.5 -90t-127.5 -32q-72 0 -128.5 32zM421.5 110.5q45.5 51.5 45.5 135.5t-45.5 135t-121.5 51t-121.5 -51t-45.5 -135t46 -135.5t121 -51.5
q76 0 121.5 51.5z" />
    <glyph glyph-name="one.tosf" 
d="M367 64h155v-64h-392v64h155v328l-127 -80l-35 57l185 118h59v-423z" />
    <glyph glyph-name="two.tosf" 
d="M513 66v-66h-414v61q170 80 241.5 145t71.5 129q0 48 -30.5 72t-87.5 24q-88 0 -184 -56l-27 60q46 31 102.5 47.5t114.5 16.5q91 0 143 -41t52 -116q0 -76 -63.5 -143.5t-203.5 -132.5h285z" />
    <glyph glyph-name="three.tosf" 
d="M477.5 105q32.5 -43 32.5 -103q0 -56 -28 -99t-78.5 -66.5t-115.5 -23.5q-63 0 -121.5 16.5t-103.5 46.5l27 60q50 -29 96 -42.5t100 -13.5q68 0 105.5 33t37.5 92t-40.5 90.5t-116.5 31.5h-71v66h55q73 0 115 34.5t42 94.5q0 52 -31 80.5t-92 28.5q-85 0 -180 -56
l-27 60q44 30 100 47t109 17q97 0 149.5 -46t52.5 -125q0 -55 -29.5 -99.5t-79.5 -63.5q60 -17 92.5 -60z" />
    <glyph glyph-name="four.tosf" 
d="M549 66v-66h-96v-180h-79v180h-318v62l330 425h67v-421h96zM138 66h236v306z" />
    <glyph glyph-name="five.tosf" 
d="M439 214q48 -27 74 -75.5t26 -111.5q0 -64 -28.5 -112.5t-81 -75t-122.5 -26.5q-57 0 -113.5 16.5t-98.5 46.5l27 60q93 -56 184 -56q72 0 112 40t40 107q0 65 -39 106t-106 41q-47 0 -87 -21t-70 -61h-53v395h408v-66h-330v-237q29 27 67 42t79 15q64 0 112 -27z" />
    <glyph glyph-name="six.tosf" 
d="M440.5 415.5q48.5 -27.5 76.5 -78.5t28 -119q0 -65 -28.5 -116.5t-79.5 -80.5t-114 -29q-125 0 -193.5 89t-68.5 254q0 118 32 203t93 130t145 45q49 0 102.5 -16.5t96.5 -46.5l-27 -60q-91 56 -169 56q-90 0 -141 -80.5t-51 -226.5v-19q22 57 73 90t115 33
q62 0 110.5 -27.5zM424.5 102.5q40.5 43.5 40.5 115.5q0 70 -41 113.5t-106 43.5q-66 0 -109.5 -44t-43.5 -113q0 -71 43.5 -115t110.5 -44q65 0 105.5 43.5z" />
    <glyph glyph-name="seven.tosf" 
d="M77 487h446v-62l-321 -606h-87l320 602h-358v66z" />
    <glyph glyph-name="eight.tosf" 
d="M512.5 297.5q35.5 -45.5 35.5 -110.5q0 -90 -67 -142t-181 -52t-181 52t-67 142q0 64 35.5 110t98.5 64q-54 20 -85.5 64t-31.5 101q0 56 28.5 98.5t81 65.5t121.5 23q105 0 168 -51t63 -136q0 -58 -31.5 -102t-85.5 -63q63 -18 98.5 -63.5zM189 426q41 -35 111 -35
t111 35t41 94t-41 92.5t-111 33.5t-111 -33.5t-41 -92.5t41 -94zM424 94q44 34 44 97t-44 97.5t-124 34.5t-124 -34.5t-44 -97.5t44 -97t124 -34t124 34z" />
    <glyph glyph-name="nine.tosf" 
d="M471 408.5q69 -87.5 69 -243.5q0 -103 -32.5 -183t-94 -124.5t-144.5 -44.5q-48 0 -102 17t-96 47l27 60q89 -56 169 -56q89 0 140.5 76t51.5 204v9q-22 -57 -72.5 -90t-113.5 -33t-112.5 28t-77 78.5t-27.5 116.5q0 64 29 115.5t79.5 81t113.5 29.5q124 0 193 -87.5z
M361 135q35 20 55 55.5t20 80.5q0 69 -43.5 113t-110.5 44q-65 0 -105.5 -43.5t-40.5 -113.5q0 -69 41 -112.5t106 -43.5q43 0 78 20z" />
    <glyph glyph-name="uni2080" unicode="&#x2080;" horiz-adv-x="380" 
d="M75 50.5q-41 54.5 -41 161.5q0 106 41 160.5t115 54.5t115 -54.5t41 -160.5q0 -107 -41 -161.5t-115 -54.5t-115 54.5zM252 91.5q20 37.5 20 120.5q0 81 -20 119t-62 38t-62 -38t-20 -119q0 -83 20 -120.5t62 -37.5t62 37.5z" />
    <glyph glyph-name="uni2081" unicode="&#x2081;" horiz-adv-x="380" 
d="M252 60h75v-60h-223v60h75v281l-67 -42l-32 53l117 71h55v-363z" />
    <glyph glyph-name="uni2082" unicode="&#x2082;" horiz-adv-x="380" 
d="M335 60v-60h-281v54l142 157q26 28 38.5 51.5t12.5 46.5q0 29 -17.5 44t-48.5 15q-27 0 -58 -11.5t-59 -33.5l-25 53q29 23 69 37t80 14q61 0 97 -32t36 -82q0 -36 -17 -69.5t-56 -74.5l-105 -109h192z" />
    <glyph glyph-name="uni2083" unicode="&#x2083;" horiz-adv-x="380" 
d="M309.5 181.5q20.5 -25.5 20.5 -65.5q0 -55 -39.5 -87.5t-106.5 -32.5q-41 0 -81.5 14.5t-68.5 37.5l24 52q63 -45 122 -45q38 0 59 16t21 49q0 65 -84 65h-56v58h45q40 0 62 16.5t22 49.5q0 29 -18 44t-49 15q-59 0 -118 -45l-25 53q29 22 68.5 36.5t78.5 14.5
q63 0 98.5 -31.5t35.5 -80.5q0 -35 -18.5 -60t-49.5 -37q37 -11 57.5 -36.5z" />
    <glyph glyph-name="uni2084" unicode="&#x2084;" horiz-adv-x="380" 
d="M357 140v-57h-62v-83h-69v83h-192v53l202 287h59v-283h62zM102 140h124v177z" />
    <glyph glyph-name="uni2085" unicode="&#x2085;" horiz-adv-x="380" 
d="M305 233q37 -36 37 -97q0 -63 -42.5 -101.5t-107.5 -38.5q-39 0 -79 14.5t-67 37.5l25 52q58 -44 116 -44q40 0 63 20.5t23 57.5q0 34 -22.5 55.5t-58.5 21.5q-51 0 -90 -37h-43v249h264v-59h-195v-121q32 26 81 26q59 0 96 -36z" />
    <glyph glyph-name="uni2086" unicode="&#x2086;" horiz-adv-x="380" 
d="M309.5 232q37.5 -36 37.5 -97q0 -63 -41 -101t-103 -38q-76 0 -120.5 51.5t-44.5 154.5q0 112 48.5 168.5t125.5 56.5q35 0 72.5 -14t65.5 -37l-25 -53q-57 45 -112 45q-47 0 -75 -38.5t-29 -118.5q15 26 43.5 41.5t62.5 15.5q57 0 94.5 -36zM257.5 74q21.5 22 21.5 59
q0 36 -21.5 58t-56.5 22t-57.5 -22t-22.5 -58q0 -37 22 -59t58 -22q35 0 56.5 22z" />
    <glyph glyph-name="uni2087" unicode="&#x2087;" horiz-adv-x="380" 
d="M44 423h292v-57l-186 -366h-80l186 362h-212v61z" />
    <glyph glyph-name="uni2088" unicode="&#x2088;" horiz-adv-x="380" 
d="M328 180q21 -27 21 -65q0 -55 -42 -87t-117 -32t-117 32t-42 87q0 38 20.5 65t57.5 38q-32 12 -50 37.5t-18 58.5q0 52 39.5 82.5t109.5 30.5t109.5 -30.5t39.5 -82.5q0 -34 -18 -59.5t-50 -36.5q36 -11 57 -38zM130.5 353.5q-20.5 -16.5 -20.5 -46.5q0 -31 20.5 -48
t59.5 -17t59.5 17t20.5 48q0 30 -20.5 46.5t-59.5 16.5t-59.5 -16.5zM280 119q0 67 -90 67t-90 -67q0 -66 90 -66t90 66z" />
    <glyph glyph-name="uni2089" unicode="&#x2089;" horiz-adv-x="380" 
d="M297.5 375.5q44.5 -51.5 44.5 -154.5q0 -112 -48.5 -168.5t-125.5 -56.5q-35 0 -72.5 14t-65.5 37l25 53q59 -45 112 -45q47 0 75 38.5t29 118.5q-15 -26 -43.5 -41.5t-62.5 -15.5q-57 0 -94 36t-37 97q0 63 40.5 101t102.5 38q76 0 120.5 -51.5zM236.5 232
q22.5 22 22.5 58q0 37 -22 59t-58 22q-35 0 -56.5 -22t-21.5 -59q0 -36 21.5 -58t56.5 -22t57.5 22z" />
    <glyph glyph-name="zero.dnom" horiz-adv-x="380" 
d="M75 50.5q-41 54.5 -41 161.5q0 106 41 160.5t115 54.5t115 -54.5t41 -160.5q0 -107 -41 -161.5t-115 -54.5t-115 54.5zM252 91.5q20 37.5 20 120.5q0 81 -20 119t-62 38t-62 -38t-20 -119q0 -83 20 -120.5t62 -37.5t62 37.5z" />
    <glyph glyph-name="one.dnom" horiz-adv-x="380" 
d="M252 60h75v-60h-223v60h75v281l-67 -42l-32 53l117 71h55v-363z" />
    <glyph glyph-name="two.dnom" horiz-adv-x="380" 
d="M335 60v-60h-281v54l142 157q26 28 38.5 51.5t12.5 46.5q0 29 -17.5 44t-48.5 15q-27 0 -58 -11.5t-59 -33.5l-25 53q29 23 69 37t80 14q61 0 97 -32t36 -82q0 -36 -17 -69.5t-56 -74.5l-105 -109h192z" />
    <glyph glyph-name="three.dnom" horiz-adv-x="380" 
d="M309.5 181.5q20.5 -25.5 20.5 -65.5q0 -55 -39.5 -87.5t-106.5 -32.5q-41 0 -81.5 14.5t-68.5 37.5l24 52q63 -45 122 -45q38 0 59 16t21 49q0 65 -84 65h-56v58h45q40 0 62 16.5t22 49.5q0 29 -18 44t-49 15q-59 0 -118 -45l-25 53q29 22 68.5 36.5t78.5 14.5
q63 0 98.5 -31.5t35.5 -80.5q0 -35 -18.5 -60t-49.5 -37q37 -11 57.5 -36.5z" />
    <glyph glyph-name="four.dnom" horiz-adv-x="380" 
d="M357 140v-57h-62v-83h-69v83h-192v53l202 287h59v-283h62zM102 140h124v177z" />
    <glyph glyph-name="five.dnom" horiz-adv-x="380" 
d="M305 233q37 -36 37 -97q0 -63 -42.5 -101.5t-107.5 -38.5q-39 0 -79 14.5t-67 37.5l25 52q58 -44 116 -44q40 0 63 20.5t23 57.5q0 34 -22.5 55.5t-58.5 21.5q-51 0 -90 -37h-43v249h264v-59h-195v-121q32 26 81 26q59 0 96 -36z" />
    <glyph glyph-name="six.dnom" horiz-adv-x="380" 
d="M309.5 232q37.5 -36 37.5 -97q0 -63 -41 -101t-103 -38q-76 0 -120.5 51.5t-44.5 154.5q0 112 48.5 168.5t125.5 56.5q35 0 72.5 -14t65.5 -37l-25 -53q-57 45 -112 45q-47 0 -75 -38.5t-29 -118.5q15 26 43.5 41.5t62.5 15.5q57 0 94.5 -36zM257.5 74q21.5 22 21.5 59
q0 36 -21.5 58t-56.5 22t-57.5 -22t-22.5 -58q0 -37 22 -59t58 -22q35 0 56.5 22z" />
    <glyph glyph-name="seven.dnom" horiz-adv-x="380" 
d="M44 423h292v-57l-186 -366h-80l186 362h-212v61z" />
    <glyph glyph-name="eight.dnom" horiz-adv-x="380" 
d="M328 180q21 -27 21 -65q0 -55 -42 -87t-117 -32t-117 32t-42 87q0 38 20.5 65t57.5 38q-32 12 -50 37.5t-18 58.5q0 52 39.5 82.5t109.5 30.5t109.5 -30.5t39.5 -82.5q0 -34 -18 -59.5t-50 -36.5q36 -11 57 -38zM130.5 353.5q-20.5 -16.5 -20.5 -46.5q0 -31 20.5 -48
t59.5 -17t59.5 17t20.5 48q0 30 -20.5 46.5t-59.5 16.5t-59.5 -16.5zM280 119q0 67 -90 67t-90 -67q0 -66 90 -66t90 66z" />
    <glyph glyph-name="nine.dnom" horiz-adv-x="380" 
d="M297.5 375.5q44.5 -51.5 44.5 -154.5q0 -112 -48.5 -168.5t-125.5 -56.5q-35 0 -72.5 14t-65.5 37l25 53q59 -45 112 -45q47 0 75 38.5t29 118.5q-15 -26 -43.5 -41.5t-62.5 -15.5q-57 0 -94 36t-37 97q0 63 40.5 101t102.5 38q76 0 120.5 -51.5zM236.5 232
q22.5 22 22.5 58q0 37 -22 59t-58 22q-35 0 -56.5 -22t-21.5 -59q0 -36 21.5 -58t56.5 -22t57.5 22z" />
    <glyph glyph-name="zero.numr" horiz-adv-x="380" 
d="M75 332.5q-41 54.5 -41 161.5q0 106 41 160.5t115 54.5t115 -54.5t41 -160.5q0 -107 -41 -161.5t-115 -54.5t-115 54.5zM252 373.5q20 37.5 20 120.5q0 81 -20 119t-62 38t-62 -38t-20 -119q0 -83 20 -120.5t62 -37.5t62 37.5z" />
    <glyph glyph-name="one.numr" horiz-adv-x="380" 
d="M252 342h75v-60h-223v60h75v281l-67 -42l-32 53l117 71h55v-363z" />
    <glyph glyph-name="two.numr" horiz-adv-x="380" 
d="M335 342v-60h-281v54l142 157q26 28 38.5 51.5t12.5 46.5q0 29 -17.5 44t-48.5 15q-27 0 -58 -11.5t-59 -33.5l-25 53q29 23 69 37t80 14q61 0 97 -32t36 -82q0 -36 -17 -69.5t-56 -74.5l-105 -109h192z" />
    <glyph glyph-name="three.numr" horiz-adv-x="380" 
d="M309.5 463.5q20.5 -25.5 20.5 -65.5q0 -55 -39.5 -87.5t-106.5 -32.5q-41 0 -81.5 14.5t-68.5 37.5l24 52q63 -45 122 -45q38 0 59 16t21 49q0 65 -84 65h-56v58h45q40 0 62 16.5t22 49.5q0 29 -18 44t-49 15q-59 0 -118 -45l-25 53q29 22 68.5 36.5t78.5 14.5
q63 0 98.5 -31.5t35.5 -80.5q0 -35 -18.5 -60t-49.5 -37q37 -11 57.5 -36.5z" />
    <glyph glyph-name="four.numr" horiz-adv-x="380" 
d="M357 422v-57h-62v-83h-69v83h-192v53l202 287h59v-283h62zM102 422h124v177z" />
    <glyph glyph-name="five.numr" horiz-adv-x="380" 
d="M305 515q37 -36 37 -97q0 -63 -42.5 -101.5t-107.5 -38.5q-39 0 -79 14.5t-67 37.5l25 52q58 -44 116 -44q40 0 63 20.5t23 57.5q0 34 -22.5 55.5t-58.5 21.5q-51 0 -90 -37h-43v249h264v-59h-195v-121q32 26 81 26q59 0 96 -36z" />
    <glyph glyph-name="six.numr" horiz-adv-x="380" 
d="M309.5 514q37.5 -36 37.5 -97q0 -63 -41 -101t-103 -38q-76 0 -120.5 51.5t-44.5 154.5q0 112 48.5 168.5t125.5 56.5q35 0 72.5 -14t65.5 -37l-25 -53q-57 45 -112 45q-47 0 -75 -38.5t-29 -118.5q15 26 43.5 41.5t62.5 15.5q57 0 94.5 -36zM257.5 356q21.5 22 21.5 59
q0 36 -21.5 58t-56.5 22t-57.5 -22t-22.5 -58q0 -37 22 -59t58 -22q35 0 56.5 22z" />
    <glyph glyph-name="seven.numr" horiz-adv-x="380" 
d="M44 705h292v-57l-186 -366h-80l186 362h-212v61z" />
    <glyph glyph-name="eight.numr" horiz-adv-x="380" 
d="M328 462q21 -27 21 -65q0 -55 -42 -87t-117 -32t-117 32t-42 87q0 38 20.5 65t57.5 38q-32 12 -50 37.5t-18 58.5q0 52 39.5 82.5t109.5 30.5t109.5 -30.5t39.5 -82.5q0 -34 -18 -59.5t-50 -36.5q36 -11 57 -38zM130.5 635.5q-20.5 -16.5 -20.5 -46.5q0 -31 20.5 -48
t59.5 -17t59.5 17t20.5 48q0 30 -20.5 46.5t-59.5 16.5t-59.5 -16.5zM280 401q0 67 -90 67t-90 -67q0 -66 90 -66t90 66z" />
    <glyph glyph-name="nine.numr" horiz-adv-x="380" 
d="M297.5 657.5q44.5 -51.5 44.5 -154.5q0 -112 -48.5 -168.5t-125.5 -56.5q-35 0 -72.5 14t-65.5 37l25 53q59 -45 112 -45q47 0 75 38.5t29 118.5q-15 -26 -43.5 -41.5t-62.5 -15.5q-57 0 -94 36t-37 97q0 63 40.5 101t102.5 38q76 0 120.5 -51.5zM236.5 514
q22.5 22 22.5 58q0 37 -22 59t-58 22q-35 0 -56.5 -22t-21.5 -59q0 -36 21.5 -58t56.5 -22t57.5 22z" />
    <glyph glyph-name="uni2070" unicode="&#x2070;" horiz-adv-x="380" 
d="M75 332.5q-41 54.5 -41 161.5q0 106 41 160.5t115 54.5t115 -54.5t41 -160.5q0 -107 -41 -161.5t-115 -54.5t-115 54.5zM252 373.5q20 37.5 20 120.5q0 81 -20 119t-62 38t-62 -38t-20 -119q0 -83 20 -120.5t62 -37.5t62 37.5z" />
    <glyph glyph-name="uni00B9" unicode="&#xb9;" horiz-adv-x="380" 
d="M252 342h75v-60h-223v60h75v281l-67 -42l-32 53l117 71h55v-363z" />
    <glyph glyph-name="uni00B2" unicode="&#xb2;" horiz-adv-x="380" 
d="M335 342v-60h-281v54l142 157q26 28 38.5 51.5t12.5 46.5q0 29 -17.5 44t-48.5 15q-27 0 -58 -11.5t-59 -33.5l-25 53q29 23 69 37t80 14q61 0 97 -32t36 -82q0 -36 -17 -69.5t-56 -74.5l-105 -109h192z" />
    <glyph glyph-name="uni00B3" unicode="&#xb3;" horiz-adv-x="380" 
d="M309.5 463.5q20.5 -25.5 20.5 -65.5q0 -55 -39.5 -87.5t-106.5 -32.5q-41 0 -81.5 14.5t-68.5 37.5l24 52q63 -45 122 -45q38 0 59 16t21 49q0 65 -84 65h-56v58h45q40 0 62 16.5t22 49.5q0 29 -18 44t-49 15q-59 0 -118 -45l-25 53q29 22 68.5 36.5t78.5 14.5
q63 0 98.5 -31.5t35.5 -80.5q0 -35 -18.5 -60t-49.5 -37q37 -11 57.5 -36.5z" />
    <glyph glyph-name="uni2074" unicode="&#x2074;" horiz-adv-x="380" 
d="M357 422v-57h-62v-83h-69v83h-192v53l202 287h59v-283h62zM102 422h124v177z" />
    <glyph glyph-name="uni2075" unicode="&#x2075;" horiz-adv-x="380" 
d="M305 515q37 -36 37 -97q0 -63 -42.5 -101.5t-107.5 -38.5q-39 0 -79 14.5t-67 37.5l25 52q58 -44 116 -44q40 0 63 20.5t23 57.5q0 34 -22.5 55.5t-58.5 21.5q-51 0 -90 -37h-43v249h264v-59h-195v-121q32 26 81 26q59 0 96 -36z" />
    <glyph glyph-name="uni2076" unicode="&#x2076;" horiz-adv-x="380" 
d="M309.5 514q37.5 -36 37.5 -97q0 -63 -41 -101t-103 -38q-76 0 -120.5 51.5t-44.5 154.5q0 112 48.5 168.5t125.5 56.5q35 0 72.5 -14t65.5 -37l-25 -53q-57 45 -112 45q-47 0 -75 -38.5t-29 -118.5q15 26 43.5 41.5t62.5 15.5q57 0 94.5 -36zM257.5 356q21.5 22 21.5 59
q0 36 -21.5 58t-56.5 22t-57.5 -22t-22.5 -58q0 -37 22 -59t58 -22q35 0 56.5 22z" />
    <glyph glyph-name="uni2077" unicode="&#x2077;" horiz-adv-x="380" 
d="M44 705h292v-57l-186 -366h-80l186 362h-212v61z" />
    <glyph glyph-name="uni2078" unicode="&#x2078;" horiz-adv-x="380" 
d="M328 462q21 -27 21 -65q0 -55 -42 -87t-117 -32t-117 32t-42 87q0 38 20.5 65t57.5 38q-32 12 -50 37.5t-18 58.5q0 52 39.5 82.5t109.5 30.5t109.5 -30.5t39.5 -82.5q0 -34 -18 -59.5t-50 -36.5q36 -11 57 -38zM130.5 635.5q-20.5 -16.5 -20.5 -46.5q0 -31 20.5 -48
t59.5 -17t59.5 17t20.5 48q0 30 -20.5 46.5t-59.5 16.5t-59.5 -16.5zM280 401q0 67 -90 67t-90 -67q0 -66 90 -66t90 66z" />
    <glyph glyph-name="uni2079" unicode="&#x2079;" horiz-adv-x="380" 
d="M297.5 657.5q44.5 -51.5 44.5 -154.5q0 -112 -48.5 -168.5t-125.5 -56.5q-35 0 -72.5 14t-65.5 37l25 53q59 -45 112 -45q47 0 75 38.5t29 118.5q-15 -26 -43.5 -41.5t-62.5 -15.5q-57 0 -94 36t-37 97q0 63 40.5 101t102.5 38q76 0 120.5 -51.5zM236.5 514
q22.5 22 22.5 58q0 37 -22 59t-58 22q-35 0 -56.5 -22t-21.5 -59q0 -36 21.5 -58t56.5 -22t57.5 22z" />
    <glyph glyph-name="fraction" unicode="&#x2044;" horiz-adv-x="173" 
d="M-92 -25l-59 34l417 721l58 -34z" />
    <glyph glyph-name="onehalf" unicode="&#xbd;" horiz-adv-x="933" 
d="M252 342h75v-60h-223v60h75v281l-67 -42l-32 53l117 71h55v-363zM288 -25l-59 34l417 721l58 -34zM888 60v-60h-281v54l142 157q26 28 38.5 51.5t12.5 46.5q0 29 -17.5 44t-48.5 15q-27 0 -58 -11.5t-59 -33.5l-25 53q29 23 69 37t80 14q61 0 97 -32t36 -82
q0 -36 -17 -69.5t-56 -74.5l-105 -109h192z" />
    <glyph glyph-name="onequarter" unicode="&#xbc;" horiz-adv-x="933" 
d="M252 342h75v-60h-223v60h75v281l-67 -42l-32 53l117 71h55v-363zM288 -25l-59 34l417 721l58 -34zM910 140v-57h-62v-83h-69v83h-192v53l202 287h59v-283h62zM655 140h124v177z" />
    <glyph glyph-name="threequarters" unicode="&#xbe;" horiz-adv-x="933" 
d="M309.5 463.5q20.5 -25.5 20.5 -65.5q0 -55 -39.5 -87.5t-106.5 -32.5q-41 0 -81.5 14.5t-68.5 37.5l24 52q63 -45 122 -45q38 0 59 16t21 49q0 65 -84 65h-56v58h45q40 0 62 16.5t22 49.5q0 29 -18 44t-49 15q-59 0 -118 -45l-25 53q29 22 68.5 36.5t78.5 14.5
q63 0 98.5 -31.5t35.5 -80.5q0 -35 -18.5 -60t-49.5 -37q37 -11 57.5 -36.5zM288 -25l-59 34l417 721l58 -34zM910 140v-57h-62v-83h-69v83h-192v53l202 287h59v-283h62zM655 140h124v177z" />
    <glyph glyph-name="asterisk" unicode="*" horiz-adv-x="450" 
d="M416 565v-62l-147 5l78 -124l-53 -31l-69 131l-70 -131l-52 31l78 124l-148 -5v62l148 -5l-78 124l53 31l69 -130l69 130l53 -31l-78 -124z" />
    <glyph glyph-name="backslash" unicode="\" horiz-adv-x="282" 
d="M235 -65l-255 796l67 22l255 -796z" />
    <glyph glyph-name="periodcentered" unicode="&#xb7;" horiz-adv-x="229" 
d="M63 317h102v-102h-102v102z" />
    <glyph glyph-name="bullet" unicode="&#x2022;" horiz-adv-x="524" 
d="M172 111.5q-42 23.5 -66.5 64t-24.5 89.5q0 46 23.5 87t65 66t92.5 25q48 0 89.5 -23.5t66.5 -64t25 -90.5q0 -48 -24.5 -88.5t-66 -64.5t-90.5 -24q-48 0 -90 23.5z" />
    <glyph glyph-name="colon" unicode=":" horiz-adv-x="229" 
d="M63 487h102v-103h-102v103zM63 102h102v-102h-102v102z" />
    <glyph glyph-name="comma" unicode="," horiz-adv-x="229" 
d="M165 102v-72q0 -42 -13.5 -76.5t-46.5 -67.5l-38 29q39 43 44 85h-48v102h102z" />
    <glyph glyph-name="ellipsis" unicode="&#x2026;" horiz-adv-x="687" 
d="M63 102h102v-102h-102v102zM292 102h102v-102h-102v102zM521 102h102v-102h-102v102z" />
    <glyph glyph-name="exclam" unicode="!" horiz-adv-x="229" 
d="M89 185l-25 520h101l-26 -520h-50zM63 102h102v-102h-102v102z" />
    <glyph glyph-name="exclamdown" unicode="&#xa1;" horiz-adv-x="229" 
d="M63 384v103h102v-103h-102zM89 301h50l26 -481h-101z" />
    <glyph glyph-name="numbersign" unicode="#" 
d="M565 472h-99l-45 -231h124v-59h-135l-36 -182h-63l35 182h-159l-35 -182h-64l36 182h-89v59h100l45 231h-125v59h137l34 174h63l-34 -174h159l34 174h64l-34 -174h87v-59zM358 241l45 231h-159l-45 -231h159z" />
    <glyph glyph-name="period" unicode="." horiz-adv-x="229" 
d="M63 102h102v-102h-102v102z" />
    <glyph glyph-name="question" unicode="?" horiz-adv-x="443" 
d="M183 209q0 62 22 105.5t64 96.5q34 43 50.5 73t16.5 67q0 43 -30 67.5t-82 24.5q-47 0 -96 -20.5t-96 -59.5l-32 63q43 40 105 63.5t123 23.5q85 0 138 -43t53 -113q0 -53 -23 -92t-69 -91q-43 -49 -66 -86t-28 -86l-2 -18h-48v25zM157 0v102h102v-102h-102z" />
    <glyph glyph-name="questiondown" unicode="&#xbf;" horiz-adv-x="443" 
d="M184 384v103h102v-103h-102zM77.5 -145q-53.5 42 -53.5 112q0 35 12.5 63.5t30 49.5t48.5 50q43 41 66 74t28 81l3 18h48v-25q0 -42 -12 -74.5t-29 -55t-45 -51.5q-34 -36 -50.5 -62.5t-16.5 -62.5q0 -40 30 -65t81 -25q47 0 96 20.5t97 59.5l31 -62q-42 -40 -104 -63.5
t-123 -23.5q-84 0 -137.5 42z" />
    <glyph glyph-name="quotedbl" unicode="&#x22;" horiz-adv-x="421" 
d="M84 428l-22 277h96l-20 -277h-54zM284 428l-22 277h96l-20 -277h-54z" />
    <glyph glyph-name="quotesingle" unicode="'" horiz-adv-x="221" 
d="M84 428l-22 277h96l-20 -277h-54z" />
    <glyph glyph-name="semicolon" unicode=";" horiz-adv-x="229" 
d="M63 487h102v-103h-102v103zM63 102h102v-72q0 -42 -13.5 -76.5t-46.5 -67.5l-38 29q39 43 44 85h-48v102z" />
    <glyph glyph-name="slash" unicode="/" horiz-adv-x="283" 
d="M47 -65l-67 22l255 796l67 -22z" />
    <glyph glyph-name="underscore" unicode="_" horiz-adv-x="500" 
d="M8 -53v53h484v-53h-484z" />
    <glyph glyph-name="periodcentered.loclCAT" horiz-adv-x="300" 
d="M99 302h102v-94h-102v94z" />
    <glyph glyph-name="braceleft" unicode="{" horiz-adv-x="351" 
d="M204.5 297q-21.5 -27 -51.5 -34q30 -7 51.5 -34t21.5 -71v-229q0 -45 43 -45h74v-64h-96q-49 0 -75 26.5t-26 75.5v227q0 41 -15.5 60t-54.5 21l-27 2v62l27 2q39 2 54.5 20.5t15.5 59.5v227q0 49 26 75.5t75 26.5h96v-64h-74q-43 0 -43 -45v-228q0 -44 -21.5 -71z" />
    <glyph glyph-name="braceright" unicode="}" horiz-adv-x="351" 
d="M302 294v-62l-27 -2q-39 -2 -54.5 -21t-15.5 -60v-227q0 -49 -26 -75.5t-75 -26.5h-96v64h73q44 0 44 45v229q0 44 21.5 71t51.5 34q-30 7 -51.5 34t-21.5 71v228q0 45 -44 45h-73v64h96q49 0 75 -26.5t26 -75.5v-227q0 -41 15.5 -59.5t54.5 -20.5z" />
    <glyph glyph-name="bracketleft" unicode="[" horiz-adv-x="314" 
d="M109 -180v885h197v-64h-117v-757h117v-64h-197z" />
    <glyph glyph-name="bracketright" unicode="]" horiz-adv-x="314" 
d="M205 -180h-197v64h117v757h-117v64h197v-885z" />
    <glyph glyph-name="parenleft" unicode="(" horiz-adv-x="314" 
d="M131 35.5q-28 110.5 -28 227.5t28 227t92 229l56 -23q-50 -118 -71.5 -223t-21.5 -210t21.5 -210t71.5 -223l-56 -23q-64 118 -92 228.5z" />
    <glyph glyph-name="parenright" unicode=")" horiz-adv-x="314" 
d="M35 -170q50 118 71.5 223t21.5 210t-21.5 210t-71.5 223l56 23q64 -119 92 -229t28 -227t-28 -227.5t-92 -228.5z" />
    <glyph glyph-name="emdash" unicode="&#x2014;" horiz-adv-x="1000" 
d="M0 240v52h1000v-52h-1000z" />
    <glyph glyph-name="endash" unicode="&#x2013;" horiz-adv-x="500" 
d="M0 240v52h500v-52h-500z" />
    <glyph glyph-name="figuredash" unicode="&#x2012;" 
d="M72 240v52h456v-52h-456z" />
    <glyph glyph-name="uni2015" unicode="&#x2015;" horiz-adv-x="1000" 
d="M0 240v52h1000v-52h-1000z" />
    <glyph glyph-name="hyphen" unicode="-" horiz-adv-x="425" 
d="M72 233v67h280v-67h-280z" />
    <glyph glyph-name="uni2010" unicode="&#x2010;" horiz-adv-x="425" 
d="M72 233v67h280v-67h-280z" />
    <glyph glyph-name="uni00AD" unicode="&#xad;" horiz-adv-x="425" 
d="M72 233v67h280v-67h-280z" />
    <glyph glyph-name="guillemotleft" unicode="&#xab;" horiz-adv-x="441" 
d="M156 85l-95 160v41l95 159l57 -23l-77 -157l77 -157zM337 85l-95 160v41l95 159l57 -23l-77 -157l77 -157z" />
    <glyph glyph-name="guillemotright" unicode="&#xbb;" horiz-adv-x="439" 
d="M103 85l-57 23l78 157l-78 157l58 23l95 -159v-41zM284 85l-57 23l78 157l-78 157l58 23l95 -159v-41z" />
    <glyph glyph-name="guilsinglleft" unicode="&#x2039;" horiz-adv-x="260" 
d="M156 85l-95 160v41l95 159l57 -23l-77 -157l77 -157z" />
    <glyph glyph-name="guilsinglright" unicode="&#x203a;" horiz-adv-x="258" 
d="M103 85l-57 23l78 157l-78 157l58 23l95 -159v-41z" />
    <glyph glyph-name="quotedblbase" unicode="&#x201e;" horiz-adv-x="395" 
d="M165 102v-72q0 -42 -13.5 -76.5t-46.5 -67.5l-38 29q39 43 44 85h-48v102h102zM331 102v-72q0 -42 -13.5 -76.5t-46.5 -67.5l-38 29q39 43 44 85h-48v102h102z" />
    <glyph glyph-name="quotedblleft" unicode="&#x201c;" horiz-adv-x="395" 
d="M165 596v-102h-102v72q0 42 14 77t47 68l38 -30q-39 -43 -44 -85h47zM331 596v-102h-102v72q0 42 14 77t47 68l38 -30q-39 -43 -44 -85h47z" />
    <glyph glyph-name="quotedblright" unicode="&#x201d;" horiz-adv-x="395" 
d="M165 705v-72q0 -42 -13.5 -77t-46.5 -68l-38 30q39 43 44 85h-48v102h102zM331 705v-72q0 -42 -13.5 -77t-46.5 -68l-38 30q39 43 44 85h-48v102h102z" />
    <glyph glyph-name="quoteleft" unicode="&#x2018;" horiz-adv-x="229" 
d="M165 596v-102h-102v72q0 42 14 77t47 68l38 -30q-39 -43 -44 -85h47z" />
    <glyph glyph-name="quoteright" unicode="&#x2019;" horiz-adv-x="229" 
d="M165 705v-72q0 -42 -13.5 -77t-46.5 -68l-38 30q39 43 44 85h-48v102h102z" />
    <glyph glyph-name="quotesinglbase" unicode="&#x201a;" horiz-adv-x="229" 
d="M165 102v-72q0 -42 -13.5 -76.5t-46.5 -67.5l-38 29q39 43 44 85h-48v102h102z" />
    <glyph glyph-name="uni2007" unicode="&#x2007;" 
 />
    <glyph glyph-name="uni200A" unicode="&#x200a;" horiz-adv-x="100" 
 />
    <glyph glyph-name="uni2008" unicode="&#x2008;" horiz-adv-x="229" 
 />
    <glyph glyph-name="uni00A0" unicode="&#xa0;" horiz-adv-x="258" 
 />
    <glyph glyph-name="uni2009" unicode="&#x2009;" horiz-adv-x="200" 
 />
    <glyph glyph-name="uni200B" unicode="&#x200b;" horiz-adv-x="0" 
 />
    <glyph glyph-name="uni20B5" unicode="&#x20b5;" 
d="M566 81q-35 -35 -83.5 -58t-97.5 -29v-109h-69v109q-119 14 -186.5 109t-67.5 250t67 249.5t186 108.5v109h69v-109q48 -5 97.5 -28.5t84.5 -58.5l-32 -63q-42 40 -87.5 61t-89.5 21q-100 0 -156 -76t-56 -214t56 -214.5t156 -76.5q44 0 89.5 21t87.5 61z" />
    <glyph glyph-name="cent" unicode="&#xa2;" 
d="M502 56q-27 -26 -67 -42t-84 -20v-109h-70v112q-87 14 -138.5 80.5t-51.5 166.5q0 99 52 166.5t138 84.5v111h70v-108q44 -3 84.5 -20t66.5 -43l-27 -60q-69 56 -140 56q-74 0 -116.5 -49.5t-42.5 -137.5q0 -87 42 -135.5t116 -48.5q72 0 141 56z" />
    <glyph glyph-name="colonmonetary" unicode="&#x20a1;" 
d="M201 567q-56 -76 -56 -214t56 -214.5t156 -76.5q44 0 89.5 21t87.5 61l32 -63q-40 -40 -98 -64.5t-112 -24.5q-42 0 -78 9l-50 -125l-57 22l50 125q-37 19 -69 52l-58 -145l-57 22l73 182q-48 90 -48 219q0 108 33 187.5t96 124t149 48.5l42 107h65l-44 -112
q40 -7 79 -26l55 138h65l-67 -169q22 -18 31 -27l-32 -63q-42 40 -87.5 61t-89.5 21q-100 0 -156 -76z" />
    <glyph glyph-name="currency" unicode="&#xa4;" 
d="M489 92l53 -55l-42 -42l-53 54q-63 -52 -147 -52q-41 0 -79.5 14t-69.5 39l-54 -55l-42 42l54 56q-50 68 -50 152t50 152l-54 56l43 43l53 -56q31 25 69.5 39t79.5 14t78.5 -13.5t67.5 -37.5l53 54l44 -44l-53 -54q51 -67 51 -153q0 -87 -52 -153zM384 88.5
q39 24.5 62 66t23 90.5t-23 90.5t-62 66t-85 24.5t-85 -24.5t-62 -66t-23 -90.5t23 -90.5t62 -66t85 -24.5t85 24.5z" />
    <glyph glyph-name="dollar" unicode="$" 
d="M495 58.5q-56 -53.5 -150 -64.5v-109h-70v108q-68 4 -126 26.5t-102 63.5l31 63q52 -44 105.5 -64t117.5 -20q79 0 123 33t44 94q0 36 -22.5 58.5t-57 35t-93.5 26.5q-76 19 -122.5 38t-79.5 58t-33 105q0 54 27 97.5t75.5 70.5t111.5 33v109h70v-109q57 -5 109.5 -28
t89.5 -59l-31 -63q-88 82 -204 82q-76 0 -120 -34.5t-44 -95.5q0 -42 24.5 -67t60.5 -38.5t99 -29.5q73 -19 117 -36t75 -53.5t31 -97.5q0 -79 -56 -132.5z" />
    <glyph glyph-name="dong" unicode="&#x20ab;" 
d="M572 557h-73v-557h-80v89q-22 -46 -62 -70.5t-92 -24.5q-58 0 -104.5 30.5t-73 88t-26.5 135.5t26.5 134t72.5 85.5t105 29.5q51 0 91 -24t62 -68v152h-151v57h151v91h81v-91h73v-57zM383.5 110.5q35.5 49.5 35.5 135.5t-35.5 135t-101.5 49q-64 0 -101 -48t-37 -134
q0 -87 37.5 -137t100.5 -50q66 0 101.5 49.5zM78 -139v57h421v-57h-421z" />
    <glyph glyph-name="Euro" unicode="&#x20ac;" 
d="M468 83q45 21 85 61l31 -63q-38 -40 -95.5 -64.5t-113.5 -24.5q-103 0 -168.5 66.5t-84.5 189.5h-105v59h98q-1 15 -1 46t1 46h-98v59h105q20 123 85 189t168 66q60 0 114.5 -23t94.5 -66l-31 -63q-40 40 -85 61t-91 21q-144 0 -174 -185h174v-59h-180q-1 -15 -1 -46
t1 -46h180v-59h-174q28 -186 174 -186q46 0 91 21z" />
    <glyph glyph-name="florin" unicode="&#x192;" 
d="M437.5 619.5q-26.5 -23.5 -37.5 -77.5l-11 -54h123v-58h-136l-96 -452q-18 -82 -66 -122.5t-122 -40.5h-51v66h50q44 0 71 24t37 77l96 448h-122v58h135l12 58q17 82 65 122.5t122 40.5h51v-66h-50q-44 0 -70.5 -23.5z" />
    <glyph glyph-name="franc" unicode="&#x20a3;" 
d="M584 494v-69h-10q-72 0 -107.5 -41t-35.5 -107v-277h-79v323h-198v-323h-80v705h419v-69h-339v-243h198v94h75v-88q39 95 141 95h16z" />
    <glyph glyph-name="uni20B2" unicode="&#x20b2;" 
d="M331 367h220v-324q-34 -19 -82 -32.5t-94 -17.5v-108h-70v109q-119 15 -186 109.5t-67 249.5t67 249.5t186 108.5v109h69v-109q48 -5 97 -28.5t84 -58.5l-31 -63q-42 40 -88 61t-89 21q-100 0 -156 -75.5t-56 -214.5t56 -215.5t155 -76.5q60 0 130 27v215h-145v64z" />
    <glyph glyph-name="uni20AD" unicode="&#x20ad;" 
d="M546 324h-260l298 -324h-96l-294 318v-318h-81v324h-96v58h96v323h81v-317l294 317h96l-299 -323h261v-58z" />
    <glyph glyph-name="lira" unicode="&#x20a4;" 
d="M228 69h332v-69h-512v69h98v179h-98v59h98v92h-98v59h98v63q0 89 52.5 140.5t143.5 51.5q63 0 120.5 -23t102.5 -66l-32 -63q-43 40 -91 61.5t-96 21.5q-58 0 -88 -33t-30 -96v-57h180v-59h-180v-92h180v-59h-180v-179z" />
    <glyph glyph-name="uni20BA" unicode="&#x20ba;" 
d="M563 80q-94 -88 -244 -88q-78 0 -156 23v321l-98 -55v68l98 55v96l-98 -54v69l98 54v136h83v-90l182 101v-69l-182 -101v-96l182 101v-68l-182 -101v-309q38 -11 80 -11q57 0 108 19t98 62z" />
    <glyph glyph-name="uni20BC" unicode="&#x20bc;" 
d="M450.5 633.5q45.5 -65.5 70 -218t24.5 -415.5h-81q0 239 -15 375.5t-43.5 195t-72.5 70.5v-305h-66v305q-43 -13 -71 -72.5t-42.5 -195.5t-14.5 -373h-81q0 262 24 414.5t69 218t114 76.5v111h70v-110q70 -11 115.5 -76.5z" />
    <glyph glyph-name="uni20A6" unicode="&#x20a6;" 
d="M584 400h-94v-93h94v-58h-94v-249h-68l-240 530v-530h-72v249h-93v58h93v93h-93v58h93v247h68l240 -538v538h72v-247h94v-58z" />
    <glyph glyph-name="peseta" unicode="&#x20a7;" horiz-adv-x="1200" 
d="M1080.5 242q36.5 -18 52.5 -43.5t16 -65.5q0 -63 -52 -101.5t-138 -38.5q-112 0 -182 55l-3 -51q-23 -4 -50 -4q-89 0 -133 45.5t-44 128.5v256h-71q-15 -81 -74 -126.5t-151 -45.5h-86v-251h-81v705h167q107 0 167.5 -57t62.5 -161h66v148h81v-148h133v-63h-133v-251
q0 -115 106 -115q11 0 35 2l25 56q42 -30 81.5 -43.5t84.5 -13.5q53 0 82 19.5t29 54.5q0 21 -11 35t-37.5 24.5t-76.5 21.5q-87 19 -124.5 51.5t-37.5 86.5q0 43 24 76.5t66.5 52t96.5 18.5q46 0 92 -17.5t77 -46.5l-27 -59q-73 57 -146 57q-47 0 -75.5 -21t-28.5 -56
q0 -21 10 -35t34 -24t70 -21q67 -16 103.5 -34zM402 478q0 81 -37.5 120t-116.5 39h-83v-318h83q154 0 154 159z" />
    <glyph glyph-name="uni20B1" unicode="&#x20b1;" 
d="M584 524h-81q3 -21 3 -45t-3 -47h81v-59h-98q-25 -58 -79 -90t-131 -32h-86v-251h-80v373h-93v59h93v92h-93v59h93v122h166q79 0 133 -31.5t78 -90.5h97v-59zM388.5 358q38.5 39 38.5 120q0 82 -38 120.5t-116 38.5h-82v-318h82q77 0 115.5 39z" />
    <glyph glyph-name="uni20BD" unicode="&#x20bd;" 
d="M190 301v-92h178v-59h-178v-150h-80v150h-93v59h93v92h-93v59h93v345h230q110 0 171.5 -54t61.5 -148q0 -93 -62.5 -147.5t-170.5 -54.5h-150zM191 360h137q82 0 124 34.5t42 103.5q0 141 -164 141h-139v-279z" />
    <glyph glyph-name="uni20B9" unicode="&#x20b9;" 
d="M579 646h-160q43 -34 55 -92h105v-59h-100q-3 -78 -51.5 -127t-130.5 -61q27 -8 48.5 -26.5t41.5 -49.5l152 -231h-97l-148 226q-26 41 -54 57t-76 16h-143v68h216q153 0 160 128h-376v59h371q-24 92 -155 92h-216v59h558v-59z" />
    <glyph glyph-name="sterling" unicode="&#xa3;" 
d="M228 69h332v-69h-512v69h98v255h-98v58h98v139q0 89 52.5 140.5t143.5 51.5q63 0 120.5 -23t102.5 -66l-32 -63q-43 40 -91 61.5t-96 21.5q-58 0 -88 -33t-30 -96v-133h180v-58h-180v-255z" />
    <glyph glyph-name="uni20A9" unicode="&#x20a9;" 
d="M584 400h-82l-13 -93h95v-58h-102l-33 -249h-58l-91 531l-91 -531h-58l-32 249h-102v58h94l-12 93h-82v58h74l-32 247h71l58 -499l84 499h57l84 -501l57 501h72l-33 -247h75v-58z" />
    <glyph glyph-name="yen" unicode="&#xa5;" 
d="M605 705l-230 -320h153v-59h-187v-92h187v-59h-187v-175h-82v175h-187v59h187v92h-187v59h153l-230 320h92l213 -301l213 301h92z" />
    <glyph glyph-name="uni2219" unicode="&#x2219;" 
d="M249 317h102v-102h-102v102z" />
    <glyph glyph-name="uni2215" unicode="&#x2215;" 
d="M206 -65l-67 22l255 796l67 -22z" />
    <glyph glyph-name="plus" unicode="+" 
d="M544 316v-63h-213v-212h-62v212h-213v63h213v213h62v-213h213z" />
    <glyph glyph-name="minus" unicode="&#x2212;" 
d="M544 316v-63h-488v63h488z" />
    <glyph glyph-name="multiply" unicode="&#xd7;" 
d="M534 475l-190 -190l190 -191l-44 -43l-190 190l-190 -190l-44 43l190 191l-190 190l44 44l190 -190l190 190z" />
    <glyph glyph-name="divide" unicode="&#xf7;" 
d="M247 435v95h94v-95h-94zM544 316v-63h-488v63h488zM247 38v95h94v-95h-94z" />
    <glyph glyph-name="equal" unicode="=" 
d="M544 416v-63h-488v63h488zM544 216v-63h-488v63h488z" />
    </font>
</defs>
</svg>
