<?xml version="1.0" standalone="no"?>
<!DOCTYPE svg PUBLIC "-//W3C//DTD SVG 1.1//EN" "http://www.w3.org/Graphics/SVG/1.1/DTD/svg11.dtd" >
<svg xmlns="http://www.w3.org/2000/svg" xmlns:xlink="http://www.w3.org/1999/xlink" version="1.1">
<metadata>
Created by FontForge 20190801 at Tue Dec 29 14:41:09 2015
 By root
Copyright (c) 2014 by Type Dynamic. All rights reserved.
</metadata>
<defs>
<font id="Sailec-Bold" horiz-adv-x="602" >
  <font-face 
    font-family="Sailec-Bold"
    font-weight="400"
    font-stretch="normal"
    units-per-em="1000"
    panose-1="0 0 8 0 0 0 0 0 0 0"
    ascent="747"
    descent="-253"
    x-height="517"
    cap-height="748"
    bbox="-216 -378 1258 1079"
    underline-thickness="50"
    underline-position="-100"
    unicode-range="U+000D-FB02"
  />
<missing-glyph horiz-adv-x="735" 
d="M67 0v748h601v-748h-601zM370 466l109 179h-219zM302 372l-125 193v-386zM558 186v373l-120 -187zM477 103l-107 176l-108 -176h215z" />
    <glyph glyph-name=".notdef" horiz-adv-x="735" 
d="M67 0v748h601v-748h-601zM370 466l109 179h-219zM302 372l-125 193v-386zM558 186v373l-120 -187zM477 103l-107 176l-108 -176h215z" />
    <glyph glyph-name=".null" horiz-adv-x="0" 
 />
    <glyph glyph-name="nonmarkingreturn" unicode="&#xd;" horiz-adv-x="600" 
 />
    <glyph glyph-name="NULL" horiz-adv-x="0" 
 />
    <glyph glyph-name="NULL" horiz-adv-x="0" 
 />
    <glyph glyph-name="space" unicode=" " horiz-adv-x="226" 
 />
    <glyph glyph-name="exclam" unicode="!" horiz-adv-x="324" 
d="M84 228l-8 520h171l-9 -520h-154zM161 166q37 0 63 -25.5t26 -63.5q0 -37 -26 -62.5t-63 -25.5t-62.5 25.5t-25.5 62.5q0 38 25.5 63.5t62.5 25.5z" />
    <glyph glyph-name="quotedbl" unicode="&#x22;" horiz-adv-x="419" 
d="M55 473l-14 282h140l-15 -282h-111zM252 473l-14 282h140l-14 -282h-112z" />
    <glyph glyph-name="numbersign" unicode="#" horiz-adv-x="669" 
d="M663 563l-28 -116h-106l-36 -151h108l-27 -116h-108l-43 -180h-122l43 180h-112l-42 -180h-123l43 180h-104l27 116h105l35 151h-106l28 116h106l45 185h122l-45 -185h111l45 185h122l-44 -185h106zM260 296h111l36 151h-112z" />
    <glyph glyph-name="dollar" unicode="$" horiz-adv-x="663" 
d="M620 218q0 -53 -17 -92.5t-47 -67.5t-71 -44t-88 -22v-110h-121v112q-103 15 -166 74.5t-65 160.5l157 8q1 -26 12 -47t30 -36t45 -23t56 -8q52 0 85 20t33 66q0 43 -39.5 63.5t-114.5 39.5q-51 13 -95.5 28t-78.5 39t-53.5 60.5t-19.5 90.5q0 41 13 79t40 68t67 51
t94 28v109h121v-112q46 -8 84 -27t65 -47.5t42.5 -66t16.5 -83.5l-158 -8q-1 48 -31.5 76t-84.5 28t-82.5 -25t-28.5 -65q0 -21 8.5 -35.5t26 -25t45 -19t66.5 -17.5q57 -15 104 -32.5t80.5 -42.5t51.5 -60t18 -85z" />
    <glyph glyph-name="percent" unicode="%" horiz-adv-x="892" 
d="M208 759q38 0 70.5 -13.5t56 -38t36.5 -59t13 -77.5q0 -42 -13 -77t-36.5 -59.5t-56 -38t-70.5 -13.5t-70.5 13.5t-56 38t-37 59.5t-13.5 77q0 43 13.5 77.5t37 59t56 38t70.5 13.5zM129 0l493 748h141l-493 -748h-141zM208 657q-32 0 -51 -22t-19 -64q0 -41 19 -64
t51 -23q31 0 50 22.5t19 64.5t-18.5 64t-50.5 22zM685 365q38 0 70.5 -13t56 -37.5t36.5 -59t13 -77.5t-13 -78t-36.5 -59.5t-56 -38t-70.5 -13.5t-70.5 13.5t-56 38t-37 59.5t-13.5 78t13.5 77.5t37 59t56 37.5t70.5 13zM685 264q-32 0 -51 -22.5t-19 -63.5q0 -42 19 -64.5
t51 -22.5t50.5 22.5t18.5 64.5q0 41 -18.5 63.5t-50.5 22.5z" />
    <glyph glyph-name="ampersand" unicode="&#x26;" horiz-adv-x="720" 
d="M531 87q-48 -51 -104.5 -74t-122.5 -23q-67 0 -116.5 17t-82.5 46.5t-49.5 68.5t-16.5 84q0 36 8.5 65t24 54t37 45.5t47.5 39.5q-25 29 -42 63t-17 77q0 52 17 91t48 65t73.5 39.5t93.5 13.5q93 0 155.5 -49.5t76.5 -140.5l-149 -12q-5 35 -25.5 54.5t-57.5 19.5
q-36 0 -57 -20t-21 -59q0 -20 8 -36.5t20.5 -31.5t29.5 -29t35 -29l158 -132q11 26 20 55.5t17 63.5l136 -35q-14 -51 -30 -94.5t-34 -80.5l123 -103l-86 -111zM306 121q69 0 122 53l-181 152q-24 -20 -37.5 -45t-13.5 -61q0 -47 29.5 -73t80.5 -26z" />
    <glyph glyph-name="quotesingle" unicode="'" horiz-adv-x="222" 
d="M55 473l-14 282h140l-15 -282h-111z" />
    <glyph glyph-name="parenleft" unicode="(" horiz-adv-x="298" 
d="M282 691q-42 -73 -71 -164.5t-29 -206.5t29 -206.5t71 -164.5l-126 -44q-50 76 -84.5 180.5t-34.5 234.5t34.5 234.5t84.5 180.5z" />
    <glyph glyph-name="parenright" unicode=")" horiz-adv-x="298" 
d="M143 735q25 -38 46.5 -83t37.5 -97.5t25.5 -111t9.5 -123.5t-9.5 -123.5t-25.5 -111t-37.5 -97.5t-46.5 -83l-126 44q41 73 70 165t29 206t-29 206t-70 165z" />
    <glyph glyph-name="asterisk" unicode="*" horiz-adv-x="369" 
d="M337 682l25 -76l-116 -37l73 -95l-65 -48l-69 99l-70 -100l-65 49l73 95l-116 37l25 76l115 -40l-3 122h81l-3 -122z" />
    <glyph glyph-name="plus" unicode="+" horiz-adv-x="548" 
d="M517 436v-132h-172v-178h-142v178h-172v132h172v176h142v-176h172z" />
    <glyph glyph-name="comma" unicode="," horiz-adv-x="244" 
d="M124 166q39 0 60.5 -27.5t21.5 -70.5q0 -72 -36.5 -130t-116.5 -99v61q52 33 67 90q-35 2 -58.5 27t-23.5 60q0 37 24 63t62 26z" />
    <glyph glyph-name="hyphen" unicode="-" horiz-adv-x="406" 
d="M45 194v136h316v-136h-316z" />
    <glyph glyph-name="period" unicode="." horiz-adv-x="253" 
d="M126 166q37 0 63 -25.5t26 -63.5q0 -37 -26 -62.5t-63 -25.5t-62.5 25.5t-25.5 62.5q0 38 25.5 63.5t62.5 25.5z" />
    <glyph glyph-name="slash" unicode="/" horiz-adv-x="421" 
d="M7 -67l255 815h152l-254 -815h-153z" />
    <glyph glyph-name="zero" unicode="0" horiz-adv-x="651" 
d="M326 759q62 0 114 -25t89.5 -74t58.5 -121t21 -165t-21 -165t-58.5 -120.5t-89.5 -74t-114 -25.5q-63 0 -115.5 25.5t-90 74t-58 120.5t-20.5 165t20.5 165t58 121t90 74t115.5 25zM326 622q-66 0 -96.5 -63t-30.5 -185t30.5 -185t96.5 -63t96 63t30 185t-30 185t-96 63z
" />
    <glyph glyph-name="one" unicode="1" horiz-adv-x="393" 
d="M163 0v554l-95 -67l-68 122l204 139h113v-748h-154z" />
    <glyph glyph-name="two" unicode="2" horiz-adv-x="542" 
d="M278 759q109 0 169 -55t60 -158q0 -46 -11 -84.5t-29.5 -72.5t-43 -63.5t-50.5 -57.5l-123 -131h261v-137h-462v121l206 227q27 29 45.5 52t30 45t16.5 44t5 50q0 39 -18.5 61t-52.5 22q-42 0 -60 -27.5t-19 -77.5l-154 9q2 109 61.5 171t168.5 62z" />
    <glyph glyph-name="three" unicode="3" horiz-adv-x="568" 
d="M281 759q112 0 172 -59.5t60 -159.5q0 -31 -6.5 -54.5t-17.5 -42t-26 -32.5t-32 -25q40 -15 67.5 -57.5t27.5 -106.5q0 -55 -18 -98t-50 -73t-77 -46t-99 -16q-119 0 -181.5 61.5t-65.5 166.5l154 9q2 -47 24.5 -73.5t67.5 -26.5q44 0 67 25.5t23 73.5t-27.5 71t-71.5 23
h-77v132h75q38 0 63 22.5t25 64.5t-20 63t-57 21q-38 0 -59.5 -24t-23.5 -69l-153 8q2 103 62.5 162.5t173.5 59.5z" />
    <glyph glyph-name="four" unicode="4" horiz-adv-x="603" 
d="M580 268v-137h-111v-131h-139v131h-303v127l320 490h122v-480h111zM329 268v221l-145 -221h145z" />
    <glyph glyph-name="five" unicode="5" horiz-adv-x="570" 
d="M300 475q49 0 91 -15t73 -45t48.5 -74.5t17.5 -102.5q0 -57 -17.5 -103t-50 -78.5t-78.5 -50t-104 -17.5q-57 0 -101.5 15.5t-75.5 44t-48 68.5t-18 90l154 9q2 -42 24.5 -66t65.5 -24q47 0 70.5 30t23.5 78q0 49 -24 76.5t-66 27.5q-24 0 -43.5 -7t-36.5 -19h-143v436
h439v-136h-285v-154q36 17 84 17z" />
    <glyph glyph-name="six" unicode="6" horiz-adv-x="608" 
d="M339 489q50 -5 92.5 -25t73 -52.5t47.5 -76t17 -95.5q0 -57 -20 -103.5t-55 -79t-83 -50.5t-105 -18t-105.5 18t-84 50.5t-55.5 79t-20 103.5q0 48 14.5 86t40.5 75l244 347h185zM305 126q48 0 78 32t30 87q0 56 -30 86.5t-78 30.5q-57 0 -86 -40q-21 -29 -21 -77
q0 -55 29.5 -87t77.5 -32z" />
    <glyph glyph-name="seven" unicode="7" horiz-adv-x="541" 
d="M219 0h-169l292 612h-323v136h492v-124z" />
    <glyph glyph-name="eight" unicode="8" horiz-adv-x="615" 
d="M306 759q52 0 96.5 -14.5t77 -41.5t51 -66.5t18.5 -88.5q0 -50 -19.5 -87t-52.5 -61q42 -28 66.5 -73t24.5 -105q0 -54 -20 -97.5t-55 -73.5t-82.5 -46t-103.5 -16t-103.5 16t-82.5 46t-55 73.5t-20 97.5q0 60 24 104.5t66 72.5q-33 24 -52 61.5t-19 87.5q0 49 18 88.5
t50.5 66.5t76.5 41.5t96 14.5zM307 622q-37 0 -62.5 -22t-25.5 -63q0 -38 25.5 -60t62.5 -22q38 0 63 22t25 60q0 41 -25 63t-63 22zM307 331q-45 0 -76 -26.5t-31 -75.5t31 -76t76 -27q46 0 76.5 27t30.5 76t-30.5 75.5t-76.5 26.5z" />
    <glyph glyph-name="nine" unicode="9" horiz-adv-x="608" 
d="M302 759q57 0 105.5 -18t84 -50.5t55.5 -79t20 -103.5q0 -48 -14.5 -86t-40.5 -75l-244 -347h-185l186 259q-50 5 -92.5 25t-73 52.5t-47.5 76t-17 95.5q0 57 20 103.5t55 79t83 50.5t105 18zM303 386q57 0 86 40q21 28 21 77q0 55 -29.5 87t-77.5 32t-78 -32t-30 -87
q0 -56 30 -86.5t78 -30.5z" />
    <glyph glyph-name="colon" unicode=":" horiz-adv-x="253" 
d="M118 527q37 0 63 -25.5t26 -63.5q0 -36 -26 -61.5t-63 -25.5t-62.5 25.5t-25.5 61.5q0 38 25.5 63.5t62.5 25.5zM118 166q37 0 63 -25.5t26 -63.5q0 -37 -26 -62.5t-63 -25.5t-62.5 25.5t-25.5 62.5q0 38 25.5 63.5t62.5 25.5z" />
    <glyph glyph-name="semicolon" unicode=";" horiz-adv-x="253" 
d="M118 351q-37 0 -62.5 25.5t-25.5 61.5q0 38 25.5 63.5t62.5 25.5t63 -25.5t26 -63.5q0 -36 -26 -61.5t-63 -25.5zM124 166q39 0 60.5 -27.5t21.5 -70.5q0 -72 -36.5 -130t-116.5 -99v61q52 33 67 90q-35 2 -58.5 27t-23.5 60q0 37 24 63t62 26z" />
    <glyph glyph-name="less" unicode="&#x3c;" horiz-adv-x="538" 
d="M314 369l193 -101v-166l-478 267l478 266v-165z" />
    <glyph glyph-name="equal" unicode="=" horiz-adv-x="548" 
d="M31 424v137h486v-137h-486zM31 179v137h486v-137h-486z" />
    <glyph glyph-name="greater" unicode="&#x3e;" horiz-adv-x="538" 
d="M31 102v166l193 101l-193 101v165l478 -266z" />
    <glyph glyph-name="question" unicode="?" horiz-adv-x="535" 
d="M268 760q58 0 104 -16t78.5 -45.5t50 -71.5t17.5 -94q0 -31 -8.5 -55.5t-22 -44t-31 -35.5t-36.5 -31q-33 -26 -54 -49.5t-21 -57.5v-32h-154v38q0 48 28.5 83.5t67.5 68.5q31 26 52.5 52t21.5 61q0 43 -24.5 68t-68.5 25t-70 -26t-28 -74l-154 10q2 51 21 93t52 71.5
t78.5 45.5t100.5 16zM267 166q37 0 63 -25.5t26 -63.5q0 -37 -26 -62.5t-63 -25.5q-36 0 -61.5 25.5t-25.5 62.5q0 38 25.5 63.5t61.5 25.5z" />
    <glyph glyph-name="at" unicode="@" horiz-adv-x="803" 
d="M401 607q79 0 146 -27t115.5 -75t75.5 -114t27 -144q0 -106 -43 -157.5t-117 -51.5q-77 0 -103 51q-23 -26 -53 -40t-74 -14q-42 0 -77.5 15t-60.5 43t-39 66.5t-14 86.5t14 87t39 67t60.5 43t77.5 15q43 0 72.5 -13.5t44.5 -32.5v31h106v-290q0 -39 35 -39q26 0 44 32
t18 101q0 63 -22 116.5t-61.5 93t-93.5 62t-117 22.5q-64 0 -117.5 -22.5t-92.5 -62t-61 -93t-22 -116.5q0 -67 23.5 -121t63 -92.5t91.5 -59t109 -20.5q59 0 101 11.5t78 32.5l23 -65q-41 -23 -88 -34.5t-114 -11.5q-74 0 -139 26t-113.5 73.5t-76.5 114t-28 146.5
q0 78 27 144t75 114t114.5 75t146.5 27zM487 255q0 50 -26 77t-68 27q-43 0 -69 -29t-26 -84q0 -54 26 -83.5t69 -29.5q42 0 68 27.5t26 77.5v17z" />
    <glyph glyph-name="A" unicode="A" horiz-adv-x="789" 
d="M611 0l-61 144h-311l-62 -144h-169l321 748h130l322 -748h-170zM496 270l-101 239l-101 -239h202z" />
    <glyph glyph-name="B" unicode="B" horiz-adv-x="706" 
d="M388 748q51 0 93.5 -12.5t73.5 -38.5t48.5 -65t17.5 -92q0 -54 -20.5 -90t-52.5 -57q43 -17 73.5 -60.5t30.5 -114.5q0 -54 -18 -94.5t-50 -68t-76.5 -41.5t-97.5 -14h-335v748h313zM229 448h149q39 0 62.5 19t23.5 62t-26 63t-68 20h-141v-164zM229 137h163
q45 0 73.5 20.5t28.5 68.5t-28.5 69.5t-71.5 21.5h-165v-180z" />
    <glyph glyph-name="C" unicode="C" horiz-adv-x="826" 
d="M429 759q68 0 128 -19.5t107 -56.5t78.5 -90t41.5 -119l-161 -14q-16 80 -68.5 121t-130.5 41q-49 0 -89.5 -17.5t-69 -49.5t-44 -78t-15.5 -103q0 -61 17 -107t46.5 -77.5t69.5 -47.5t86 -16q77 0 130 40.5t68 118.5l162 -14q-11 -66 -42.5 -118t-78 -88.5t-106.5 -56
t-128 -19.5q-82 0 -152 26.5t-121 76t-79.5 121t-28.5 161.5q0 91 28.5 162.5t79.5 121t120.5 75.5t151.5 26z" />
    <glyph glyph-name="D" unicode="D" horiz-adv-x="803" 
d="M383 748q80 0 148 -25.5t117.5 -73.5t77.5 -117.5t28 -157.5t-28 -157.5t-78 -117.5t-118 -73.5t-148 -25.5h-307v748h308zM229 132h155q49 0 89 15t68.5 45.5t44 76t15.5 105.5t-15.5 105.5t-44 76t-68.5 45.5t-89 15h-155v-484z" />
    <glyph glyph-name="E" unicode="E" 
d="M230 612v-162h282v-133h-282v-180h326v-137h-481v748h480v-136h-325z" />
    <glyph glyph-name="F" unicode="F" horiz-adv-x="588" 
d="M230 612v-162h265v-136h-265v-314h-155v748h480v-136h-325z" />
    <glyph glyph-name="G" unicode="G" horiz-adv-x="834" 
d="M785 358q0 -83 -25 -151t-71 -116.5t-112 -75t-148 -26.5t-151.5 26.5t-120.5 76t-79.5 121t-28.5 161.5q0 91 28.5 162.5t79 121t120 75.5t151.5 26q65 0 122 -17t103 -50t78 -81t47 -109l-160 -27q-16 69 -65 108t-126 39q-101 0 -161 -62t-60 -186q0 -62 16 -108.5
t45 -77.5t69.5 -46.5t90.5 -15.5q69 0 120.5 34.5t68.5 111.5h-188v136h357v-50z" />
    <glyph glyph-name="H" unicode="H" horiz-adv-x="762" 
d="M533 0v315h-303v-315h-155v748h155v-296h303v296h154v-748h-154z" />
    <glyph glyph-name="I" unicode="I" horiz-adv-x="305" 
d="M75 0v748h155v-748h-155z" />
    <glyph glyph-name="J" unicode="J" horiz-adv-x="614" 
d="M544 267q0 -132 -69.5 -205t-193.5 -73q-116 0 -186 66t-77 186l155 25q4 -66 31.5 -103t77.5 -37q53 0 80.5 34t27.5 102v486h154v-481z" />
    <glyph glyph-name="K" unicode="K" horiz-adv-x="721" 
d="M712 0h-182l-208 318l-92 -111v-207h-155v748h155v-309l254 309h198l-257 -306z" />
    <glyph glyph-name="L" unicode="L" horiz-adv-x="591" 
d="M556 137v-137h-481v748h155v-611h326z" />
    <glyph glyph-name="M" unicode="M" horiz-adv-x="974" 
d="M745 0v404l-206 -396h-102l-207 396v-404h-155v748h137l276 -514l274 514h136v-748h-153z" />
    <glyph glyph-name="N" unicode="N" horiz-adv-x="764" 
d="M558 0l-328 463v-463h-155v748h131l329 -464v464h154v-748h-131z" />
    <glyph glyph-name="O" unicode="O" horiz-adv-x="875" 
d="M438 759q84 0 155 -27t122.5 -77.5t81 -121.5t29.5 -159t-29.5 -159t-81 -121.5t-122.5 -77.5t-155 -27t-155.5 27t-123.5 77.5t-81 121.5t-29 159t29 159t81 121.5t123.5 77.5t155.5 27zM438 622q-51 0 -94 -17t-73.5 -49t-47.5 -78t-17 -104t17 -104t47.5 -78t73.5 -49
t94 -17t93 17t72.5 49t47.5 78t17 104t-17 104t-47.5 78t-72.5 49t-93 17z" />
    <glyph glyph-name="P" unicode="P" horiz-adv-x="667" 
d="M399 748q53 0 97.5 -16t76.5 -47t49.5 -75.5t17.5 -102.5t-17.5 -103t-49.5 -75.5t-76.5 -46.5t-97.5 -16h-169v-266h-155v748h324zM229 403h150q45 0 74.5 26.5t29.5 77.5t-29.5 78t-74.5 27h-150v-209z" />
    <glyph glyph-name="Q" unicode="Q" horiz-adv-x="879" 
d="M643 39q-45 -24 -96.5 -37t-108.5 -13q-84 0 -155.5 27t-123.5 77.5t-81 121.5t-29 159t29 159t81 121.5t123.5 77.5t155.5 27t155 -27t122.5 -77.5t81 -121.5t29.5 -159q0 -69 -18 -127t-51 -105l112 -110l-108 -110zM438 126q52 0 98 19l-113 112l108 108l113 -112
q24 52 24 121q0 58 -17 104t-47.5 78t-72.5 49t-93 17t-94 -17t-73.5 -49t-47.5 -78t-17 -104t17 -104t47.5 -78t73.5 -49t94 -17z" />
    <glyph glyph-name="R" unicode="R" horiz-adv-x="707" 
d="M355 269h-125v-269h-155v748h320q53 0 97.5 -16t76.5 -46.5t49.5 -75t17.5 -102.5q0 -78 -32 -132.5t-88 -81.5l159 -294h-174zM376 406q45 0 74 26t29 76q0 51 -29 77.5t-74 26.5h-147v-206h147z" />
    <glyph glyph-name="S" unicode="S" horiz-adv-x="663" 
d="M328 759q61 0 111 -15.5t86.5 -45.5t57 -72.5t22.5 -96.5l-158 -8q-1 48 -31.5 76t-84.5 28t-82.5 -25t-28.5 -65q0 -21 8.5 -35.5t26 -25t45 -19t66.5 -17.5q57 -15 104 -32.5t80.5 -42.5t51.5 -60t18 -85q0 -60 -22 -103t-59.5 -71t-87.5 -41.5t-106 -13.5
q-65 0 -119.5 15.5t-94.5 46t-62.5 75.5t-23.5 103l157 8q1 -26 12 -47t30 -36t45 -23t56 -8q52 0 85 20t33 66q0 43 -39.5 63.5t-114.5 39.5q-51 13 -95.5 28t-78.5 39t-53.5 60.5t-19.5 90.5q0 46 16.5 87.5t49.5 73t83 50t117 18.5z" />
    <glyph glyph-name="T" unicode="T" horiz-adv-x="693" 
d="M424 612v-612h-154v612h-251v136h655v-136h-250z" />
    <glyph glyph-name="U" unicode="U" horiz-adv-x="777" 
d="M707 304q0 -75 -22 -133.5t-63.5 -99t-100.5 -61.5t-132 -21q-74 0 -133.5 21t-100.5 61.5t-63 99t-22 133.5v444h154v-442q0 -88 42 -134t123 -46q80 0 122 46t42 134v442h154v-444z" />
    <glyph glyph-name="V" unicode="V" horiz-adv-x="783" 
d="M327 0l-315 748h169l211 -508l210 508h170l-315 -748h-130z" />
    <glyph glyph-name="W" unicode="W" horiz-adv-x="1125" 
d="M722 0l-159 474l-159 -474h-131l-261 748h168l160 -486l159 486h127l160 -486l159 486h168l-261 -748h-130z" />
    <glyph glyph-name="X" unicode="X" horiz-adv-x="727" 
d="M709 0h-179l-166 278l-167 -278h-179l231 380l-218 368h178l155 -265l154 265h178l-218 -368z" />
    <glyph glyph-name="Y" unicode="Y" horiz-adv-x="744" 
d="M450 0h-154v288l-284 460h179l181 -307l181 307h180l-283 -460v-288z" />
    <glyph glyph-name="Z" unicode="Z" horiz-adv-x="626" 
d="M234 137h358v-137h-555v117l346 495h-341v136h540v-117z" />
    <glyph glyph-name="bracketleft" unicode="[" horiz-adv-x="307" 
d="M198 597v-553h89v-121h-234v795h234v-121h-89z" />
    <glyph glyph-name="backslash" unicode="\" horiz-adv-x="421" 
d="M262 -67l-255 815h152l255 -815h-152z" />
    <glyph glyph-name="bracketright" unicode="]" horiz-adv-x="307" 
d="M21 -77v121h88v553h-88v121h234v-795h-234z" />
    <glyph glyph-name="asciicircum" unicode="^" horiz-adv-x="596" 
d="M404 372l-106 167l-106 -167h-165l271 394l271 -394h-165z" />
    <glyph glyph-name="underscore" unicode="_" horiz-adv-x="688" 
d="M45 -137v137h598v-137h-598z" />
    <glyph glyph-name="grave" unicode="`" horiz-adv-x="268" 
d="M145 598l-136 191h166l83 -191h-113z" />
    <glyph glyph-name="a" unicode="a" horiz-adv-x="557" 
d="M274 527q105 0 160 -52.5t55 -155.5v-319h-141v42q-22 -23 -54.5 -38t-77.5 -15q-78 0 -125 39t-47 114q0 43 17 72.5t45.5 47.5t66 26.5t78.5 10.5l92 5v20q0 80 -67 80q-38 0 -55 -21t-17 -47l-146 6q0 34 15 67t43 59.5t68 42.5t90 16zM265 203q-33 -2 -54 -14
t-21 -40q0 -26 17 -36.5t43 -10.5q40 0 66.5 21t26.5 63v22z" />
    <glyph glyph-name="b" unicode="b" horiz-adv-x="657" 
d="M218 472q20 23 57.5 39t87.5 16q55 0 101 -19t79 -54.5t51.5 -85t18.5 -110.5t-18.5 -110.5t-51.5 -85t-79 -54.5t-101 -19q-54 0 -93.5 19t-59.5 45v-53h-138v777h146v-305zM340 402q-54 0 -88 -34.5t-34 -97.5v-23q0 -63 34 -97.5t88 -34.5q55 0 90 37t35 106
t-35 106.5t-90 37.5z" />
    <glyph glyph-name="c" unicode="c" horiz-adv-x="592" 
d="M309 527q47 0 88.5 -13.5t74 -39.5t54 -63t28.5 -84l-143 -12q-5 40 -32.5 63.5t-69.5 23.5q-51 0 -84 -37.5t-33 -106.5t33 -106t84 -37q43 0 70 22.5t33 61.5l142 -13q-8 -46 -29 -82.5t-53.5 -62t-73.5 -39t-89 -13.5q-57 0 -105.5 18.5t-84 53t-55.5 84.5t-20 113
q0 64 20 114t55 84.5t84 52.5t106 18z" />
    <glyph glyph-name="d" unicode="d" horiz-adv-x="657" 
d="M447 0v53q-20 -26 -59.5 -45t-94.5 -19t-100.5 19t-78.5 54.5t-51.5 85t-18.5 110.5t18.5 110.5t51.5 85t78.5 54.5t100.5 19q51 0 88.5 -16t57.5 -39v305h145v-777h-137zM317 402q-55 0 -90 -37.5t-35 -106.5t35 -106t90 -37q54 0 88 34.5t34 97.5v23q0 63 -34 97.5
t-88 34.5z" />
    <glyph glyph-name="e" unicode="e" horiz-adv-x="598" 
d="M199 212q2 -48 30 -76.5t78 -28.5q38 0 62.5 15t32.5 42l147 -7q-7 -37 -28 -67.5t-52.5 -53t-72 -35t-85.5 -12.5q-59 0 -108.5 18.5t-84.5 53.5t-54.5 85t-19.5 112q0 63 19.5 112.5t54.5 84.5t83 53.5t106 18.5q56 0 101.5 -17.5t78 -50.5t50 -81t17.5 -108v-58h-355z
M306 413q-47 0 -75.5 -27t-31.5 -77h208q-2 48 -26.5 76t-74.5 28z" />
    <glyph glyph-name="f" unicode="f" horiz-adv-x="380" 
d="M314 783q17 0 28.5 -0.5t22.5 -2.5v-126q-7 1 -15 1.5t-19 0.5q-38 0 -62.5 -22.5t-24.5 -59.5v-57h120v-126h-120v-391h-145v391h-94v126h94v53q0 49 15.5 88t43.5 67t67.5 43t88.5 15z" />
    <glyph glyph-name="g" unicode="g" horiz-adv-x="648" 
d="M293 527q55 0 94.5 -18.5t59.5 -45.5v54h137v-536q0 -56 -18.5 -101.5t-52.5 -77.5t-82 -49.5t-108 -17.5q-61 0 -107.5 14.5t-79.5 40.5t-52.5 63t-26.5 81l145 5q5 -38 35.5 -59t80.5 -21q54 0 87.5 27.5t33.5 83.5v74q-21 -23 -58 -39t-88 -16q-55 0 -100.5 19
t-78.5 54.5t-51.5 85t-18.5 110.5t18.5 110.5t51.5 84.5t78.5 54.5t100.5 19.5zM317 402q-55 0 -90 -37.5t-35 -106.5t35 -106.5t90 -37.5q54 0 88 34.5t34 97.5v24q0 63 -34 97.5t-88 34.5z" />
    <glyph glyph-name="h" unicode="h" horiz-adv-x="616" 
d="M218 473q17 21 48.5 37.5t82.5 16.5q45 0 82 -14t63.5 -41t41.5 -66.5t15 -89.5v-316h-146v288q0 50 -24.5 76.5t-66.5 26.5q-44 0 -70 -28.5t-26 -75.5v-287h-146v777h146v-304z" />
    <glyph glyph-name="i" unicode="i" horiz-adv-x="291" 
d="M145 774q37 0 62.5 -25.5t25.5 -62.5q0 -36 -25.5 -61.5t-62.5 -25.5t-62 25.5t-25 61.5q0 18 7 34t19 28t27.5 19t33.5 7zM72 0v517h146v-517h-146z" />
    <glyph glyph-name="j" unicode="j" horiz-adv-x="291" 
d="M145 774q37 0 62.5 -25.5t25.5 -62.5q0 -36 -25.5 -61.5t-62.5 -25.5t-62 25.5t-25 61.5q0 37 25 62.5t62 25.5zM219 -50q0 -49 -15.5 -88t-43.5 -66.5t-67.5 -42.5t-87.5 -15q-17 0 -28.5 0.5t-22.5 2.5v127q13 -3 34 -3q38 0 61.5 22t23.5 60v570h146v-567z" />
    <glyph glyph-name="k" unicode="k" horiz-adv-x="582" 
d="M385 517h177l-195 -221l209 -296h-177l-135 187l-46 -50v-137h-146v777h146v-444z" />
    <glyph glyph-name="l" unicode="l" horiz-adv-x="291" 
d="M72 0v777h146v-777h-146z" />
    <glyph glyph-name="m" unicode="m" horiz-adv-x="930" 
d="M667 527q89 0 142.5 -55.5t53.5 -154.5v-317h-146v288q0 50 -22 76.5t-64 26.5q-39 0 -62 -23.5t-28 -62.5v-305h-146v288q0 50 -22 76.5t-62 26.5q-44 0 -68.5 -28.5t-24.5 -75.5v-287h-146v517h138v-53q17 27 49.5 45t86.5 18t95 -21t67 -61q23 35 61.5 58.5t97.5 23.5
z" />
    <glyph glyph-name="n" unicode="n" horiz-adv-x="618" 
d="M349 527q45 0 82 -14t63.5 -41t41.5 -66.5t15 -89.5v-316h-146v288q0 50 -24.5 76.5t-66.5 26.5q-44 0 -70 -28.5t-26 -75.5v-287h-146v517h138v-53q17 27 51.5 45t87.5 18z" />
    <glyph glyph-name="o" unicode="o" horiz-adv-x="638" 
d="M319 527q59 0 109.5 -19t87 -54.5t57.5 -85t21 -110.5t-21 -110.5t-57.5 -85t-87 -54.5t-109.5 -19t-109.5 19t-87.5 54.5t-57.5 85t-20.5 110.5t20.5 110.5t57.5 85t87.5 54.5t109.5 19zM319 402q-57 0 -92 -37.5t-35 -106.5q0 -68 35 -105.5t92 -37.5t92 37.5t35 105.5
q0 69 -35 106.5t-92 37.5z" />
    <glyph glyph-name="p" unicode="p" horiz-adv-x="657" 
d="M363 527q55 0 101 -19.5t79 -54.5t51.5 -84.5t18.5 -110.5t-18.5 -110.5t-51.5 -85t-79 -54.5t-101 -19q-50 0 -87.5 16t-57.5 39v-299h-146v772h138v-54q20 27 59.5 45.5t93.5 18.5zM340 402q-54 0 -88 -34.5t-34 -97.5v-24q0 -63 34 -97.5t88 -34.5q55 0 90 37.5
t35 106.5t-35 106.5t-90 37.5z" />
    <glyph glyph-name="q" unicode="q" horiz-adv-x="657" 
d="M293 527q55 0 94.5 -18.5t59.5 -45.5v54h137v-772h-145v299q-20 -23 -57.5 -39t-88.5 -16q-55 0 -100.5 19t-78.5 54.5t-51.5 85t-18.5 110.5t18.5 110.5t51.5 84.5t78.5 54.5t100.5 19.5zM317 402q-55 0 -90 -37.5t-35 -106.5t35 -106.5t90 -37.5q54 0 88 34.5t34 97.5
v24q0 63 -34 97.5t-88 34.5z" />
    <glyph glyph-name="r" unicode="r" horiz-adv-x="378" 
d="M355 381q-63 0 -100 -32.5t-37 -86.5v-262h-146v517h141v-59q17 26 49.5 45t92.5 19v-141z" />
    <glyph glyph-name="s" unicode="s" horiz-adv-x="506" 
d="M249 527q49 0 86.5 -12.5t63.5 -35t41 -53t18 -66.5l-145 -8q-2 28 -17 45.5t-49 17.5q-59 0 -59 -44q0 -14 7 -22t20 -14t32 -10.5t42 -10.5q39 -10 71 -22t55.5 -29.5t36.5 -42t13 -59.5q0 -79 -55 -125.5t-157 -46.5q-100 0 -156 43.5t-64 124.5l146 8
q2 -29 19.5 -46.5t55.5 -17.5q30 0 47.5 12t17.5 35q0 12 -4 20t-14.5 14.5t-29 12t-46.5 12.5q-41 10 -75 21t-58 28t-37 42.5t-13 65.5q0 75 54.5 119t152.5 44z" />
    <glyph glyph-name="t" unicode="t" horiz-adv-x="404" 
d="M250 199q0 -43 23.5 -60.5t54.5 -17.5q16 0 26.5 1.5t18.5 3.5v-130q-16 -2 -33.5 -4t-47.5 -2q-42 0 -77 10.5t-59.5 31.5t-38 54t-13.5 78l1 227h-94v126h95l1 171h146l-1 -171h121v-126h-122z" />
    <glyph glyph-name="u" unicode="u" 
d="M392 0v52q-15 -24 -47 -43.5t-87 -19.5q-90 0 -140.5 54t-50.5 149v325h146v-294q0 -48 20 -73t63 -25q42 0 65 28t23 72v292h146v-517h-138z" />
    <glyph glyph-name="v" unicode="v" horiz-adv-x="573" 
d="M228 0l-223 517h161l121 -304l120 304h161l-223 -517h-117z" />
    <glyph glyph-name="w" unicode="w" horiz-adv-x="846" 
d="M527 0l-104 274l-104 -274h-116l-198 517h160l101 -296l106 296h102l107 -296l101 296h160l-199 -517h-116z" />
    <glyph glyph-name="x" unicode="x" horiz-adv-x="553" 
d="M542 0h-167l-99 161l-98 -161h-166l161 261l-159 256h166l96 -158l96 158h166l-160 -256z" />
    <glyph glyph-name="y" unicode="y" horiz-adv-x="573" 
d="M77 -255l132 301l-202 471h161l119 -308l118 308h162l-331 -772h-159z" />
    <glyph glyph-name="z" unicode="z" horiz-adv-x="455" 
d="M203 118h219v-118h-388v96l212 303h-208v118h376v-97z" />
    <glyph glyph-name="braceleft" unicode="{" horiz-adv-x="303" 
d="M276 597q-45 0 -58.5 -28.5t-2.5 -101.5q4 -28 4.5 -53.5t-6 -45t-22.5 -32t-44 -15.5q28 -3 44 -16t22.5 -32.5t6 -45t-4.5 -53.5q-6 -37 -5.5 -62t8 -40t21.5 -21.5t37 -6.5h6v-121h-6q-53 0 -96.5 14.5t-72 43.5t-39 74t2.5 105q6 27 9 46.5t-1 31.5t-16.5 17.5
t-37.5 5.5h-8v119h8q25 0 37.5 5.5t16.5 17.5t1 31.5t-9 46.5q-13 60 -2.5 105t39 74t72 43.5t96.5 14.5h6v-121h-6z" />
    <glyph glyph-name="bar" unicode="|" horiz-adv-x="288" 
d="M71 -67v815h146v-815h-146z" />
    <glyph glyph-name="braceright" unicode="}" horiz-adv-x="303" 
d="M27 718q53 0 96.5 -14.5t72 -43.5t39 -74t-2.5 -105q-6 -27 -9 -46.5t1 -31.5t16.5 -17.5t37.5 -5.5h8v-119h-8q-25 0 -37.5 -5.5t-16.5 -17.5t-1 -31.5t9 -46.5q13 -60 2.5 -105t-39 -74t-72 -43.5t-96.5 -14.5h-6v121h6q22 0 36.5 6.5t22 21.5t8 40t-5.5 62
q-4 28 -4.5 53.5t6 45t22 32.5t43.5 16q-28 3 -43.5 15.5t-22 32t-6 45t4.5 53.5q11 73 -2.5 101.5t-58.5 28.5h-6v121h6z" />
    <glyph glyph-name="asciitilde" unicode="~" horiz-adv-x="544" 
d="M534 367q-33 -43 -71.5 -68t-89.5 -25q-31 0 -55 9t-45 19.5t-42 19.5t-47 9q-35 0 -59.5 -11.5t-48.5 -40.5l-66 97q33 43 71 67t89 24q29 0 52 -9t44 -19.5t43 -19.5t49 -9q35 0 60.5 12t49.5 41z" />
    <glyph glyph-name="exclamdown" unicode="&#xa1;" horiz-adv-x="324" 
d="M163 334q-37 0 -63 25.5t-26 63.5q0 37 26 62.5t63 25.5q36 0 61.5 -25.5t25.5 -62.5q0 -38 -25.5 -63.5t-61.5 -25.5zM239 272l8 -520h-170l8 520h154z" />
    <glyph glyph-name="cent" unicode="&#xa2;" horiz-adv-x="592" 
d="M309 115q43 0 70 22.5t33 61.5l142 -13q-13 -78 -63.5 -128t-125.5 -64v-112h-121v114q-44 9 -81 31t-63.5 55t-41 77.5t-14.5 98.5t14.5 98.5t41 78t63 55.5t81.5 31v106h121v-105q75 -14 126 -64.5t63 -130.5l-143 -12q-5 40 -32.5 63.5t-69.5 23.5q-51 0 -84 -37.5
t-33 -106.5t33 -106t84 -37z" />
    <glyph glyph-name="sterling" unicode="&#xa3;" horiz-adv-x="566" 
d="M544 0h-516v126q62 13 81 55.5t12 122.5v2h-94v121h83l-6 63q-13 128 41.5 198.5t174.5 70.5q105 0 159.5 -55t57.5 -151l-154 -8q0 35 -17 56t-49 21q-39 0 -56.5 -27t-12.5 -77l8 -91h150v-121h-138v-5q6 -61 -9.5 -99.5t-43.5 -64.5h329v-137z" />
    <glyph glyph-name="currency" unicode="&#xa4;" horiz-adv-x="601" 
d="M489 252q0 -52 -18 -92l112 -112l-92 -91l-111 111q-35 -15 -79 -15q-41 0 -78 16l-113 -112l-92 91l113 113q-19 41 -19 91q0 49 19 92l-113 113l92 92l113 -113q37 16 78 16q40 0 78 -16l112 113l92 -92l-113 -113q19 -43 19 -92zM231 252q0 -47 19 -71.5t51 -24.5
t50.5 25.5t18.5 70.5t-18.5 70.5t-50.5 25.5t-51 -25.5t-19 -70.5z" />
    <glyph glyph-name="yen" unicode="&#xa5;" horiz-adv-x="744" 
d="M583 354v-90h-133v-66h133v-91h-133v-107h-154v107h-134v91h134v66h-134v90h93l-243 394h179l181 -307l181 307h180l-242 -394h92z" />
    <glyph glyph-name="brokenbar" unicode="&#xa6;" horiz-adv-x="288" 
d="M71 429v319h146v-319h-146zM71 -67v319h146v-319h-146z" />
    <glyph glyph-name="section" unicode="&#xa7;" horiz-adv-x="529" 
d="M431 260q29 -18 44 -45.5t15 -70.5q0 -38 -15.5 -69.5t-44.5 -54.5t-70.5 -35.5t-93.5 -12.5q-109 0 -169.5 45t-60.5 123l146 6q0 -30 21 -49t64 -19q35 0 56 15t21 42q0 26 -22 39t-79 26q-48 10 -87.5 22t-67 30t-42.5 44t-15 64q0 44 18.5 71.5t50.5 47.5
q-26 18 -40 44.5t-14 68.5q0 75 56.5 121t155.5 46q104 0 160 -43t57 -117l-145 -5q-1 27 -18 42.5t-53 15.5q-31 0 -49 -13t-18 -40q0 -25 20.5 -37t73.5 -25q50 -11 89.5 -23t66.5 -30t41 -43.5t14 -62.5q0 -44 -18 -71t-48 -47zM165 374q0 -32 33.5 -45t99.5 -26l23 -5
q19 13 30.5 27t11.5 38q0 16 -8.5 27t-25 18.5t-41.5 13.5t-58 12l-23 5q-19 -13 -30.5 -27.5t-11.5 -37.5z" />
    <glyph glyph-name="dieresis" unicode="&#xa8;" horiz-adv-x="371" 
d="M89 757q33 0 56.5 -23t23.5 -55q0 -34 -23.5 -56.5t-56.5 -22.5t-56 22.5t-23 56.5q0 32 23 55t56 23zM282 757q33 0 56 -23t23 -55q0 -34 -23 -56.5t-56 -22.5t-56 22.5t-23 56.5q0 32 23 55t56 23z" />
    <glyph glyph-name="copyright" unicode="&#xa9;" horiz-adv-x="595" 
d="M298 761q58 0 107.5 -19.5t85.5 -54t56.5 -81t20.5 -101.5t-20.5 -101.5t-56.5 -81t-85.5 -54t-107.5 -19.5q-59 0 -108.5 19.5t-85.5 54t-56.5 81t-20.5 101.5t20.5 101.5t56.5 81t85.5 54t108.5 19.5zM298 711q-48 0 -87 -15.5t-67.5 -42.5t-44 -65t-15.5 -83t15.5 -83
t44 -65t67.5 -42.5t87 -15.5q47 0 86 15.5t67.5 42.5t44 65t15.5 83t-15.5 83t-44 65t-67.5 42.5t-86 15.5zM299 663q28 0 52.5 -8t43.5 -23t31.5 -36.5t16.5 -48.5l-83 -5q-5 25 -21.5 38t-41.5 13q-32 0 -51 -23t-19 -63q0 -42 21 -64t50 -22q24 0 40.5 13t21.5 37l83 -6
q-9 -54 -48.5 -84.5t-95.5 -30.5q-33 0 -61 10.5t-49 31t-32.5 49.5t-11.5 66t11.5 66t32.5 49t49 30.5t61 10.5z" />
    <glyph glyph-name="ordfeminine" unicode="&#xaa;" horiz-adv-x="457" 
d="M225 757q181 0 181 -167v-257h-123v31q-15 -16 -43.5 -27.5t-67.5 -11.5q-65 0 -103 30.5t-38 90.5q0 35 14.5 58.5t39.5 38.5t57.5 22t68.5 9l65 4v21q0 24 -13 38.5t-38 14.5q-28 0 -42 -15.5t-14 -36.5l-127 4q0 28 12.5 55t36 49t57.5 35.5t77 13.5zM221 495
q-26 -2 -42 -11.5t-16 -29.5q0 -18 11.5 -26.5t31.5 -8.5q26 -1 48 14.5t22 47.5v18z" />
    <glyph glyph-name="guillemotleft" unicode="&#xab;" horiz-adv-x="581" 
d="M177 258l117 -163l-116 -72l-163 235l163 235l116 -72zM448 258l116 -163l-116 -72l-163 235l163 235l116 -72z" />
    <glyph glyph-name="logicalnot" unicode="&#xac;" 
d="M450 147v190h-417v113h531v-303h-114z" />
    <glyph glyph-name="registered" unicode="&#xae;" horiz-adv-x="595" 
d="M298 761q58 0 107.5 -19.5t85.5 -54t56.5 -81t20.5 -101.5t-20.5 -101.5t-56.5 -81t-85.5 -54t-107.5 -19.5q-59 0 -108.5 19.5t-85.5 54t-56.5 81t-20.5 101.5t20.5 101.5t56.5 81t85.5 54t108.5 19.5zM298 299q47 0 86 15.5t67.5 42.5t44 65t15.5 83t-15.5 83t-44 65
t-67.5 42.5t-86 15.5q-48 0 -87 -15.5t-67.5 -42.5t-44 -65t-15.5 -83t15.5 -83t44 -65t67.5 -42.5t87 -15.5zM419 559q0 -61 -43 -86l57 -120h-88l-50 106h-35v-106h-80v306h140q45 0 72 -26t27 -74zM299 523q17 0 27.5 8.5t10.5 27.5q0 18 -10.5 26.5t-27.5 8.5h-39v-71
h39z" />
    <glyph glyph-name="macron" unicode="&#xaf;" horiz-adv-x="317" 
d="M8 619v112h300v-112h-300z" />
    <glyph glyph-name="degree" unicode="&#xb0;" horiz-adv-x="377" 
d="M188 758q35 0 65 -10t51.5 -29.5t33.5 -47t12 -63.5v-22q0 -36 -12 -63.5t-33.5 -47t-51.5 -29.5t-65 -10q-71 0 -116 39t-45 111v22q0 72 44.5 111t116.5 39zM188 669q-29 0 -45.5 -17t-16.5 -49v-12q0 -32 16.5 -49t45.5 -17q28 0 45 17t17 49v12q0 32 -17 49t-45 17z
" />
    <glyph glyph-name="plusminus" unicode="&#xb1;" horiz-adv-x="548" 
d="M517 547v-132h-172v-177h-142v177h-172v132h172v176h142v-176h172zM31 50v136h486v-136h-486z" />
    <glyph glyph-name="acute" unicode="&#xb4;" horiz-adv-x="268" 
d="M9 598l85 191h164l-135 -191h-114z" />
    <glyph glyph-name="paragraph" unicode="&#xb6;" horiz-adv-x="711" 
d="M624 640v-707h-113v707h-96v-707h-112v435h-56q-47 0 -86 12t-67 36t-43.5 59.5t-15.5 83.5q0 47 15.5 82.5t43.5 59t67 35.5t86 12h447v-108h-70z" />
    <glyph glyph-name="periodcentered" unicode="&#xb7;" horiz-adv-x="269" 
d="M126 412q37 0 63 -25.5t26 -63.5q0 -37 -26 -62.5t-63 -25.5t-62.5 25.5t-25.5 62.5q0 38 25.5 63.5t62.5 25.5z" />
    <glyph glyph-name="cedilla" unicode="&#xb8;" horiz-adv-x="274" 
d="M146 -41q21 -2 41.5 -9t36 -20t25 -32t9.5 -43q0 -28 -12 -48t-31.5 -33t-44.5 -19.5t-52 -6.5q-33 0 -57 5t-42 14l23 77q22 -14 55 -14q17 0 34.5 7.5t17.5 27.5t-16 28.5t-39 8.5q-11 0 -19.5 -1.5t-16.5 -3.5l37 115h64z" />
    <glyph glyph-name="ordmasculine" unicode="&#xba;" horiz-adv-x="513" 
d="M256 757q48 0 89 -15.5t71 -44t46.5 -68.5t16.5 -89t-16.5 -88.5t-46.5 -67.5t-71 -43.5t-89 -15.5t-89 15.5t-70.5 43.5t-46 67.5t-16.5 88.5t16.5 89t46 68.5t70.5 44t89 15.5zM256 645q-41 0 -65.5 -27.5t-24.5 -77.5q0 -49 24.5 -76.5t65.5 -27.5q42 0 67 27.5
t25 76.5q0 50 -25 77.5t-67 27.5z" />
    <glyph glyph-name="guillemotright" unicode="&#xbb;" horiz-adv-x="581" 
d="M133 23l-116 72l117 163l-117 163l116 72l163 -235zM403 23l-116 72l117 163l-117 163l116 72l163 -235z" />
    <glyph glyph-name="onequarter" unicode="&#xbc;" horiz-adv-x="736" 
d="M35 0l506 748h149l-507 -748h-148zM90 322v264l-47 -31l-47 91l135 87h71v-411h-112zM719 162v-99h-44v-63h-112v63h-164v87l168 261h108v-249h44zM563 162v98l-66 -98h66z" />
    <glyph glyph-name="onehalf" unicode="&#xbd;" horiz-adv-x="780" 
d="M35 0l506 748h149l-507 -748h-148zM90 322v264l-47 -31l-47 91l135 87h71v-411h-112zM617 418q71 0 105 -38t34 -95q0 -42 -18 -75t-45 -63l-43 -48h108v-99h-276v77l130 140q16 17 24 32t8 37q0 32 -24 32q-29 0 -29 -37l-110 6q1 61 38 96t98 35z" />
    <glyph glyph-name="threequarters" unicode="&#xbe;" horiz-adv-x="814" 
d="M113 0l506 748h149l-507 -748h-148zM162 739q66 0 100.5 -33.5t34.5 -91.5q0 -31 -12 -49.5t-31 -31.5q20 -10 34 -32.5t14 -54.5q0 -63 -39.5 -97.5t-101.5 -34.5q-69 0 -104.5 35.5t-36.5 93.5l113 8q2 -37 28 -37q13 0 21 9t8 26q0 19 -9.5 27.5t-24.5 8.5h-45v90h43
q14 0 24 8.5t10 24.5q0 15 -7.5 23t-18.5 8q-27 0 -27 -33l-109 6q0 60 34.5 93.5t101.5 33.5zM797 162v-99h-44v-63h-112v63h-164v87l168 261h108v-249h44zM641 162v98l-66 -98h66z" />
    <glyph glyph-name="questiondown" unicode="&#xbf;" horiz-adv-x="535" 
d="M267 351q-37 0 -63 25.5t-26 63.5q0 36 26 61.5t63 25.5t62.5 -25.5t25.5 -61.5q0 -38 -25.5 -63.5t-62.5 -25.5zM267 -243q-58 0 -104.5 16t-79 45.5t-50 71.5t-17.5 94q0 31 8.5 55.5t22.5 44t31.5 35.5t36.5 31q33 26 53.5 49.5t20.5 57.5v31h155v-37q0 -24 -7.5 -45
t-21 -39t-31 -35t-36.5 -33q-31 -26 -52.5 -52t-21.5 -61q0 -44 24.5 -68.5t68.5 -24.5t69.5 26t28.5 74l154 -10q-2 -51 -21 -93t-52 -71.5t-78.5 -45.5t-100.5 -16z" />
    <glyph glyph-name="Agrave" unicode="&#xc0;" horiz-adv-x="789" 
d="M323 795l-194 154h199l128 -154h-133zM611 0l-61 144h-311l-62 -144h-169l321 748h130l322 -748h-170zM496 270l-101 239l-101 -239h202z" />
    <glyph glyph-name="Aacute" unicode="&#xc1;" horiz-adv-x="789" 
d="M327 795l128 154h199l-194 -154h-133zM611 0l-61 144h-311l-62 -144h-169l321 748h130l322 -748h-170zM496 270l-101 239l-101 -239h202z" />
    <glyph glyph-name="Acircumflex" unicode="&#xc2;" horiz-adv-x="789" 
d="M459 795l-64 75l-65 -75h-122l117 160h141l116 -160h-123zM611 0l-61 144h-311l-62 -144h-169l321 748h130l322 -748h-170zM496 270l-101 239l-101 -239h202z" />
    <glyph glyph-name="Atilde" unicode="&#xc3;" horiz-adv-x="789" 
d="M320 959q24 0 41.5 -8.5t32.5 -18t29 -18t30 -8.5q23 0 32 13t10 33h82q3 -30 -3.5 -58t-20.5 -49.5t-35.5 -34.5t-48.5 -13q-24 0 -41.5 8.5t-32.5 18t-28.5 18t-29.5 8.5q-23 0 -32.5 -13t-9.5 -33h-82q-3 30 3.5 58t20 49.5t35 34.5t48.5 13zM611 0l-61 144h-311
l-62 -144h-169l321 748h130l322 -748h-170zM496 270l-101 239l-101 -239h202z" />
    <glyph glyph-name="Adieresis" unicode="&#xc4;" horiz-adv-x="789" 
d="M299 957q33 0 56.5 -23t23.5 -56t-23.5 -56t-56.5 -23t-56 23t-23 56t23 56t56 23zM492 957q33 0 56 -23t23 -56t-23 -56t-56 -23t-56 23t-23 56t23 56t56 23zM611 0l-61 144h-311l-62 -144h-169l321 748h130l322 -748h-170zM496 270l-101 239l-101 -239h202z" />
    <glyph glyph-name="Aring" unicode="&#xc5;" horiz-adv-x="789" 
d="M395 1008q23 0 43.5 -8t36 -22t24.5 -34t9 -44q0 -23 -9 -43t-24.5 -34t-36 -22t-43.5 -8q-49 0 -82.5 30t-33.5 77q0 24 9 44t24.5 34t37 22t45.5 8zM395 941q-20 0 -31 -11.5t-11 -29.5q0 -17 11 -28t31 -11q17 0 28 11t11 28q0 18 -11 29.5t-28 11.5zM611 0l-61 144
h-311l-62 -144h-169l321 748h130l322 -748h-170zM496 270l-101 239l-101 -239h202z" />
    <glyph glyph-name="AE" unicode="&#xc6;" horiz-adv-x="1053" 
d="M680 450h282v-133h-282v-180h326v-137h-480v144h-236l-97 -144h-188l504 748h497v-136h-326v-162zM526 500l-152 -230h152v230z" />
    <glyph glyph-name="Ccedilla" unicode="&#xc7;" horiz-adv-x="826" 
d="M785 271q-11 -63 -40 -113.5t-73 -87t-100 -57t-120 -23.5l-9 -36q21 -2 41.5 -9t36 -20t25 -32t9.5 -43q0 -28 -12 -48t-31.5 -33t-44.5 -19.5t-52 -6.5q-33 0 -57 5t-42 14l23 77q22 -14 55 -14q17 0 34.5 7.5t17.5 27.5t-16 28.5t-39 8.5q-11 0 -19.5 -1.5t-16.5 -3.5
l32 99q-74 7 -136 36t-107 78t-70 117t-25 152q0 91 28.5 162.5t79.5 121t120.5 75.5t151.5 26q68 0 128 -19.5t107 -56.5t78.5 -90t41.5 -119l-161 -14q-16 80 -68.5 121t-130.5 41q-49 0 -89.5 -17.5t-69 -49.5t-44 -78t-15.5 -103q0 -61 17 -107t46.5 -77.5t69.5 -47.5
t86 -16q77 0 130 40.5t68 118.5z" />
    <glyph glyph-name="Egrave" unicode="&#xc8;" 
d="M247 795l-194 154h199l128 -154h-133zM230 612v-162h282v-133h-282v-180h326v-137h-481v748h480v-136h-325z" />
    <glyph glyph-name="Eacute" unicode="&#xc9;" 
d="M252 795l128 154h199l-194 -154h-133zM230 612v-162h282v-133h-282v-180h326v-137h-481v748h480v-136h-325z" />
    <glyph glyph-name="Ecircumflex" unicode="&#xca;" 
d="M383 795l-64 75l-65 -75h-122l117 160h141l116 -160h-123zM230 612v-162h282v-133h-282v-180h326v-137h-481v748h480v-136h-325z" />
    <glyph glyph-name="Edieresis" unicode="&#xcb;" 
d="M223 957q33 0 56.5 -23t23.5 -56t-23.5 -56t-56.5 -23t-56 23t-23 56t23 56t56 23zM416 957q33 0 56 -23t23 -56t-23 -56t-56 -23t-56 23t-23 56t23 56t56 23zM230 612v-162h282v-133h-282v-180h326v-137h-481v748h480v-136h-325z" />
    <glyph glyph-name="Igrave" unicode="&#xcc;" horiz-adv-x="305" 
d="M85 795l-194 154h199l128 -154h-133zM75 0v748h155v-748h-155z" />
    <glyph glyph-name="Iacute" unicode="&#xcd;" horiz-adv-x="305" 
d="M90 795l128 154h199l-194 -154h-133zM75 0v748h155v-748h-155z" />
    <glyph glyph-name="Icircumflex" unicode="&#xce;" horiz-adv-x="305" 
d="M221 795l-64 75l-65 -75h-122l117 160h141l116 -160h-123zM75 0v748h155v-748h-155z" />
    <glyph glyph-name="Idieresis" unicode="&#xcf;" horiz-adv-x="305" 
d="M61 957q33 0 56.5 -23t23.5 -56t-23.5 -56t-56.5 -23t-56 23t-23 56t23 56t56 23zM254 957q33 0 56 -23t23 -56t-23 -56t-56 -23t-56 23t-23 56t23 56t56 23zM75 0v748h155v-748h-155z" />
    <glyph glyph-name="Eth" unicode="&#xd0;" horiz-adv-x="805" 
d="M400 748q80 0 148 -25.5t117.5 -73.5t77.5 -117.5t28 -157.5t-28 -157.5t-78 -117.5t-118 -73.5t-148 -25.5h-307v315h-84v117h84v316h308zM401 132q49 0 89 15t68.5 45.5t44 76t15.5 105.5t-15.5 105.5t-44 76t-68.5 45.5t-89 15h-155v-184h110v-117h-110v-183h155z" />
    <glyph glyph-name="Ntilde" unicode="&#xd1;" horiz-adv-x="764" 
d="M300 959q24 0 41.5 -8.5t32.5 -18t29 -18t30 -8.5q23 0 32 13t10 33h82q3 -30 -3.5 -58t-20.5 -49.5t-35.5 -34.5t-48.5 -13q-24 0 -41.5 8.5t-32.5 18t-28.5 18t-29.5 8.5q-23 0 -32.5 -13t-9.5 -33h-82q-3 30 3.5 58t20 49.5t35 34.5t48.5 13zM558 0l-328 463v-463
h-155v748h131l329 -464v464h154v-748h-131z" />
    <glyph glyph-name="Ograve" unicode="&#xd2;" horiz-adv-x="875" 
d="M362 795l-194 154h199l128 -154h-133zM438 759q84 0 155 -27t122.5 -77.5t81 -121.5t29.5 -159t-29.5 -159t-81 -121.5t-122.5 -77.5t-155 -27t-155.5 27t-123.5 77.5t-81 121.5t-29 159t29 159t81 121.5t123.5 77.5t155.5 27zM438 622q-51 0 -94 -17t-73.5 -49
t-47.5 -78t-17 -104t17 -104t47.5 -78t73.5 -49t94 -17t93 17t72.5 49t47.5 78t17 104t-17 104t-47.5 78t-72.5 49t-93 17z" />
    <glyph glyph-name="Oacute" unicode="&#xd3;" horiz-adv-x="875" 
d="M367 795l128 154h199l-194 -154h-133zM438 759q84 0 155 -27t122.5 -77.5t81 -121.5t29.5 -159t-29.5 -159t-81 -121.5t-122.5 -77.5t-155 -27t-155.5 27t-123.5 77.5t-81 121.5t-29 159t29 159t81 121.5t123.5 77.5t155.5 27zM438 622q-51 0 -94 -17t-73.5 -49
t-47.5 -78t-17 -104t17 -104t47.5 -78t73.5 -49t94 -17t93 17t72.5 49t47.5 78t17 104t-17 104t-47.5 78t-72.5 49t-93 17z" />
    <glyph glyph-name="Ocircumflex" unicode="&#xd4;" horiz-adv-x="875" 
d="M498 795l-64 75l-65 -75h-122l117 160h141l116 -160h-123zM438 759q84 0 155 -27t122.5 -77.5t81 -121.5t29.5 -159t-29.5 -159t-81 -121.5t-122.5 -77.5t-155 -27t-155.5 27t-123.5 77.5t-81 121.5t-29 159t29 159t81 121.5t123.5 77.5t155.5 27zM438 622q-51 0 -94 -17
t-73.5 -49t-47.5 -78t-17 -104t17 -104t47.5 -78t73.5 -49t94 -17t93 17t72.5 49t47.5 78t17 104t-17 104t-47.5 78t-72.5 49t-93 17z" />
    <glyph glyph-name="Otilde" unicode="&#xd5;" horiz-adv-x="875" 
d="M359 959q24 0 41.5 -8.5t32.5 -18t29 -18t30 -8.5q23 0 32 13t10 33h82q3 -30 -3.5 -58t-20.5 -49.5t-35.5 -34.5t-48.5 -13q-24 0 -41.5 8.5t-32.5 18t-28.5 18t-29.5 8.5q-23 0 -32.5 -13t-9.5 -33h-82q-3 30 3.5 58t20 49.5t35 34.5t48.5 13zM438 759q84 0 155 -27
t122.5 -77.5t81 -121.5t29.5 -159t-29.5 -159t-81 -121.5t-122.5 -77.5t-155 -27t-155.5 27t-123.5 77.5t-81 121.5t-29 159t29 159t81 121.5t123.5 77.5t155.5 27zM438 622q-51 0 -94 -17t-73.5 -49t-47.5 -78t-17 -104t17 -104t47.5 -78t73.5 -49t94 -17t93 17t72.5 49
t47.5 78t17 104t-17 104t-47.5 78t-72.5 49t-93 17z" />
    <glyph glyph-name="Odieresis" unicode="&#xd6;" horiz-adv-x="875" 
d="M339 957q33 0 56.5 -23t23.5 -56t-23.5 -56t-56.5 -23t-56 23t-23 56t23 56t56 23zM532 957q33 0 56 -23t23 -56t-23 -56t-56 -23t-56 23t-23 56t23 56t56 23zM438 759q84 0 155 -27t122.5 -77.5t81 -121.5t29.5 -159t-29.5 -159t-81 -121.5t-122.5 -77.5t-155 -27
t-155.5 27t-123.5 77.5t-81 121.5t-29 159t29 159t81 121.5t123.5 77.5t155.5 27zM438 622q-51 0 -94 -17t-73.5 -49t-47.5 -78t-17 -104t17 -104t47.5 -78t73.5 -49t94 -17t93 17t72.5 49t47.5 78t17 104t-17 104t-47.5 78t-72.5 49t-93 17z" />
    <glyph glyph-name="multiply" unicode="&#xd7;" horiz-adv-x="549" 
d="M371 371l135 -135l-97 -97l-135 135l-134 -135l-97 97l135 135l-134 134l96 97l134 -135l134 134l97 -97z" />
    <glyph glyph-name="Oslash" unicode="&#xd8;" horiz-adv-x="868" 
d="M720 651q50 -51 78 -120.5t28 -156.5q0 -88 -29.5 -159t-81 -121.5t-122.5 -77.5t-155 -27q-106 0 -192 43l-62 -81l-95 72l61 80q-48 50 -74.5 118t-26.5 153q0 88 29 159t81 121.5t123.5 77.5t155.5 27q102 0 185 -40l61 80l95 -71zM206 374q0 -45 10 -82t29 -66
l289 378q-42 18 -96 18q-51 0 -94 -17t-73.5 -49t-47.5 -78t-17 -104zM438 126q51 0 93 17t72.5 49t47.5 78t17 104q0 92 -42 154l-292 -381q46 -21 104 -21z" />
    <glyph glyph-name="Ugrave" unicode="&#xd9;" horiz-adv-x="777" 
d="M316 795l-194 154h199l128 -154h-133zM707 304q0 -75 -22 -133.5t-63.5 -99t-100.5 -61.5t-132 -21q-74 0 -133.5 21t-100.5 61.5t-63 99t-22 133.5v444h154v-442q0 -88 42 -134t123 -46q80 0 122 46t42 134v442h154v-444z" />
    <glyph glyph-name="Uacute" unicode="&#xda;" horiz-adv-x="777" 
d="M321 795l128 154h199l-194 -154h-133zM707 304q0 -75 -22 -133.5t-63.5 -99t-100.5 -61.5t-132 -21q-74 0 -133.5 21t-100.5 61.5t-63 99t-22 133.5v444h154v-442q0 -88 42 -134t123 -46q80 0 122 46t42 134v442h154v-444z" />
    <glyph glyph-name="Ucircumflex" unicode="&#xdb;" horiz-adv-x="777" 
d="M453 795l-64 75l-65 -75h-122l117 160h141l116 -160h-123zM707 304q0 -75 -22 -133.5t-63.5 -99t-100.5 -61.5t-132 -21q-74 0 -133.5 21t-100.5 61.5t-63 99t-22 133.5v444h154v-442q0 -88 42 -134t123 -46q80 0 122 46t42 134v442h154v-444z" />
    <glyph glyph-name="Udieresis" unicode="&#xdc;" horiz-adv-x="777" 
d="M293 957q33 0 56.5 -23t23.5 -56t-23.5 -56t-56.5 -23t-56 23t-23 56t23 56t56 23zM486 957q33 0 56 -23t23 -56t-23 -56t-56 -23t-56 23t-23 56t23 56t56 23zM707 304q0 -75 -22 -133.5t-63.5 -99t-100.5 -61.5t-132 -21q-74 0 -133.5 21t-100.5 61.5t-63 99t-22 133.5
v444h154v-442q0 -88 42 -134t123 -46q80 0 122 46t42 134v442h154v-444z" />
    <glyph glyph-name="Yacute" unicode="&#xdd;" horiz-adv-x="744" 
d="M305 795l128 154h199l-194 -154h-133zM450 0h-154v288l-284 460h179l181 -307l181 307h180l-283 -460v-288z" />
    <glyph glyph-name="Thorn" unicode="&#xde;" horiz-adv-x="656" 
d="M387 653q53 0 97.5 -16t76.5 -46.5t50 -75.5t18 -102t-18 -101.5t-50 -75.5t-76.5 -47t-97.5 -16h-157v-173h-155v748h155v-95h157zM229 310h138q45 0 74.5 26t29.5 77t-29.5 77t-74.5 26h-138v-206z" />
    <glyph glyph-name="germandbls" unicode="&#xdf;" horiz-adv-x="659" 
d="M308 785q55 0 99 -12.5t75.5 -35.5t48.5 -55.5t17 -72.5q0 -38 -13.5 -61t-30 -39.5t-30 -32.5t-13.5 -41q0 -20 11.5 -34.5t29 -29t37.5 -30t37.5 -36t29 -48t11.5 -66.5q0 -48 -18 -85.5t-49.5 -62.5t-74 -38t-91.5 -13q-35 0 -61 5.5t-46 13.5l28 116q15 -6 31 -9.5
t35 -3.5q41 0 70 23t29 68q0 25 -11.5 44t-29 35.5t-37.5 31.5t-37.5 32t-29 37t-11.5 47q0 35 13.5 54.5t30 34t30 28t13.5 35.5q0 36 -22.5 57.5t-67.5 21.5q-44 0 -69 -26.5t-25 -74.5v-562h-146v566q0 50 17 90.5t48 69t74.5 44t97.5 15.5z" />
    <glyph glyph-name="agrave" unicode="&#xe0;" horiz-adv-x="557" 
d="M225 598l-136 191h166l83 -191h-113zM274 527q105 0 160 -52.5t55 -155.5v-319h-141v42q-22 -23 -54.5 -38t-77.5 -15q-78 0 -125 39t-47 114q0 43 17 72.5t45.5 47.5t66 26.5t78.5 10.5l92 5v20q0 80 -67 80q-38 0 -55 -21t-17 -47l-146 6q0 34 15 67t43 59.5t68 42.5
t90 16zM265 203q-33 -2 -54 -14t-21 -40q0 -26 17 -36.5t43 -10.5q40 0 66.5 21t26.5 63v22z" />
    <glyph glyph-name="aacute" unicode="&#xe1;" horiz-adv-x="557" 
d="M226 598l85 191h164l-135 -191h-114zM274 527q105 0 160 -52.5t55 -155.5v-319h-141v42q-22 -23 -54.5 -38t-77.5 -15q-78 0 -125 39t-47 114q0 43 17 72.5t45.5 47.5t66 26.5t78.5 10.5l92 5v20q0 80 -67 80q-38 0 -55 -21t-17 -47l-146 6q0 34 15 67t43 59.5t68 42.5
t90 16zM265 203q-33 -2 -54 -14t-21 -40q0 -26 17 -36.5t43 -10.5q40 0 66.5 21t26.5 63v22z" />
    <glyph glyph-name="acircumflex" unicode="&#xe2;" horiz-adv-x="557" 
d="M351 599l-65 82l-65 -82h-122l116 177h141l117 -177h-122zM274 527q105 0 160 -52.5t55 -155.5v-319h-141v42q-22 -23 -54.5 -38t-77.5 -15q-78 0 -125 39t-47 114q0 43 17 72.5t45.5 47.5t66 26.5t78.5 10.5l92 5v20q0 80 -67 80q-38 0 -55 -21t-17 -47l-146 6
q0 34 15 67t43 59.5t68 42.5t90 16zM265 203q-33 -2 -54 -14t-21 -40q0 -26 17 -36.5t43 -10.5q40 0 66.5 21t26.5 63v22z" />
    <glyph glyph-name="atilde" unicode="&#xe3;" horiz-adv-x="557" 
d="M210 761q24 0 41.5 -8.5t32.5 -18.5t29 -18.5t30 -8.5q23 0 32 13t10 34h82q3 -30 -3.5 -58.5t-20.5 -50t-35.5 -34.5t-48.5 -13q-24 0 -41.5 8.5t-32.5 18t-28.5 18t-29.5 8.5q-23 0 -32.5 -13t-9.5 -33h-82q-3 30 3.5 58.5t20 50t35 34.5t48.5 13zM274 527
q105 0 160 -52.5t55 -155.5v-319h-141v42q-22 -23 -54.5 -38t-77.5 -15q-78 0 -125 39t-47 114q0 43 17 72.5t45.5 47.5t66 26.5t78.5 10.5l92 5v20q0 80 -67 80q-38 0 -55 -21t-17 -47l-146 6q0 34 15 67t43 59.5t68 42.5t90 16zM265 203q-33 -2 -54 -14t-21 -40
q0 -26 17 -36.5t43 -10.5q40 0 66.5 21t26.5 63v22z" />
    <glyph glyph-name="adieresis" unicode="&#xe4;" horiz-adv-x="557" 
d="M188 757q33 0 56.5 -23t23.5 -55q0 -34 -23.5 -56.5t-56.5 -22.5t-56 22.5t-23 56.5q0 32 23 55t56 23zM381 757q33 0 56 -23t23 -55q0 -34 -23 -56.5t-56 -22.5t-56 22.5t-23 56.5q0 32 23 55t56 23zM274 527q105 0 160 -52.5t55 -155.5v-319h-141v42q-22 -23 -54.5 -38
t-77.5 -15q-78 0 -125 39t-47 114q0 43 17 72.5t45.5 47.5t66 26.5t78.5 10.5l92 5v20q0 80 -67 80q-38 0 -55 -21t-17 -47l-146 6q0 34 15 67t43 59.5t68 42.5t90 16zM265 203q-33 -2 -54 -14t-21 -40q0 -26 17 -36.5t43 -10.5q40 0 66.5 21t26.5 63v22z" />
    <glyph glyph-name="aring" unicode="&#xe5;" horiz-adv-x="557" 
d="M285 823q27 0 51 -9t42 -25.5t28 -38.5t10 -49t-10 -49t-28 -38.5t-42 -25.5t-51 -9t-51 9t-42 25.5t-28 38.5t-10 49t10 49t28 38.5t42 25.5t51 9zM285 745q-21 0 -33 -12t-12 -32t12 -31.5t33 -11.5q20 0 32 11.5t12 31.5t-12 32t-32 12zM274 527q105 0 160 -52.5
t55 -155.5v-319h-141v42q-22 -23 -54.5 -38t-77.5 -15q-78 0 -125 39t-47 114q0 43 17 72.5t45.5 47.5t66 26.5t78.5 10.5l92 5v20q0 80 -67 80q-38 0 -55 -21t-17 -47l-146 6q0 34 15 67t43 59.5t68 42.5t90 16zM265 203q-33 -2 -54 -14t-21 -40q0 -26 17 -36.5t43 -10.5
q40 0 66.5 21t26.5 63v22z" />
    <glyph glyph-name="ae" unicode="&#xe6;" horiz-adv-x="899" 
d="M500 212q2 -48 30 -76.5t78 -28.5q38 0 62.5 15t32.5 42l147 -7q-7 -37 -28 -67.5t-52.5 -53t-72 -35t-86.5 -12.5q-62 0 -112.5 20t-85.5 58q-33 -35 -79.5 -56.5t-105.5 -21.5q-85 0 -134.5 40t-49.5 115q0 43 17 72t45.5 47t66 26t78.5 10l92 5v19q0 35 -15 58.5
t-53 23.5t-54.5 -21.5t-16.5 -47.5l-146 6q0 34 14.5 67t42 59.5t67 42.5t89.5 16q105 0 160 -61q69 61 177 61q56 0 101.5 -17.5t78 -50.5t50 -81t17.5 -108v-58h-355zM606 413q-46 0 -74.5 -27t-31.5 -77h208q-2 48 -27 76t-75 28zM265 203q-33 -2 -54 -13.5t-21 -39.5
q0 -26 17 -36t43 -10q18 0 34.5 4.5t29.5 14.5t21 25.5t8 37.5v22z" />
    <glyph glyph-name="ccedilla" unicode="&#xe7;" horiz-adv-x="592" 
d="M309 115q43 0 70 22.5t33 61.5l142 -13q-7 -43 -26.5 -78t-49 -60.5t-67.5 -40t-81 -17.5l-9 -35q21 -2 41.5 -9t36 -20t25 -32t9.5 -43q0 -28 -12 -48t-31.5 -33t-44.5 -19.5t-52 -6.5q-33 0 -57 5t-42 14l23 77q22 -14 55 -14q17 0 34.5 7.5t17.5 27.5t-16 28.5
t-39 8.5q-11 0 -19.5 -1.5t-16.5 -3.5l32 99q-48 7 -89 28t-70 55t-45.5 80t-16.5 103q0 64 20 114t55 84.5t84 52.5t106 18q47 0 88.5 -13.5t74 -39.5t54 -63t28.5 -84l-143 -12q-5 40 -32.5 63.5t-69.5 23.5q-51 0 -84 -37.5t-33 -106.5t33 -106t84 -37z" />
    <glyph glyph-name="egrave" unicode="&#xe8;" horiz-adv-x="598" 
d="M107 789h166l83 -191h-113zM199 212q2 -48 30 -76.5t78 -28.5q38 0 62.5 15t32.5 42l147 -7q-7 -37 -28 -67.5t-52.5 -53t-72 -35t-85.5 -12.5q-59 0 -108.5 18.5t-84.5 53.5t-54.5 85t-19.5 112q0 63 19.5 112.5t54.5 84.5t83 53.5t106 18.5q56 0 101.5 -17.5t78 -50.5
t50 -81t17.5 -108v-58h-355zM306 413q-47 0 -75.5 -27t-31.5 -77h208q-2 48 -26.5 76t-74.5 28z" />
    <glyph glyph-name="eacute" unicode="&#xe9;" horiz-adv-x="598" 
d="M245 598l85 191h164l-135 -191h-114zM199 212q2 -48 30 -76.5t78 -28.5q38 0 62.5 15t32.5 42l147 -7q-7 -37 -28 -67.5t-52.5 -53t-72 -35t-85.5 -12.5q-59 0 -108.5 18.5t-84.5 53.5t-54.5 85t-19.5 112q0 63 19.5 112.5t54.5 84.5t83 53.5t106 18.5q56 0 101.5 -17.5
t78 -50.5t50 -81t17.5 -108v-58h-355zM306 413q-47 0 -75.5 -27t-31.5 -77h208q-2 48 -26.5 76t-74.5 28z" />
    <glyph glyph-name="ecircumflex" unicode="&#xea;" horiz-adv-x="598" 
d="M117 599l116 177h141l117 -177h-122l-65 82l-65 -82h-122zM199 212q2 -48 30 -76.5t78 -28.5q38 0 62.5 15t32.5 42l147 -7q-7 -37 -28 -67.5t-52.5 -53t-72 -35t-85.5 -12.5q-59 0 -108.5 18.5t-84.5 53.5t-54.5 85t-19.5 112q0 63 19.5 112.5t54.5 84.5t83 53.5
t106 18.5q56 0 101.5 -17.5t78 -50.5t50 -81t17.5 -108v-58h-355zM306 413q-47 0 -75.5 -27t-31.5 -77h208q-2 48 -26.5 76t-74.5 28z" />
    <glyph glyph-name="edieresis" unicode="&#xeb;" horiz-adv-x="598" 
d="M206 600q-33 0 -56 22.5t-23 56.5q0 32 23 55t56 23t56.5 -23t23.5 -55q0 -34 -23.5 -56.5t-56.5 -22.5zM399 600q-33 0 -56 22.5t-23 56.5q0 32 23 55t56 23t56 -23t23 -55q0 -34 -23 -56.5t-56 -22.5zM199 212q2 -48 30 -76.5t78 -28.5q38 0 62.5 15t32.5 42l147 -7
q-7 -37 -28 -67.5t-52.5 -53t-72 -35t-85.5 -12.5q-59 0 -108.5 18.5t-84.5 53.5t-54.5 85t-19.5 112q0 63 19.5 112.5t54.5 84.5t83 53.5t106 18.5q56 0 101.5 -17.5t78 -50.5t50 -81t17.5 -108v-58h-355zM306 413q-47 0 -75.5 -27t-31.5 -77h208q-2 48 -26.5 76t-74.5 28z
" />
    <glyph glyph-name="igrave" unicode="&#xec;" horiz-adv-x="291" 
d="M88 598l-136 191h166l83 -191h-113zM72 0v517h146v-517h-146z" />
    <glyph glyph-name="iacute" unicode="&#xed;" horiz-adv-x="291" 
d="M89 598l85 191h164l-135 -191h-114zM72 0v517h146v-517h-146z" />
    <glyph glyph-name="icircumflex" unicode="&#xee;" horiz-adv-x="291" 
d="M214 599l-65 82l-65 -82h-122l116 177h141l117 -177h-122zM72 0v517h146v-517h-146z" />
    <glyph glyph-name="idieresis" unicode="&#xef;" horiz-adv-x="291" 
d="M51 757q33 0 56.5 -23t23.5 -55q0 -34 -23.5 -56.5t-56.5 -22.5t-56 22.5t-23 56.5q0 32 23 55t56 23zM244 757q33 0 56 -23t23 -55q0 -34 -23 -56.5t-56 -22.5t-56 22.5t-23 56.5q0 32 23 55t56 23zM72 0v517h146v-517h-146z" />
    <glyph glyph-name="eth" unicode="&#xf0;" horiz-adv-x="608" 
d="M420 674q72 -67 107 -170.5t35 -234.5q0 -68 -19 -120t-53.5 -87.5t-83 -54t-107.5 -18.5q-51 0 -97.5 16.5t-81.5 48.5t-55.5 78t-20.5 106q0 57 20.5 102.5t55 77t81 48t97.5 16.5q52 0 98 -17q-22 79 -67 125l-71 -67l-66 65l58 54q-26 11 -55.5 16t-63.5 7v112
q63 0 115 -12.5t97 -35.5l78 73l68 -63zM304 110q54 0 84.5 36t30.5 91q0 59 -30.5 93t-84.5 34q-51 0 -84 -34t-33 -93q0 -60 33 -93.5t84 -33.5z" />
    <glyph glyph-name="ntilde" unicode="&#xf1;" horiz-adv-x="618" 
d="M245 761q24 0 41.5 -8.5t32.5 -18.5t29 -18.5t30 -8.5q23 0 32 13t10 34h82q3 -30 -3.5 -58.5t-20.5 -50t-35.5 -34.5t-48.5 -13q-24 0 -41.5 8.5t-32.5 18t-28.5 18t-29.5 8.5q-23 0 -32.5 -13t-9.5 -33h-82q-3 30 3.5 58.5t20 50t35 34.5t48.5 13zM349 527q45 0 82 -14
t63.5 -41t41.5 -66.5t15 -89.5v-316h-146v288q0 50 -24.5 76.5t-66.5 26.5q-44 0 -70 -28.5t-26 -75.5v-287h-146v517h138v-53q17 27 51.5 45t87.5 18z" />
    <glyph glyph-name="ograve" unicode="&#xf2;" horiz-adv-x="638" 
d="M257 598l-136 191h166l83 -191h-113zM319 527q59 0 109.5 -19t87 -54.5t57.5 -85t21 -110.5t-21 -110.5t-57.5 -85t-87 -54.5t-109.5 -19t-109.5 19t-87.5 54.5t-57.5 85t-20.5 110.5t20.5 110.5t57.5 85t87.5 54.5t109.5 19zM319 402q-57 0 -92 -37.5t-35 -106.5
q0 -68 35 -105.5t92 -37.5t92 37.5t35 105.5q0 69 -35 106.5t-92 37.5z" />
    <glyph glyph-name="oacute" unicode="&#xf3;" horiz-adv-x="638" 
d="M259 598l85 191h164l-135 -191h-114zM319 527q59 0 109.5 -19t87 -54.5t57.5 -85t21 -110.5t-21 -110.5t-57.5 -85t-87 -54.5t-109.5 -19t-109.5 19t-87.5 54.5t-57.5 85t-20.5 110.5t20.5 110.5t57.5 85t87.5 54.5t109.5 19zM319 402q-57 0 -92 -37.5t-35 -106.5
q0 -68 35 -105.5t92 -37.5t92 37.5t35 105.5q0 69 -35 106.5t-92 37.5z" />
    <glyph glyph-name="ocircumflex" unicode="&#xf4;" horiz-adv-x="638" 
d="M383 599l-65 82l-65 -82h-122l116 177h141l117 -177h-122zM319 527q59 0 109.5 -19t87 -54.5t57.5 -85t21 -110.5t-21 -110.5t-57.5 -85t-87 -54.5t-109.5 -19t-109.5 19t-87.5 54.5t-57.5 85t-20.5 110.5t20.5 110.5t57.5 85t87.5 54.5t109.5 19zM319 402
q-57 0 -92 -37.5t-35 -106.5q0 -68 35 -105.5t92 -37.5t92 37.5t35 105.5q0 69 -35 106.5t-92 37.5z" />
    <glyph glyph-name="otilde" unicode="&#xf5;" horiz-adv-x="638" 
d="M242 761q24 0 41.5 -8.5t32.5 -18.5t29 -18.5t30 -8.5q23 0 32 13t10 34h82q3 -30 -3.5 -58.5t-20.5 -50t-35.5 -34.5t-48.5 -13q-24 0 -41.5 8.5t-32.5 18t-28.5 18t-29.5 8.5q-23 0 -32.5 -13t-9.5 -33h-82q-3 30 3.5 58.5t20 50t35 34.5t48.5 13zM319 527
q59 0 109.5 -19t87 -54.5t57.5 -85t21 -110.5t-21 -110.5t-57.5 -85t-87 -54.5t-109.5 -19t-109.5 19t-87.5 54.5t-57.5 85t-20.5 110.5t20.5 110.5t57.5 85t87.5 54.5t109.5 19zM319 402q-57 0 -92 -37.5t-35 -106.5q0 -68 35 -105.5t92 -37.5t92 37.5t35 105.5
q0 69 -35 106.5t-92 37.5z" />
    <glyph glyph-name="odieresis" unicode="&#xf6;" horiz-adv-x="638" 
d="M220 757q33 0 56.5 -23t23.5 -55q0 -34 -23.5 -56.5t-56.5 -22.5t-56 22.5t-23 56.5q0 32 23 55t56 23zM413 757q33 0 56 -23t23 -55q0 -34 -23 -56.5t-56 -22.5t-56 22.5t-23 56.5q0 32 23 55t56 23zM319 527q59 0 109.5 -19t87 -54.5t57.5 -85t21 -110.5t-21 -110.5
t-57.5 -85t-87 -54.5t-109.5 -19t-109.5 19t-87.5 54.5t-57.5 85t-20.5 110.5t20.5 110.5t57.5 85t87.5 54.5t109.5 19zM319 402q-57 0 -92 -37.5t-35 -106.5q0 -68 35 -105.5t92 -37.5t92 37.5t35 105.5q0 69 -35 106.5t-92 37.5z" />
    <glyph glyph-name="divide" unicode="&#xf7;" horiz-adv-x="548" 
d="M274 702q37 0 63 -26t26 -63t-26 -62t-63 -25t-62.5 25t-25.5 62t25.5 63t62.5 26zM31 303v137h486v-137h-486zM274 218q37 0 63 -25.5t26 -62.5t-26 -63t-63 -26t-62.5 26t-25.5 63t25.5 62.5t62.5 25.5z" />
    <glyph glyph-name="oslash" unicode="&#xf8;" horiz-adv-x="638" 
d="M524 445q33 -35 51.5 -82t18.5 -105q0 -61 -21 -110.5t-57.5 -85t-87 -54.5t-109.5 -19q-67 0 -121 24l-44 -59l-80 59l42 56q-34 35 -53 82.5t-19 106.5q0 61 20.5 110.5t57.5 85t87.5 54.5t109.5 19q66 0 124 -25l37 50l80 -60zM192 258q0 -39 13 -71l157 208
q-18 7 -43 7q-57 0 -92 -37.5t-35 -106.5zM319 115q57 0 92 37.5t35 105.5q0 37 -11 67l-155 -205q20 -5 39 -5z" />
    <glyph glyph-name="ugrave" unicode="&#xf9;" 
d="M241 598l-136 191h166l83 -191h-113zM392 0v52q-15 -24 -47 -43.5t-87 -19.5q-90 0 -140.5 54t-50.5 149v325h146v-294q0 -48 20 -73t63 -25q42 0 65 28t23 72v292h146v-517h-138z" />
    <glyph glyph-name="uacute" unicode="&#xfa;" 
d="M243 598l85 191h164l-135 -191h-114zM392 0v52q-15 -24 -47 -43.5t-87 -19.5q-90 0 -140.5 54t-50.5 149v325h146v-294q0 -48 20 -73t63 -25q42 0 65 28t23 72v292h146v-517h-138z" />
    <glyph glyph-name="ucircumflex" unicode="&#xfb;" 
d="M367 599l-65 82l-65 -82h-122l116 177h141l117 -177h-122zM392 0v52q-15 -24 -47 -43.5t-87 -19.5q-90 0 -140.5 54t-50.5 149v325h146v-294q0 -48 20 -73t63 -25q42 0 65 28t23 72v292h146v-517h-138z" />
    <glyph glyph-name="udieresis" unicode="&#xfc;" 
d="M204 757q33 0 56.5 -23t23.5 -55q0 -34 -23.5 -56.5t-56.5 -22.5t-56 22.5t-23 56.5q0 32 23 55t56 23zM397 757q33 0 56 -23t23 -55q0 -34 -23 -56.5t-56 -22.5t-56 22.5t-23 56.5q0 32 23 55t56 23zM392 0v52q-15 -24 -47 -43.5t-87 -19.5q-90 0 -140.5 54t-50.5 149
v325h146v-294q0 -48 20 -73t63 -25q42 0 65 28t23 72v292h146v-517h-138z" />
    <glyph glyph-name="yacute" unicode="&#xfd;" horiz-adv-x="573" 
d="M227 598l85 191h164l-135 -191h-114zM77 -255l132 301l-202 471h161l119 -308l118 308h162l-331 -772h-159z" />
    <glyph glyph-name="thorn" unicode="&#xfe;" horiz-adv-x="657" 
d="M218 472q20 23 57.5 39t87.5 16q55 0 101 -19.5t79 -54.5t51.5 -84.5t18.5 -110.5t-18.5 -110.5t-51.5 -85t-79 -54.5t-101 -19q-50 0 -87.5 16t-57.5 39v-299h-146v1032h146v-305zM340 402q-54 0 -88 -34.5t-34 -97.5v-24q0 -63 34 -97.5t88 -34.5q55 0 90 37.5
t35 106.5t-35 106.5t-90 37.5z" />
    <glyph glyph-name="ydieresis" unicode="&#xff;" horiz-adv-x="573" 
d="M189 757q33 0 56.5 -23t23.5 -55q0 -34 -23.5 -56.5t-56.5 -22.5t-56 22.5t-23 56.5q0 32 23 55t56 23zM382 757q33 0 56 -23t23 -55q0 -34 -23 -56.5t-56 -22.5t-56 22.5t-23 56.5q0 32 23 55t56 23zM77 -255l132 301l-202 471h161l119 -308l118 308h162l-331 -772h-159
z" />
    <glyph glyph-name="Amacron" unicode="&#x100;" horiz-adv-x="789" 
d="M245 815v111h300v-111h-300zM611 0l-61 144h-311l-62 -144h-169l321 748h130l322 -748h-170zM496 270l-101 239l-101 -239h202z" />
    <glyph glyph-name="amacron" unicode="&#x101;" horiz-adv-x="557" 
d="M135 619v112h300v-112h-300zM274 527q105 0 160 -52.5t55 -155.5v-319h-141v42q-22 -23 -54.5 -38t-77.5 -15q-78 0 -125 39t-47 114q0 43 17 72.5t45.5 47.5t66 26.5t78.5 10.5l92 5v20q0 80 -67 80q-38 0 -55 -21t-17 -47l-146 6q0 34 15 67t43 59.5t68 42.5t90 16z
M265 203q-33 -2 -54 -14t-21 -40q0 -26 17 -36.5t43 -10.5q40 0 66.5 21t26.5 63v22z" />
    <glyph glyph-name="Abreve" unicode="&#x102;" horiz-adv-x="789" 
d="M580 961q0 -42 -13.5 -73t-38.5 -51.5t-59 -30.5t-75 -10t-74.5 10t-58.5 30.5t-38.5 51.5t-13.5 73h118q0 -30 18.5 -47t48.5 -17q31 0 49.5 17t18.5 47h118zM611 0l-61 144h-311l-62 -144h-169l321 748h130l322 -748h-170zM496 270l-101 239l-101 -239h202z" />
    <glyph glyph-name="abreve" unicode="&#x103;" horiz-adv-x="557" 
d="M471 758q0 -42 -13.5 -73t-38.5 -51.5t-59 -30.5t-75 -10t-74.5 10t-58.5 30.5t-38.5 51.5t-13.5 73h118q0 -30 18.5 -47.5t48.5 -17.5q31 0 49.5 17.5t18.5 47.5h118zM274 527q105 0 160 -52.5t55 -155.5v-319h-141v42q-22 -23 -54.5 -38t-77.5 -15q-78 0 -125 39
t-47 114q0 43 17 72.5t45.5 47.5t66 26.5t78.5 10.5l92 5v20q0 80 -67 80q-38 0 -55 -21t-17 -47l-146 6q0 34 15 67t43 59.5t68 42.5t90 16zM265 203q-33 -2 -54 -14t-21 -40q0 -26 17 -36.5t43 -10.5q40 0 66.5 21t26.5 63v22z" />
    <glyph glyph-name="Aogonek" unicode="&#x104;" horiz-adv-x="789" 
d="M664 -115q15 0 27 3t23 9l13 -71q-18 -8 -38 -13t-49 -5q-26 0 -49 5.5t-40 17t-27 29.5t-10 43q0 38 25.5 63.5t67.5 43.5l-57 134h-311l-62 -144h-169l321 748h130l322 -748h-85q-35 -20 -54 -36.5t-19 -42.5q0 -17 11 -26.5t30 -9.5zM395 509l-101 -239h202z" />
    <glyph glyph-name="aogonek" unicode="&#x105;" horiz-adv-x="557" 
d="M455 0q-33 -19 -52 -36t-19 -42q0 -17 11 -26.5t30 -9.5q15 0 27 3t23 9l13 -71q-18 -8 -38 -13t-49 -5q-26 0 -49 5.5t-40 17t-27 29.5t-10 43q0 34 19.5 57.5t53.5 40.5v40q-22 -23 -54.5 -38t-77.5 -15q-78 0 -125 39t-47 114q0 43 17 72.5t45.5 47.5t66 26.5
t78.5 10.5l92 5v20q0 80 -67 80q-38 0 -55 -21t-17 -47l-146 6q0 34 15 67t43 59.5t68 42.5t90 16q105 0 160 -52.5t55 -155.5v-319h-34zM265 203q-33 -2 -54 -14t-21 -40q0 -26 17 -36.5t43 -10.5q40 0 66.5 21t26.5 63v22z" />
    <glyph glyph-name="Cacute" unicode="&#x106;" horiz-adv-x="826" 
d="M353 795l128 154h199l-194 -154h-133zM429 759q68 0 128 -19.5t107 -56.5t78.5 -90t41.5 -119l-161 -14q-16 80 -68.5 121t-130.5 41q-49 0 -89.5 -17.5t-69 -49.5t-44 -78t-15.5 -103q0 -61 17 -107t46.5 -77.5t69.5 -47.5t86 -16q77 0 130 40.5t68 118.5l162 -14
q-11 -66 -42.5 -118t-78 -88.5t-106.5 -56t-128 -19.5q-82 0 -152 26.5t-121 76t-79.5 121t-28.5 161.5q0 91 28.5 162.5t79.5 121t120.5 75.5t151.5 26z" />
    <glyph glyph-name="cacute" unicode="&#x107;" horiz-adv-x="592" 
d="M243 598l85 191h164l-135 -191h-114zM309 527q47 0 88.5 -13.5t74 -39.5t54 -63t28.5 -84l-143 -12q-5 40 -32.5 63.5t-69.5 23.5q-51 0 -84 -37.5t-33 -106.5t33 -106t84 -37q43 0 70 22.5t33 61.5l142 -13q-8 -46 -29 -82.5t-53.5 -62t-73.5 -39t-89 -13.5
q-57 0 -105.5 18.5t-84 53t-55.5 84.5t-20 113q0 64 20 114t55 84.5t84 52.5t106 18z" />
    <glyph glyph-name="Ccircumflex" unicode="&#x108;" horiz-adv-x="826" 
d="M485 795l-64 75l-65 -75h-122l117 160h141l116 -160h-123zM429 759q68 0 128 -19.5t107 -56.5t78.5 -90t41.5 -119l-161 -14q-16 80 -68.5 121t-130.5 41q-49 0 -89.5 -17.5t-69 -49.5t-44 -78t-15.5 -103q0 -61 17 -107t46.5 -77.5t69.5 -47.5t86 -16q77 0 130 40.5
t68 118.5l162 -14q-11 -66 -42.5 -118t-78 -88.5t-106.5 -56t-128 -19.5q-82 0 -152 26.5t-121 76t-79.5 121t-28.5 161.5q0 91 28.5 162.5t79.5 121t120.5 75.5t151.5 26z" />
    <glyph glyph-name="ccircumflex" unicode="&#x109;" horiz-adv-x="592" 
d="M368 599l-65 82l-65 -82h-122l116 177h141l117 -177h-122zM309 527q47 0 88.5 -13.5t74 -39.5t54 -63t28.5 -84l-143 -12q-5 40 -32.5 63.5t-69.5 23.5q-51 0 -84 -37.5t-33 -106.5t33 -106t84 -37q43 0 70 22.5t33 61.5l142 -13q-8 -46 -29 -82.5t-53.5 -62t-73.5 -39
t-89 -13.5q-57 0 -105.5 18.5t-84 53t-55.5 84.5t-20 113q0 64 20 114t55 84.5t84 52.5t106 18z" />
    <glyph glyph-name="Cdotaccent" unicode="&#x10a;" horiz-adv-x="826" 
d="M421 973q37 0 62.5 -25.5t25.5 -62.5t-25.5 -62t-62.5 -25q-36 0 -61.5 25t-25.5 62q0 18 7 34t19 28t27.5 19t33.5 7zM429 759q68 0 128 -19.5t107 -56.5t78.5 -90t41.5 -119l-161 -14q-16 80 -68.5 121t-130.5 41q-49 0 -89.5 -17.5t-69 -49.5t-44 -78t-15.5 -103
q0 -61 17 -107t46.5 -77.5t69.5 -47.5t86 -16q77 0 130 40.5t68 118.5l162 -14q-11 -66 -42.5 -118t-78 -88.5t-106.5 -56t-128 -19.5q-82 0 -152 26.5t-121 76t-79.5 121t-28.5 161.5q0 91 28.5 162.5t79.5 121t120.5 75.5t151.5 26z" />
    <glyph glyph-name="cdotaccent" unicode="&#x10b;" horiz-adv-x="592" 
d="M302 770q37 0 62.5 -26t25.5 -62q0 -37 -25.5 -62.5t-62.5 -25.5q-36 0 -61.5 25.5t-25.5 62.5q0 18 7 34t19 28t27.5 19t33.5 7zM309 527q47 0 88.5 -13.5t74 -39.5t54 -63t28.5 -84l-143 -12q-5 40 -32.5 63.5t-69.5 23.5q-51 0 -84 -37.5t-33 -106.5t33 -106t84 -37
q43 0 70 22.5t33 61.5l142 -13q-8 -46 -29 -82.5t-53.5 -62t-73.5 -39t-89 -13.5q-57 0 -105.5 18.5t-84 53t-55.5 84.5t-20 113q0 64 20 114t55 84.5t84 52.5t106 18z" />
    <glyph glyph-name="Ccaron" unicode="&#x10c;" horiz-adv-x="826" 
d="M351 795l-117 160h122l65 -75l64 75h123l-116 -160h-141zM429 759q68 0 128 -19.5t107 -56.5t78.5 -90t41.5 -119l-161 -14q-16 80 -68.5 121t-130.5 41q-49 0 -89.5 -17.5t-69 -49.5t-44 -78t-15.5 -103q0 -61 17 -107t46.5 -77.5t69.5 -47.5t86 -16q77 0 130 40.5
t68 118.5l162 -14q-11 -66 -42.5 -118t-78 -88.5t-106.5 -56t-128 -19.5q-82 0 -152 26.5t-121 76t-79.5 121t-28.5 161.5q0 91 28.5 162.5t79.5 121t120.5 75.5t151.5 26z" />
    <glyph glyph-name="ccaron" unicode="&#x10d;" horiz-adv-x="592" 
d="M232 597l-116 176h122l65 -82l65 82h122l-117 -176h-141zM309 527q47 0 88.5 -13.5t74 -39.5t54 -63t28.5 -84l-143 -12q-5 40 -32.5 63.5t-69.5 23.5q-51 0 -84 -37.5t-33 -106.5t33 -106t84 -37q43 0 70 22.5t33 61.5l142 -13q-8 -46 -29 -82.5t-53.5 -62t-73.5 -39
t-89 -13.5q-57 0 -105.5 18.5t-84 53t-55.5 84.5t-20 113q0 64 20 114t55 84.5t84 52.5t106 18z" />
    <glyph glyph-name="Dcaron" unicode="&#x10e;" horiz-adv-x="803" 
d="M278 795l-117 160h122l65 -75l64 75h123l-116 -160h-141zM383 748q80 0 148 -25.5t117.5 -73.5t77.5 -117.5t28 -157.5t-28 -157.5t-78 -117.5t-118 -73.5t-148 -25.5h-307v748h308zM229 132h155q49 0 89 15t68.5 45.5t44 76t15.5 105.5t-15.5 105.5t-44 76t-68.5 45.5
t-89 15h-155v-484z" />
    <glyph glyph-name="dcaron" unicode="&#x10f;" horiz-adv-x="816" 
d="M584 777v-777h-137v53q-20 -26 -59.5 -45t-94.5 -19t-100.5 19t-78.5 54.5t-51.5 85t-18.5 110.5t18.5 110.5t51.5 85t78.5 54.5t100.5 19q51 0 88.5 -16t57.5 -39v305h145zM717 776q39 0 60.5 -27.5t21.5 -70.5q0 -72 -36.5 -130t-116.5 -99v61q52 33 67 90
q-35 2 -58.5 27t-23.5 60q0 37 24 63t62 26zM439 270q0 63 -34 97.5t-88 34.5q-55 0 -90 -37.5t-35 -106.5t35 -106t90 -37q54 0 88 34.5t34 97.5v23z" />
    <glyph glyph-name="Dcroat" unicode="&#x110;" horiz-adv-x="805" 
d="M400 748q80 0 148.5 -25.5t118 -73.5t77.5 -117.5t28 -157.5t-28 -157.5t-78 -117.5t-118.5 -73.5t-148.5 -25.5h-306v315h-85v117h85v316h307zM401 132q49 0 89 15t68.5 45.5t44 76t15.5 105.5q0 121 -59 181.5t-158 60.5h-154v-184h109v-117h-109v-183h154z" />
    <glyph glyph-name="dcroat" unicode="&#x111;" horiz-adv-x="655" 
d="M584 596v-596h-137v53q-20 -26 -59.5 -45t-94.5 -19t-100.5 19t-78.5 54.5t-51.5 85t-18.5 110.5t18.5 110.5t51.5 85t78.5 54.5t100.5 19q51 0 88.5 -16t57.5 -39v124h-84v112h84v69h145v-69h70v-112h-70zM439 270q0 63 -34 97.5t-88 34.5q-55 0 -90 -37.5t-35 -106.5
t35 -106t90 -37q54 0 88 34.5t34 97.5v23z" />
    <glyph glyph-name="Emacron" unicode="&#x112;" 
d="M169 815v111h300v-111h-300zM230 612v-162h282v-133h-282v-180h326v-137h-481v748h480v-136h-325z" />
    <glyph glyph-name="emacron" unicode="&#x113;" horiz-adv-x="598" 
d="M154 619v112h300v-112h-300zM199 212q2 -48 30 -76.5t78 -28.5q38 0 62.5 15t32.5 42l147 -7q-7 -37 -28 -67.5t-52.5 -53t-72 -35t-85.5 -12.5q-59 0 -108.5 18.5t-84.5 53.5t-54.5 85t-19.5 112q0 63 19.5 112.5t54.5 84.5t83 53.5t106 18.5q56 0 101.5 -17.5t78 -50.5
t50 -81t17.5 -108v-58h-355zM306 413q-47 0 -75.5 -27t-31.5 -77h208q-2 48 -26.5 76t-74.5 28z" />
    <glyph glyph-name="Ebreve" unicode="&#x114;" 
d="M505 961q0 -42 -13.5 -73t-38.5 -51.5t-59 -30.5t-75 -10t-74.5 10t-58.5 30.5t-38.5 51.5t-13.5 73h118q0 -30 18.5 -47t48.5 -17q31 0 49.5 17t18.5 47h118zM230 612v-162h282v-133h-282v-180h326v-137h-481v748h480v-136h-325z" />
    <glyph glyph-name="ebreve" unicode="&#x115;" horiz-adv-x="598" 
d="M303 593q-41 0 -74.5 10t-58.5 30.5t-38.5 51.5t-13.5 73h118q0 -30 18.5 -47.5t48.5 -17.5q31 0 49.5 17.5t18.5 47.5h118q0 -42 -13.5 -73t-38.5 -51.5t-59 -30.5t-75 -10zM199 212q2 -48 30 -76.5t78 -28.5q38 0 62.5 15t32.5 42l147 -7q-7 -37 -28 -67.5t-52.5 -53
t-72 -35t-85.5 -12.5q-59 0 -108.5 18.5t-84.5 53.5t-54.5 85t-19.5 112q0 63 19.5 112.5t54.5 84.5t83 53.5t106 18.5q56 0 101.5 -17.5t78 -50.5t50 -81t17.5 -108v-58h-355zM306 413q-47 0 -75.5 -27t-31.5 -77h208q-2 48 -26.5 76t-74.5 28z" />
    <glyph glyph-name="Edotaccent" unicode="&#x116;" 
d="M319 973q37 0 62.5 -25.5t25.5 -62.5t-25.5 -62t-62.5 -25q-36 0 -61.5 25t-25.5 62q0 18 7 34t19 28t27.5 19t33.5 7zM230 612v-162h282v-133h-282v-180h326v-137h-481v748h480v-136h-325z" />
    <glyph glyph-name="edotaccent" unicode="&#x117;" horiz-adv-x="598" 
d="M304 594q-36 0 -61.5 25.5t-25.5 62.5q0 18 7 34t19 28t27.5 19t33.5 7q37 0 62.5 -26t25.5 -62q0 -37 -25.5 -62.5t-62.5 -25.5zM199 212q2 -48 30 -76.5t78 -28.5q38 0 62.5 15t32.5 42l147 -7q-7 -37 -28 -67.5t-52.5 -53t-72 -35t-85.5 -12.5q-59 0 -108.5 18.5
t-84.5 53.5t-54.5 85t-19.5 112q0 63 19.5 112.5t54.5 84.5t83 53.5t106 18.5q56 0 101.5 -17.5t78 -50.5t50 -81t17.5 -108v-58h-355zM306 413q-47 0 -75.5 -27t-31.5 -77h208q-2 48 -26.5 76t-74.5 28z" />
    <glyph glyph-name="Eogonek" unicode="&#x118;" 
d="M582 -174q-18 -8 -38 -13t-49 -5q-26 0 -49 5.5t-40 17t-27 29.5t-10 43q0 33 19.5 56.5t51.5 40.5h-365v748h480v-136h-325v-162h282v-133h-282v-180h326v-137h-5q-35 -20 -54 -36.5t-19 -42.5q0 -17 11 -26.5t30 -9.5q15 0 27 3t23 9z" />
    <glyph glyph-name="eogonek" unicode="&#x119;" horiz-adv-x="598" 
d="M199 212q2 -48 30 -76.5t78 -28.5q38 0 62.5 15t32.5 42l147 -7q-11 -59 -56.5 -101.5t-111.5 -58.5q-32 -18 -50 -35t-18 -41q0 -17 11 -26.5t30 -9.5q15 0 27 3t23 9l13 -71q-18 -8 -38 -13t-49 -5q-26 0 -49 5.5t-40 17t-27 29.5t-10 43q0 30 15.5 51.5t42.5 37.5
q-49 7 -89.5 29t-69 56t-44 79.5t-15.5 101.5q0 63 19.5 112.5t54.5 84.5t83 53.5t106 18.5q56 0 101.5 -17.5t78 -50.5t50 -81t17.5 -108v-58h-355zM306 413q-47 0 -75.5 -27t-31.5 -77h208q-2 48 -26.5 76t-74.5 28z" />
    <glyph glyph-name="Ecaron" unicode="&#x11a;" 
d="M249 795l-117 160h122l65 -75l64 75h123l-116 -160h-141zM230 612v-162h282v-133h-282v-180h326v-137h-481v748h480v-136h-325z" />
    <glyph glyph-name="ecaron" unicode="&#x11b;" horiz-adv-x="598" 
d="M117 773h122l65 -82l65 82h122l-117 -176h-141zM199 212q2 -48 30 -76.5t78 -28.5q38 0 62.5 15t32.5 42l147 -7q-7 -37 -28 -67.5t-52.5 -53t-72 -35t-85.5 -12.5q-59 0 -108.5 18.5t-84.5 53.5t-54.5 85t-19.5 112q0 63 19.5 112.5t54.5 84.5t83 53.5t106 18.5
q56 0 101.5 -17.5t78 -50.5t50 -81t17.5 -108v-58h-355zM306 413q-47 0 -75.5 -27t-31.5 -77h208q-2 48 -26.5 76t-74.5 28z" />
    <glyph glyph-name="Gcircumflex" unicode="&#x11c;" horiz-adv-x="834" 
d="M235 795l117 160h141l116 -160h-123l-64 75l-65 -75h-122zM785 358q0 -83 -25 -151t-71 -116.5t-112 -75t-148 -26.5t-151.5 26.5t-120.5 76t-79.5 121t-28.5 161.5q0 91 28.5 162.5t79 121t120 75.5t151.5 26q65 0 122 -17t103 -50t78 -81t47 -109l-160 -27
q-16 69 -65 108t-126 39q-101 0 -161 -62t-60 -186q0 -62 16 -108.5t45 -77.5t69.5 -46.5t90.5 -15.5q69 0 120.5 34.5t68.5 111.5h-188v136h357v-50z" />
    <glyph glyph-name="gcircumflex" unicode="&#x11d;" horiz-adv-x="648" 
d="M383 599l-65 82l-65 -82h-122l116 177h141l117 -177h-122zM293 527q55 0 94.5 -18.5t59.5 -45.5v54h137v-536q0 -56 -18.5 -101.5t-52.5 -77.5t-82 -49.5t-108 -17.5q-61 0 -107.5 14.5t-79.5 40.5t-52.5 63t-26.5 81l145 5q5 -38 35.5 -59t80.5 -21q54 0 87.5 27.5
t33.5 83.5v74q-21 -23 -58 -39t-88 -16q-55 0 -100.5 19t-78.5 54.5t-51.5 85t-18.5 110.5t18.5 110.5t51.5 84.5t78.5 54.5t100.5 19.5zM317 402q-55 0 -90 -37.5t-35 -106.5t35 -106.5t90 -37.5q54 0 88 34.5t34 97.5v24q0 63 -34 97.5t-88 34.5z" />
    <glyph glyph-name="Gbreve" unicode="&#x11e;" horiz-adv-x="834" 
d="M422 796q-41 0 -74.5 10t-58.5 30.5t-38.5 51.5t-13.5 73h118q0 -30 18.5 -47t48.5 -17q31 0 49.5 17t18.5 47h118q0 -42 -13.5 -73t-38.5 -51.5t-59 -30.5t-75 -10zM785 358q0 -83 -25 -151t-71 -116.5t-112 -75t-148 -26.5t-151.5 26.5t-120.5 76t-79.5 121
t-28.5 161.5q0 91 28.5 162.5t79 121t120 75.5t151.5 26q65 0 122 -17t103 -50t78 -81t47 -109l-160 -27q-16 69 -65 108t-126 39q-101 0 -161 -62t-60 -186q0 -62 16 -108.5t45 -77.5t69.5 -46.5t90.5 -15.5q69 0 120.5 34.5t68.5 111.5h-188v136h357v-50z" />
    <glyph glyph-name="gbreve" unicode="&#x11f;" horiz-adv-x="648" 
d="M503 758q0 -42 -13.5 -73t-38.5 -51.5t-59 -30.5t-75 -10t-74.5 10t-58.5 30.5t-38.5 51.5t-13.5 73h118q0 -30 18.5 -47.5t48.5 -17.5q31 0 49.5 17.5t18.5 47.5h118zM293 527q55 0 94.5 -18.5t59.5 -45.5v54h137v-536q0 -56 -18.5 -101.5t-52.5 -77.5t-82 -49.5
t-108 -17.5q-61 0 -107.5 14.5t-79.5 40.5t-52.5 63t-26.5 81l145 5q5 -38 35.5 -59t80.5 -21q54 0 87.5 27.5t33.5 83.5v74q-21 -23 -58 -39t-88 -16q-55 0 -100.5 19t-78.5 54.5t-51.5 85t-18.5 110.5t18.5 110.5t51.5 84.5t78.5 54.5t100.5 19.5zM317 402
q-55 0 -90 -37.5t-35 -106.5t35 -106.5t90 -37.5q54 0 88 34.5t34 97.5v24q0 63 -34 97.5t-88 34.5z" />
    <glyph glyph-name="Gdotaccent" unicode="&#x120;" horiz-adv-x="834" 
d="M422 798q-36 0 -61.5 25t-25.5 62q0 18 7 34t19 28t27.5 19t33.5 7q37 0 62.5 -25.5t25.5 -62.5t-25.5 -62t-62.5 -25zM785 358q0 -83 -25 -151t-71 -116.5t-112 -75t-148 -26.5t-151.5 26.5t-120.5 76t-79.5 121t-28.5 161.5q0 91 28.5 162.5t79 121t120 75.5t151.5 26
q65 0 122 -17t103 -50t78 -81t47 -109l-160 -27q-16 69 -65 108t-126 39q-101 0 -161 -62t-60 -186q0 -62 16 -108.5t45 -77.5t69.5 -46.5t90.5 -15.5q69 0 120.5 34.5t68.5 111.5h-188v136h357v-50z" />
    <glyph glyph-name="gdotaccent" unicode="&#x121;" horiz-adv-x="648" 
d="M318 770q37 0 62.5 -26t25.5 -62q0 -37 -25.5 -62.5t-62.5 -25.5q-36 0 -61.5 25.5t-25.5 62.5q0 18 7 34t19 28t27.5 19t33.5 7zM293 527q55 0 94.5 -18.5t59.5 -45.5v54h137v-536q0 -56 -18.5 -101.5t-52.5 -77.5t-82 -49.5t-108 -17.5q-61 0 -107.5 14.5t-79.5 40.5
t-52.5 63t-26.5 81l145 5q5 -38 35.5 -59t80.5 -21q54 0 87.5 27.5t33.5 83.5v74q-21 -23 -58 -39t-88 -16q-55 0 -100.5 19t-78.5 54.5t-51.5 85t-18.5 110.5t18.5 110.5t51.5 84.5t78.5 54.5t100.5 19.5zM317 402q-55 0 -90 -37.5t-35 -106.5t35 -106.5t90 -37.5
q54 0 88 34.5t34 97.5v24q0 63 -34 97.5t-88 34.5z" />
    <glyph glyph-name="Gcommaaccent" unicode="&#x122;" horiz-adv-x="834" 
d="M785 358q0 -83 -25 -151t-71 -116.5t-112 -75t-148 -26.5t-151.5 26.5t-120.5 76t-79.5 121t-28.5 161.5q0 91 28.5 162.5t79 121t120 75.5t151.5 26q65 0 122 -17t103 -50t78 -81t47 -109l-160 -27q-16 69 -65 108t-126 39q-101 0 -161 -62t-60 -186q0 -62 16 -108.5
t45 -77.5t69.5 -46.5t90.5 -15.5q69 0 120.5 34.5t68.5 111.5h-188v136h357v-50zM424 -48q39 0 60.5 -27.5t21.5 -70.5q0 -72 -36.5 -130t-116.5 -99v61q52 33 67 90q-35 2 -58.5 27t-23.5 60q0 37 24 63t62 26z" />
    <glyph glyph-name="gcommaaccent" unicode="&#x123;" horiz-adv-x="648" 
d="M327 724q-35 2 -58.5 27t-23.5 60q0 37 24 63t62 26q39 0 60.5 -27.5t21.5 -70.5q0 -72 -36.5 -130t-116.5 -99v61q52 33 67 90zM584 -19q0 -56 -18.5 -101.5t-52.5 -77.5t-82 -49.5t-108 -17.5q-61 0 -107.5 14.5t-79.5 40.5t-52.5 63t-26.5 81l145 5q5 -38 35.5 -59
t80.5 -21q54 0 87.5 27.5t33.5 83.5v74q-21 -23 -58 -39t-88 -16q-55 0 -100.5 19t-78.5 54.5t-51.5 85t-18.5 110.5t18.5 110.5t51.5 84.5t78.5 54.5t100.5 19.5t94.5 -18.5t59.5 -45.5v54h137v-536zM439 270q0 63 -34 97.5t-88 34.5q-55 0 -90 -37.5t-35 -106.5t35 -106.5
t90 -37.5q54 0 88 34.5t34 97.5v24z" />
    <glyph glyph-name="Hcircumflex" unicode="&#x124;" horiz-adv-x="762" 
d="M446 795l-64 75l-65 -75h-122l117 160h141l116 -160h-123zM533 0v315h-303v-315h-155v748h155v-296h303v296h154v-748h-154z" />
    <glyph glyph-name="hcircumflex" unicode="&#x125;" horiz-adv-x="616" 
d="M212 801l-64 76l-65 -76h-122l116 160h141l116 -160h-122zM218 473q17 21 48.5 37.5t82.5 16.5q45 0 82 -14t63.5 -41t41.5 -66.5t15 -89.5v-316h-146v288q0 50 -24.5 76.5t-66.5 26.5q-44 0 -70 -28.5t-26 -75.5v-287h-146v777h146v-304z" />
    <glyph glyph-name="Hbar" unicode="&#x126;" horiz-adv-x="779" 
d="M695 539v-539h-154v315h-303v-315h-154v539h-75v117h75v92h154v-92h303v92h154v-92h75v-117h-75zM238 539v-87h303v87h-303z" />
    <glyph glyph-name="hbar" unicode="&#x127;" horiz-adv-x="616" 
d="M349 527q45 0 82 -14t63.5 -41t41.5 -66.5t15 -89.5v-316h-146v288q0 50 -24.5 76.5t-66.5 26.5q-44 0 -70 -28.5t-26 -75.5v-287h-146v596h-69v112h69v69h146v-69h85v-112h-85v-123q17 21 48.5 37.5t82.5 16.5z" />
    <glyph glyph-name="Itilde" unicode="&#x128;" horiz-adv-x="305" 
d="M82 959q24 0 41.5 -8.5t32.5 -18t29 -18t30 -8.5q23 0 32 13t10 33h82q3 -30 -3.5 -58t-20.5 -49.5t-35.5 -34.5t-48.5 -13q-24 0 -41.5 8.5t-32.5 18t-28.5 18t-29.5 8.5q-23 0 -32.5 -13t-9.5 -33h-82q-3 30 3.5 58t20 49.5t35 34.5t48.5 13zM75 0v748h155v-748h-155z
" />
    <glyph glyph-name="itilde" unicode="&#x129;" horiz-adv-x="291" 
d="M73 761q24 0 41.5 -8.5t32.5 -18.5t29 -18.5t30 -8.5q23 0 32 13t10 34h82q3 -30 -3.5 -58.5t-20.5 -50t-35.5 -34.5t-48.5 -13q-24 0 -41.5 8.5t-32.5 18t-28.5 18t-29.5 8.5q-23 0 -32.5 -13t-9.5 -33h-82q-3 30 3.5 58.5t20 50t35 34.5t48.5 13zM72 0v517h146v-517
h-146z" />
    <glyph glyph-name="Imacron" unicode="&#x12a;" horiz-adv-x="305" 
d="M7 815v111h300v-111h-300zM75 0v748h155v-748h-155z" />
    <glyph glyph-name="imacron" unicode="&#x12b;" horiz-adv-x="291" 
d="M-2 619v112h300v-112h-300zM72 0v517h146v-517h-146z" />
    <glyph glyph-name="Ibreve" unicode="&#x12c;" horiz-adv-x="305" 
d="M342 961q0 -42 -13.5 -73t-38.5 -51.5t-59 -30.5t-75 -10t-74.5 10t-58.5 30.5t-38.5 51.5t-13.5 73h118q0 -30 18.5 -47t48.5 -17q31 0 49.5 17t18.5 47h118zM75 0v748h155v-748h-155z" />
    <glyph glyph-name="ibreve" unicode="&#x12d;" horiz-adv-x="291" 
d="M334 758q0 -42 -13.5 -73t-38.5 -51.5t-59 -30.5t-75 -10t-74.5 10t-58.5 30.5t-38.5 51.5t-13.5 73h118q0 -30 18.5 -47.5t48.5 -17.5q31 0 49.5 17.5t18.5 47.5h118zM72 0v517h146v-517h-146z" />
    <glyph glyph-name="Iogonek" unicode="&#x12e;" horiz-adv-x="305" 
d="M167 0q-33 -19 -52 -36t-19 -42q0 -17 11 -26.5t30 -9.5q15 0 27 3t23 9l13 -71q-18 -8 -38 -13t-49 -5q-26 0 -49 5.5t-40 17t-27 29.5t-10 43q0 38 24 62.5t64 42.5v739h155v-748h-63z" />
    <glyph glyph-name="iogonek" unicode="&#x12f;" horiz-adv-x="291" 
d="M148 594q-36 0 -61.5 25.5t-25.5 62.5q0 18 7 34t19 28t27.5 19t33.5 7q37 0 62.5 -26t25.5 -62q0 -37 -25.5 -62.5t-62.5 -25.5zM218 517v-517h-38q-33 -19 -52 -36t-19 -42q0 -17 11 -26.5t30 -9.5q15 0 27 3t23 9l13 -71q-18 -8 -38 -13t-49 -5q-26 0 -49 5.5t-40 17
t-27 29.5t-10 43q0 34 19.5 57t52.5 40v516h146z" />
    <glyph glyph-name="Idotaccent" unicode="&#x130;" horiz-adv-x="305" 
d="M157 973q37 0 62.5 -25.5t25.5 -62.5t-25.5 -62t-62.5 -25q-36 0 -61.5 25t-25.5 62q0 18 7 34t19 28t27.5 19t33.5 7zM75 0v748h155v-748h-155z" />
    <glyph glyph-name="dotlessi" unicode="&#x131;" horiz-adv-x="291" 
d="M72 0v517h146v-517h-146z" />
    <glyph glyph-name="Jcircumflex" unicode="&#x134;" horiz-adv-x="614" 
d="M539 795l-64 75l-65 -75h-122l117 160h141l116 -160h-123zM544 267q0 -132 -69.5 -205t-193.5 -73q-116 0 -186 66t-77 186l155 25q4 -66 31.5 -103t77.5 -37q53 0 80.5 34t27.5 102v486h154v-481z" />
    <glyph glyph-name="jcircumflex" unicode="&#x135;" horiz-adv-x="291" 
d="M209 599l-65 82l-65 -82h-122l116 177h141l117 -177h-122zM219 -51q0 -56 -15 -96.5t-41 -66.5t-62.5 -38.5t-78.5 -12.5q-43 0 -74.5 10t-53.5 24l58 119q10 -8 22.5 -16t32.5 -8q32 0 49 18.5t17 58.5v576h146v-568z" />
    <glyph glyph-name="Kcommaaccent" unicode="&#x136;" horiz-adv-x="721" 
d="M530 0l-208 318l-92 -111v-207h-155v748h155v-309l254 309h198l-257 -306l287 -442h-182zM369 -43q39 0 60.5 -27.5t21.5 -70.5q0 -72 -36.5 -130t-116.5 -99v61q52 33 67 90q-35 2 -58.5 27t-23.5 60q0 37 24 63t62 26z" />
    <glyph glyph-name="kcommaaccent" unicode="&#x137;" horiz-adv-x="582" 
d="M399 0l-135 187l-46 -50v-137h-146v777h146v-444l167 184h177l-195 -221l209 -296h-177zM302 -43q39 0 60.5 -27.5t21.5 -70.5q0 -72 -36.5 -130t-116.5 -99v61q52 33 67 90q-35 2 -58.5 27t-23.5 60q0 37 24 63t62 26z" />
    <glyph glyph-name="Lacute" unicode="&#x139;" horiz-adv-x="591" 
d="M91 795l128 154h199l-194 -154h-133zM556 137v-137h-481v748h155v-611h326z" />
    <glyph glyph-name="lacute" unicode="&#x13a;" horiz-adv-x="291" 
d="M84 812l128 154h199l-194 -154h-133zM72 0v777h146v-777h-146z" />
    <glyph glyph-name="Lcommaaccent" unicode="&#x13b;" horiz-adv-x="591" 
d="M556 0h-481v748h155v-611h326v-137zM324 -43q39 0 60.5 -27.5t21.5 -70.5q0 -72 -36.5 -130t-116.5 -99v61q52 33 67 90q-35 2 -58.5 27t-23.5 60q0 37 24 63t62 26z" />
    <glyph glyph-name="lcommaaccent" unicode="&#x13c;" horiz-adv-x="291" 
d="M72 0v777h146v-777h-146zM146 -43q39 0 60.5 -27.5t21.5 -70.5q0 -72 -36.5 -130t-116.5 -99v61q52 33 67 90q-35 2 -58.5 27t-23.5 60q0 37 24 63t62 26z" />
    <glyph glyph-name="Lcaron" unicode="&#x13d;" horiz-adv-x="591" 
d="M513 600q-35 2 -58.5 27t-23.5 60q0 37 24 63t62 26q39 0 60.5 -27.5t21.5 -70.5q0 -72 -36.5 -130t-116.5 -99v61q52 33 67 90zM556 137v-137h-481v748h155v-611h326z" />
    <glyph glyph-name="lcaron" unicode="&#x13e;" horiz-adv-x="451" 
d="M218 777v-777h-146v777h146zM359 776q39 0 60.5 -27.5t21.5 -70.5q0 -72 -36.5 -130t-116.5 -99v61q52 33 67 90q-35 2 -58.5 27t-23.5 60q0 37 24 63t62 26z" />
    <glyph glyph-name="Ldot" unicode="&#x13f;" horiz-adv-x="591" 
d="M556 137v-137h-481v748h155v-611h326zM460 502q37 0 63 -25.5t26 -63.5q0 -37 -26 -62.5t-63 -25.5t-62.5 25.5t-25.5 62.5q0 38 25.5 63.5t62.5 25.5z" />
    <glyph glyph-name="ldot" unicode="&#x140;" horiz-adv-x="469" 
d="M72 0v777h146v-777h-146zM357 412q37 0 63 -25.5t26 -63.5q0 -37 -26 -62.5t-63 -25.5t-62.5 25.5t-25.5 62.5q0 38 25.5 63.5t62.5 25.5z" />
    <glyph glyph-name="Lslash" unicode="&#x141;" horiz-adv-x="601" 
d="M567 0h-481v274l-74 -14l-17 117l91 17v354h155v-324l87 17l17 -116l-104 -20v-168h326v-137z" />
    <glyph glyph-name="lslash" unicode="&#x142;" horiz-adv-x="315" 
d="M232 0h-145v223l-79 -21l-26 115l105 28v432h145v-393l75 20l27 -115l-102 -27v-262z" />
    <glyph glyph-name="Nacute" unicode="&#x143;" horiz-adv-x="764" 
d="M307 795l128 154h199l-194 -154h-133zM558 0l-328 463v-463h-155v748h131l329 -464v464h154v-748h-131z" />
    <glyph glyph-name="nacute" unicode="&#x144;" horiz-adv-x="618" 
d="M261 598l85 191h164l-135 -191h-114zM349 527q45 0 82 -14t63.5 -41t41.5 -66.5t15 -89.5v-316h-146v288q0 50 -24.5 76.5t-66.5 26.5q-44 0 -70 -28.5t-26 -75.5v-287h-146v517h138v-53q17 27 51.5 45t87.5 18z" />
    <glyph glyph-name="Ncommaaccent" unicode="&#x145;" horiz-adv-x="764" 
d="M689 0h-131l-328 463v-463h-155v748h131l329 -464v464h154v-748zM396 -43q39 0 60.5 -27.5t21.5 -70.5q0 -72 -36.5 -130t-116.5 -99v61q52 33 67 90q-35 2 -58.5 27t-23.5 60q0 37 24 63t62 26z" />
    <glyph glyph-name="ncommaaccent" unicode="&#x146;" horiz-adv-x="618" 
d="M349 527q45 0 82 -14t63.5 -41t41.5 -66.5t15 -89.5v-316h-146v288q0 50 -24.5 76.5t-66.5 26.5q-44 0 -70 -28.5t-26 -75.5v-287h-146v517h138v-53q17 27 51.5 45t87.5 18zM313 -43q39 0 60.5 -27.5t21.5 -70.5q0 -72 -36.5 -130t-116.5 -99v61q52 33 67 90
q-35 2 -58.5 27t-23.5 60q0 37 24 63t62 26z" />
    <glyph glyph-name="Ncaron" unicode="&#x147;" horiz-adv-x="764" 
d="M305 795l-117 160h122l65 -75l64 75h123l-116 -160h-141zM558 0l-328 463v-463h-155v748h131l329 -464v464h154v-748h-131z" />
    <glyph glyph-name="ncaron" unicode="&#x148;" horiz-adv-x="618" 
d="M250 597l-116 176h122l65 -82l65 82h122l-117 -176h-141zM349 527q45 0 82 -14t63.5 -41t41.5 -66.5t15 -89.5v-316h-146v288q0 50 -24.5 76.5t-66.5 26.5q-44 0 -70 -28.5t-26 -75.5v-287h-146v517h138v-53q17 27 51.5 45t87.5 18z" />
    <glyph glyph-name="Eng" unicode="&#x14a;" horiz-adv-x="764" 
d="M689 -21q0 -50 -18 -92.5t-52 -74t-83 -49.5t-111 -18v136q53 0 81.5 34.5t28.5 101.5v15l-305 431v-463h-155v748h131l329 -464v464h154v-769z" />
    <glyph glyph-name="eng" unicode="&#x14b;" horiz-adv-x="618" 
d="M349 527q45 0 82 -14t63.5 -41t41.5 -66.5t15 -89.5v-366q0 -49 -15.5 -88t-44 -66.5t-70 -42.5t-92.5 -15v127q31 0 53.5 22t22.5 60v341q0 50 -24.5 76.5t-66.5 26.5q-44 0 -70 -28.5t-26 -75.5v-287h-146v517h138v-53q17 27 51.5 45t87.5 18z" />
    <glyph glyph-name="Omacron" unicode="&#x14c;" horiz-adv-x="875" 
d="M284 815v111h300v-111h-300zM438 759q84 0 155 -27t122.5 -77.5t81 -121.5t29.5 -159t-29.5 -159t-81 -121.5t-122.5 -77.5t-155 -27t-155.5 27t-123.5 77.5t-81 121.5t-29 159t29 159t81 121.5t123.5 77.5t155.5 27zM438 622q-51 0 -94 -17t-73.5 -49t-47.5 -78
t-17 -104t17 -104t47.5 -78t73.5 -49t94 -17t93 17t72.5 49t47.5 78t17 104t-17 104t-47.5 78t-72.5 49t-93 17z" />
    <glyph glyph-name="omacron" unicode="&#x14d;" horiz-adv-x="638" 
d="M168 619v112h300v-112h-300zM319 527q59 0 109.5 -19t87 -54.5t57.5 -85t21 -110.5t-21 -110.5t-57.5 -85t-87 -54.5t-109.5 -19t-109.5 19t-87.5 54.5t-57.5 85t-20.5 110.5t20.5 110.5t57.5 85t87.5 54.5t109.5 19zM319 402q-57 0 -92 -37.5t-35 -106.5
q0 -68 35 -105.5t92 -37.5t92 37.5t35 105.5q0 69 -35 106.5t-92 37.5z" />
    <glyph glyph-name="Obreve" unicode="&#x14e;" horiz-adv-x="875" 
d="M620 961q0 -42 -13.5 -73t-38.5 -51.5t-59 -30.5t-75 -10t-74.5 10t-58.5 30.5t-38.5 51.5t-13.5 73h118q0 -30 18.5 -47t48.5 -17q31 0 49.5 17t18.5 47h118zM438 759q84 0 155 -27t122.5 -77.5t81 -121.5t29.5 -159t-29.5 -159t-81 -121.5t-122.5 -77.5t-155 -27
t-155.5 27t-123.5 77.5t-81 121.5t-29 159t29 159t81 121.5t123.5 77.5t155.5 27zM438 622q-51 0 -94 -17t-73.5 -49t-47.5 -78t-17 -104t17 -104t47.5 -78t73.5 -49t94 -17t93 17t72.5 49t47.5 78t17 104t-17 104t-47.5 78t-72.5 49t-93 17z" />
    <glyph glyph-name="obreve" unicode="&#x14f;" horiz-adv-x="638" 
d="M503 758q0 -42 -13.5 -73t-38.5 -51.5t-59 -30.5t-75 -10t-74.5 10t-58.5 30.5t-38.5 51.5t-13.5 73h118q0 -30 18.5 -47.5t48.5 -17.5q31 0 49.5 17.5t18.5 47.5h118zM319 527q59 0 109.5 -19t87 -54.5t57.5 -85t21 -110.5t-21 -110.5t-57.5 -85t-87 -54.5t-109.5 -19
t-109.5 19t-87.5 54.5t-57.5 85t-20.5 110.5t20.5 110.5t57.5 85t87.5 54.5t109.5 19zM319 402q-57 0 -92 -37.5t-35 -106.5q0 -68 35 -105.5t92 -37.5t92 37.5t35 105.5q0 69 -35 106.5t-92 37.5z" />
    <glyph glyph-name="Ohungarumlaut" unicode="&#x150;" horiz-adv-x="875" 
d="M270 798l61 169h138l-86 -169h-113zM472 798l61 169h138l-86 -169h-113zM438 759q84 0 155 -27t122.5 -77.5t81 -121.5t29.5 -159t-29.5 -159t-81 -121.5t-122.5 -77.5t-155 -27t-155.5 27t-123.5 77.5t-81 121.5t-29 159t29 159t81 121.5t123.5 77.5t155.5 27zM438 622
q-51 0 -94 -17t-73.5 -49t-47.5 -78t-17 -104t17 -104t47.5 -78t73.5 -49t94 -17t93 17t72.5 49t47.5 78t17 104t-17 104t-47.5 78t-72.5 49t-93 17z" />
    <glyph glyph-name="ohungarumlaut" unicode="&#x151;" horiz-adv-x="638" 
d="M157 602l62 180h138l-86 -180h-114zM359 602l62 180h138l-86 -180h-114zM319 527q59 0 109.5 -19t87 -54.5t57.5 -85t21 -110.5t-21 -110.5t-57.5 -85t-87 -54.5t-109.5 -19t-109.5 19t-87.5 54.5t-57.5 85t-20.5 110.5t20.5 110.5t57.5 85t87.5 54.5t109.5 19zM319 402
q-57 0 -92 -37.5t-35 -106.5q0 -68 35 -105.5t92 -37.5t92 37.5t35 105.5q0 69 -35 106.5t-92 37.5z" />
    <glyph glyph-name="OE" unicode="&#x152;" horiz-adv-x="1195" 
d="M1149 0h-480v56q-48 -32 -106.5 -49.5t-124.5 -17.5q-84 0 -155.5 27t-123.5 77.5t-81 121.5t-29 159t29 159t81 121.5t123.5 77.5t155.5 27q66 0 124.5 -17.5t106.5 -49.5v56h479v-136h-325v-162h282v-133h-282v-180h326v-137zM438 126q51 0 93 17t72.5 49t47.5 78
t17 104t-17 104t-47.5 78t-72.5 49t-93 17t-94 -17t-73.5 -49t-47.5 -78t-17 -104t17 -104t47.5 -78t73.5 -49t94 -17z" />
    <glyph glyph-name="oe" unicode="&#x153;" horiz-adv-x="1001" 
d="M601 212q2 -48 30 -76.5t78 -28.5q38 0 62.5 15t32.5 42l147 -7q-7 -37 -28 -67.5t-52.5 -53t-72 -35t-86.5 -12.5q-60 0 -110 19.5t-85 55.5q-37 -36 -87.5 -55.5t-110.5 -19.5q-59 0 -109.5 19t-87.5 54.5t-57.5 85t-20.5 110.5t20.5 110.5t57.5 85t87.5 54.5t109.5 19
q60 0 110.5 -19.5t87.5 -55.5q35 36 83.5 55.5t108.5 19.5q56 0 101.5 -17.5t78 -50.5t50 -81t17.5 -108v-58h-355zM707 413q-46 0 -74.5 -27t-31.5 -77h208q-2 48 -27 76t-75 28zM319 115q57 0 92 37.5t35 105.5q0 69 -35 106.5t-92 37.5t-92 -37.5t-35 -106.5
q0 -68 35 -105.5t92 -37.5z" />
    <glyph glyph-name="Racute" unicode="&#x154;" horiz-adv-x="707" 
d="M251 795l128 154h199l-194 -154h-133zM355 269h-125v-269h-155v748h320q53 0 97.5 -16t76.5 -46.5t49.5 -75t17.5 -102.5q0 -78 -32 -132.5t-88 -81.5l159 -294h-174zM376 406q45 0 74 26t29 76q0 51 -29 77.5t-74 26.5h-147v-206h147z" />
    <glyph glyph-name="racute" unicode="&#x155;" horiz-adv-x="378" 
d="M164 598l85 191h164l-135 -191h-114zM355 381q-63 0 -100 -32.5t-37 -86.5v-262h-146v517h141v-59q17 26 49.5 45t92.5 19v-141z" />
    <glyph glyph-name="Rcommaaccent" unicode="&#x156;" horiz-adv-x="707" 
d="M501 0l-146 269h-125v-269h-155v748h320q53 0 97.5 -16t76.5 -46.5t49.5 -75t17.5 -102.5q0 -78 -32 -132.5t-88 -81.5l159 -294h-174zM376 406q45 0 74 26t29 76q0 51 -29 77.5t-74 26.5h-147v-206h147zM360 -43q39 0 60.5 -27.5t21.5 -70.5q0 -72 -36.5 -130
t-116.5 -99v61q52 33 67 90q-35 2 -58.5 27t-23.5 60q0 37 24 63t62 26z" />
    <glyph glyph-name="rcommaaccent" unicode="&#x157;" horiz-adv-x="378" 
d="M213 458q17 26 49.5 45t92.5 19v-141q-63 0 -100 -32.5t-37 -86.5v-262h-146v517h141v-59zM146 -43q39 0 60.5 -27.5t21.5 -70.5q0 -72 -36.5 -130t-116.5 -99v61q52 33 67 90q-35 2 -58.5 27t-23.5 60q0 37 24 63t62 26z" />
    <glyph glyph-name="Rcaron" unicode="&#x158;" horiz-adv-x="707" 
d="M131 955h122l65 -75l64 75h123l-116 -160h-141zM355 269h-125v-269h-155v748h320q53 0 97.5 -16t76.5 -46.5t49.5 -75t17.5 -102.5q0 -78 -32 -132.5t-88 -81.5l159 -294h-174zM376 406q45 0 74 26t29 76q0 51 -29 77.5t-74 26.5h-147v-206h147z" />
    <glyph glyph-name="rcaron" unicode="&#x159;" horiz-adv-x="378" 
d="M153 597l-116 176h122l65 -82l65 82h122l-117 -176h-141zM355 381q-63 0 -100 -32.5t-37 -86.5v-262h-146v517h141v-59q17 26 49.5 45t92.5 19v-141z" />
    <glyph glyph-name="Sacute" unicode="&#x15a;" horiz-adv-x="663" 
d="M263 795l128 154h199l-194 -154h-133zM328 759q61 0 111 -15.5t86.5 -45.5t57 -72.5t22.5 -96.5l-158 -8q-1 48 -31.5 76t-84.5 28t-82.5 -25t-28.5 -65q0 -21 8.5 -35.5t26 -25t45 -19t66.5 -17.5q57 -15 104 -32.5t80.5 -42.5t51.5 -60t18 -85q0 -60 -22 -103
t-59.5 -71t-87.5 -41.5t-106 -13.5q-65 0 -119.5 15.5t-94.5 46t-62.5 75.5t-23.5 103l157 8q1 -26 12 -47t30 -36t45 -23t56 -8q52 0 85 20t33 66q0 43 -39.5 63.5t-114.5 39.5q-51 13 -95.5 28t-78.5 39t-53.5 60.5t-19.5 90.5q0 46 16.5 87.5t49.5 73t83 50t117 18.5z
" />
    <glyph glyph-name="sacute" unicode="&#x15b;" horiz-adv-x="506" 
d="M186 598l85 191h164l-135 -191h-114zM249 527q49 0 86.5 -12.5t63.5 -35t41 -53t18 -66.5l-145 -8q-2 28 -17 45.5t-49 17.5q-59 0 -59 -44q0 -14 7 -22t20 -14t32 -10.5t42 -10.5q39 -10 71 -22t55.5 -29.5t36.5 -42t13 -59.5q0 -79 -55 -125.5t-157 -46.5
q-100 0 -156 43.5t-64 124.5l146 8q2 -29 19.5 -46.5t55.5 -17.5q30 0 47.5 12t17.5 35q0 12 -4 20t-14.5 14.5t-29 12t-46.5 12.5q-41 10 -75 21t-58 28t-37 42.5t-13 65.5q0 75 54.5 119t152.5 44z" />
    <glyph glyph-name="Scircumflex" unicode="&#x15c;" horiz-adv-x="663" 
d="M394 795l-64 75l-65 -75h-122l117 160h141l116 -160h-123zM328 759q61 0 111 -15.5t86.5 -45.5t57 -72.5t22.5 -96.5l-158 -8q-1 48 -31.5 76t-84.5 28t-82.5 -25t-28.5 -65q0 -21 8.5 -35.5t26 -25t45 -19t66.5 -17.5q57 -15 104 -32.5t80.5 -42.5t51.5 -60t18 -85
q0 -60 -22 -103t-59.5 -71t-87.5 -41.5t-106 -13.5q-65 0 -119.5 15.5t-94.5 46t-62.5 75.5t-23.5 103l157 8q1 -26 12 -47t30 -36t45 -23t56 -8q52 0 85 20t33 66q0 43 -39.5 63.5t-114.5 39.5q-51 13 -95.5 28t-78.5 39t-53.5 60.5t-19.5 90.5q0 46 16.5 87.5t49.5 73
t83 50t117 18.5z" />
    <glyph glyph-name="scircumflex" unicode="&#x15d;" horiz-adv-x="506" 
d="M310 599l-65 82l-65 -82h-122l116 177h141l117 -177h-122zM249 527q49 0 86.5 -12.5t63.5 -35t41 -53t18 -66.5l-145 -8q-2 28 -17 45.5t-49 17.5q-59 0 -59 -44q0 -14 7 -22t20 -14t32 -10.5t42 -10.5q39 -10 71 -22t55.5 -29.5t36.5 -42t13 -59.5q0 -79 -55 -125.5
t-157 -46.5q-100 0 -156 43.5t-64 124.5l146 8q2 -29 19.5 -46.5t55.5 -17.5q30 0 47.5 12t17.5 35q0 12 -4 20t-14.5 14.5t-29 12t-46.5 12.5q-41 10 -75 21t-58 28t-37 42.5t-13 65.5q0 75 54.5 119t152.5 44z" />
    <glyph glyph-name="Scedilla" unicode="&#x15e;" horiz-adv-x="663" 
d="M620 218q0 -56 -19.5 -98t-53.5 -70t-79 -42.5t-97 -17.5l-9 -36q21 -2 41.5 -9t36 -20t25 -32t9.5 -43q0 -28 -12 -48t-31.5 -33t-44.5 -19.5t-52 -6.5q-33 0 -57 5t-42 14l23 77q22 -14 55 -14q17 0 34.5 7.5t17.5 27.5t-16 28.5t-39 8.5q-11 0 -19.5 -1.5t-16.5 -3.5
l32 99q-57 4 -105 22t-82.5 48t-53.5 72t-20 96l157 8q1 -26 12 -47t30 -36t45 -23t56 -8q52 0 85 20t33 66q0 43 -39.5 63.5t-114.5 39.5q-51 13 -95.5 28t-78.5 39t-53.5 60.5t-19.5 90.5q0 46 16.5 87.5t49.5 73t83 50t117 18.5q61 0 111 -15.5t86.5 -45.5t57 -72.5
t22.5 -96.5l-158 -8q-1 48 -31.5 76t-84.5 28t-82.5 -25t-28.5 -65q0 -21 8.5 -35.5t26 -25t45 -19t66.5 -17.5q57 -15 104 -32.5t80.5 -42.5t51.5 -60t18 -85z" />
    <glyph glyph-name="scedilla" unicode="&#x15f;" horiz-adv-x="506" 
d="M465 161q0 -73 -47.5 -118.5t-135.5 -52.5l-9 -36q21 -2 41.5 -9t36 -20t25 -32t9.5 -43q0 -28 -12 -48t-31.5 -33t-44.5 -19.5t-52 -6.5q-33 0 -57 5t-42 14l23 77q22 -14 55 -14q17 0 34.5 7.5t17.5 27.5t-16 28.5t-39 8.5q-11 0 -19.5 -1.5t-16.5 -3.5l32 99
q-83 8 -129.5 50t-54.5 116l146 8q2 -29 19.5 -46.5t55.5 -17.5q30 0 47.5 12t17.5 35q0 12 -4 20t-14.5 14.5t-29 12t-46.5 12.5q-41 10 -75 21t-58 28t-37 42.5t-13 65.5q0 75 54.5 119t152.5 44q49 0 86.5 -12.5t63.5 -35t41 -53t18 -66.5l-145 -8q-2 28 -17 45.5
t-49 17.5q-59 0 -59 -44q0 -14 7 -22t20 -14t32 -10.5t42 -10.5q39 -10 71 -22t55.5 -29.5t36.5 -42t13 -59.5z" />
    <glyph glyph-name="Scaron" unicode="&#x160;" horiz-adv-x="663" 
d="M260 795l-117 160h122l65 -75l64 75h123l-116 -160h-141zM328 759q61 0 111 -15.5t86.5 -45.5t57 -72.5t22.5 -96.5l-158 -8q-1 48 -31.5 76t-84.5 28t-82.5 -25t-28.5 -65q0 -21 8.5 -35.5t26 -25t45 -19t66.5 -17.5q57 -15 104 -32.5t80.5 -42.5t51.5 -60t18 -85
q0 -60 -22 -103t-59.5 -71t-87.5 -41.5t-106 -13.5q-65 0 -119.5 15.5t-94.5 46t-62.5 75.5t-23.5 103l157 8q1 -26 12 -47t30 -36t45 -23t56 -8q52 0 85 20t33 66q0 43 -39.5 63.5t-114.5 39.5q-51 13 -95.5 28t-78.5 39t-53.5 60.5t-19.5 90.5q0 46 16.5 87.5t49.5 73
t83 50t117 18.5z" />
    <glyph glyph-name="scaron" unicode="&#x161;" horiz-adv-x="506" 
d="M174 597l-116 176h122l65 -82l65 82h122l-117 -176h-141zM249 527q49 0 86.5 -12.5t63.5 -35t41 -53t18 -66.5l-145 -8q-2 28 -17 45.5t-49 17.5q-59 0 -59 -44q0 -14 7 -22t20 -14t32 -10.5t42 -10.5q39 -10 71 -22t55.5 -29.5t36.5 -42t13 -59.5q0 -79 -55 -125.5
t-157 -46.5q-100 0 -156 43.5t-64 124.5l146 8q2 -29 19.5 -46.5t55.5 -17.5q30 0 47.5 12t17.5 35q0 12 -4 20t-14.5 14.5t-29 12t-46.5 12.5q-41 10 -75 21t-58 28t-37 42.5t-13 65.5q0 75 54.5 119t152.5 44z" />
    <glyph glyph-name="Tcaron" unicode="&#x164;" horiz-adv-x="693" 
d="M280 795l-117 160h122l65 -75l64 75h123l-116 -160h-141zM424 612v-612h-154v612h-251v136h655v-136h-250z" />
    <glyph glyph-name="tcaron" unicode="&#x165;" horiz-adv-x="585" 
d="M491 776q39 0 60.5 -27.5t21.5 -70.5q0 -72 -36.5 -130t-116.5 -99v61q52 33 67 90q-35 2 -58.5 27t-23.5 60q0 37 24 63t62 26zM373 517v-126h-122l-1 -192q0 -43 23.5 -60.5t54.5 -17.5q16 0 26.5 1.5t18.5 3.5v-130q-16 -2 -33.5 -4t-47.5 -2q-42 0 -77 10.5
t-59.5 31.5t-38 54t-13.5 78l1 227h-94v126h95l1 171h146l-1 -171h121z" />
    <glyph glyph-name="Tbar" unicode="&#x166;" horiz-adv-x="693" 
d="M424 414h123v-118h-123v-296h-154v296h-124v118h124v198h-251v136h655v-136h-250v-198z" />
    <glyph glyph-name="tbar" unicode="&#x167;" horiz-adv-x="404" 
d="M251 315h122v-104h-123v-12q0 -43 23.5 -60.5t54.5 -17.5q16 0 26.5 1.5t18.5 3.5v-130q-16 -2 -33.5 -4t-47.5 -2q-42 0 -77 10.5t-59.5 31.5t-38 54t-13.5 78v47h-93v104h94v76h-94v126h95l1 171h146l-1 -171h121v-126h-122v-76z" />
    <glyph glyph-name="Utilde" unicode="&#x168;" horiz-adv-x="777" 
d="M313 959q24 0 41.5 -8.5t32.5 -18t29 -18t30 -8.5q23 0 32 13t10 33h82q3 -30 -3.5 -58t-20.5 -49.5t-35.5 -34.5t-48.5 -13q-24 0 -41.5 8.5t-32.5 18t-28.5 18t-29.5 8.5q-23 0 -32.5 -13t-9.5 -33h-82q-3 30 3.5 58t20 49.5t35 34.5t48.5 13zM707 304
q0 -75 -22 -133.5t-63.5 -99t-100.5 -61.5t-132 -21q-74 0 -133.5 21t-100.5 61.5t-63 99t-22 133.5v444h154v-442q0 -88 42 -134t123 -46q80 0 122 46t42 134v442h154v-444z" />
    <glyph glyph-name="utilde" unicode="&#x169;" 
d="M226 761q24 0 41.5 -8.5t32.5 -18.5t29 -18.5t30 -8.5q23 0 32 13t10 34h82q3 -30 -3.5 -58.5t-20.5 -50t-35.5 -34.5t-48.5 -13q-24 0 -41.5 8.5t-32.5 18t-28.5 18t-29.5 8.5q-23 0 -32.5 -13t-9.5 -33h-82q-3 30 3.5 58.5t20 50t35 34.5t48.5 13zM392 0v52
q-15 -24 -47 -43.5t-87 -19.5q-90 0 -140.5 54t-50.5 149v325h146v-294q0 -48 20 -73t63 -25q42 0 65 28t23 72v292h146v-517h-138z" />
    <glyph glyph-name="Umacron" unicode="&#x16a;" horiz-adv-x="777" 
d="M238 815v111h300v-111h-300zM707 304q0 -75 -22 -133.5t-63.5 -99t-100.5 -61.5t-132 -21q-74 0 -133.5 21t-100.5 61.5t-63 99t-22 133.5v444h154v-442q0 -88 42 -134t123 -46q80 0 122 46t42 134v442h154v-444z" />
    <glyph glyph-name="umacron" unicode="&#x16b;" 
d="M152 619v112h300v-112h-300zM392 0v52q-15 -24 -47 -43.5t-87 -19.5q-90 0 -140.5 54t-50.5 149v325h146v-294q0 -48 20 -73t63 -25q42 0 65 28t23 72v292h146v-517h-138z" />
    <glyph glyph-name="Ubreve" unicode="&#x16c;" horiz-adv-x="777" 
d="M574 961q0 -42 -13.5 -73t-38.5 -51.5t-59 -30.5t-75 -10t-74.5 10t-58.5 30.5t-38.5 51.5t-13.5 73h118q0 -30 18.5 -47t48.5 -17q31 0 49.5 17t18.5 47h118zM707 304q0 -75 -22 -133.5t-63.5 -99t-100.5 -61.5t-132 -21q-74 0 -133.5 21t-100.5 61.5t-63 99t-22 133.5
v444h154v-442q0 -88 42 -134t123 -46q80 0 122 46t42 134v442h154v-444z" />
    <glyph glyph-name="ubreve" unicode="&#x16d;" 
d="M487 758q0 -42 -13.5 -73t-38.5 -51.5t-59 -30.5t-75 -10t-74.5 10t-58.5 30.5t-38.5 51.5t-13.5 73h118q0 -30 18.5 -47.5t48.5 -17.5q31 0 49.5 17.5t18.5 47.5h118zM392 0v52q-15 -24 -47 -43.5t-87 -19.5q-90 0 -140.5 54t-50.5 149v325h146v-294q0 -48 20 -73
t63 -25q42 0 65 28t23 72v292h146v-517h-138z" />
    <glyph glyph-name="Uring" unicode="&#x16e;" horiz-adv-x="777" 
d="M389 1008q23 0 43.5 -8t36 -22t24.5 -34t9 -44q0 -23 -9 -43t-24.5 -34t-36 -22t-43.5 -8q-49 0 -82.5 30t-33.5 77q0 24 9 44t24.5 34t37 22t45.5 8zM389 941q-20 0 -31 -11.5t-11 -29.5q0 -17 11 -28t31 -11q17 0 28 11t11 28q0 18 -11 29.5t-28 11.5zM707 304
q0 -75 -22 -133.5t-63.5 -99t-100.5 -61.5t-132 -21q-74 0 -133.5 21t-100.5 61.5t-63 99t-22 133.5v444h154v-442q0 -88 42 -134t123 -46q80 0 122 46t42 134v442h154v-444z" />
    <glyph glyph-name="uring" unicode="&#x16f;" 
d="M302 823q27 0 51 -9t42 -25.5t28 -38.5t10 -49t-10 -49t-28 -38.5t-42 -25.5t-51 -9t-51 9t-42 25.5t-28 38.5t-10 49t10 49t28 38.5t42 25.5t51 9zM302 745q-21 0 -33 -12t-12 -32t12 -31.5t33 -11.5q20 0 32 11.5t12 31.5t-12 32t-32 12zM392 0v52q-15 -24 -47 -43.5
t-87 -19.5q-90 0 -140.5 54t-50.5 149v325h146v-294q0 -48 20 -73t63 -25q42 0 65 28t23 72v292h146v-517h-138z" />
    <glyph glyph-name="Uhungarumlaut" unicode="&#x170;" horiz-adv-x="777" 
d="M224 798l61 169h138l-86 -169h-113zM426 798l61 169h138l-86 -169h-113zM707 304q0 -75 -22 -133.5t-63.5 -99t-100.5 -61.5t-132 -21q-74 0 -133.5 21t-100.5 61.5t-63 99t-22 133.5v444h154v-442q0 -88 42 -134t123 -46q80 0 122 46t42 134v442h154v-444z" />
    <glyph glyph-name="uhungarumlaut" unicode="&#x171;" 
d="M141 602l62 180h138l-86 -180h-114zM343 602l62 180h138l-86 -180h-114zM392 0v52q-15 -24 -47 -43.5t-87 -19.5q-90 0 -140.5 54t-50.5 149v325h146v-294q0 -48 20 -73t63 -25q42 0 65 28t23 72v292h146v-517h-138z" />
    <glyph glyph-name="Uogonek" unicode="&#x172;" horiz-adv-x="777" 
d="M707 304q0 -126 -60 -204t-166 -102q-33 -18 -51 -35t-18 -41q0 -17 11 -26.5t30 -9.5q15 0 27 3t23 9l13 -71q-18 -8 -38 -13t-49 -5q-26 0 -49 5.5t-40 17t-27 29.5t-10 43q0 29 14 49.5t39 36.5q-134 9 -210 90t-76 224v444h154v-442q0 -88 42 -134t123 -46
q80 0 122 46t42 134v442h154v-444z" />
    <glyph glyph-name="uogonek" unicode="&#x173;" 
d="M532 -174q-18 -8 -38 -13t-49 -5q-26 0 -49 5.5t-40 17t-27 29.5t-10 43q0 34 19.5 57.5t53.5 40.5v51q-15 -24 -47 -43.5t-87 -19.5q-90 0 -140.5 54t-50.5 149v325h146v-294q0 -48 20 -73t63 -25q42 0 65 28t23 72v292h146v-517h-29q-35 -20 -54 -36.5t-19 -42.5
q0 -17 11 -26.5t30 -9.5q15 0 27 3t23 9z" />
    <glyph glyph-name="Wcircumflex" unicode="&#x174;" horiz-adv-x="1125" 
d="M627 795l-64 75l-65 -75h-122l117 160h141l116 -160h-123zM722 0l-159 474l-159 -474h-131l-261 748h168l160 -486l159 486h127l160 -486l159 486h168l-261 -748h-130z" />
    <glyph glyph-name="wcircumflex" unicode="&#x175;" horiz-adv-x="846" 
d="M490 599l-65 82l-65 -82h-122l116 177h141l117 -177h-122zM527 0l-104 274l-104 -274h-116l-198 517h160l101 -296l106 296h102l107 -296l101 296h160l-199 -517h-116z" />
    <glyph glyph-name="Ycircumflex" unicode="&#x176;" horiz-adv-x="744" 
d="M436 795l-64 75l-65 -75h-122l117 160h141l116 -160h-123zM450 0h-154v288l-284 460h179l181 -307l181 307h180l-283 -460v-288z" />
    <glyph glyph-name="ycircumflex" unicode="&#x177;" horiz-adv-x="573" 
d="M352 599l-65 82l-65 -82h-122l116 177h141l117 -177h-122zM77 -255l132 301l-202 471h161l119 -308l118 308h162l-331 -772h-159z" />
    <glyph glyph-name="Ydieresis" unicode="&#x178;" horiz-adv-x="744" 
d="M277 957q33 0 56.5 -23t23.5 -56t-23.5 -56t-56.5 -23t-56 23t-23 56t23 56t56 23zM470 957q33 0 56 -23t23 -56t-23 -56t-56 -23t-56 23t-23 56t23 56t56 23zM450 0h-154v288l-284 460h179l181 -307l181 307h180l-283 -460v-288z" />
    <glyph glyph-name="Zacute" unicode="&#x179;" horiz-adv-x="626" 
d="M243 795l128 154h199l-194 -154h-133zM234 137h358v-137h-555v117l346 495h-341v136h540v-117z" />
    <glyph glyph-name="zacute" unicode="&#x17a;" horiz-adv-x="455" 
d="M171 598l85 191h164l-135 -191h-114zM203 118h219v-118h-388v96l212 303h-208v118h376v-97z" />
    <glyph glyph-name="Zdotaccent" unicode="&#x17b;" horiz-adv-x="626" 
d="M311 973q37 0 62.5 -25.5t25.5 -62.5t-25.5 -62t-62.5 -25q-36 0 -61.5 25t-25.5 62q0 18 7 34t19 28t27.5 19t33.5 7zM234 137h358v-137h-555v117l346 495h-341v136h540v-117z" />
    <glyph glyph-name="zdotaccent" unicode="&#x17c;" horiz-adv-x="455" 
d="M230 770q37 0 62.5 -26t25.5 -62q0 -37 -25.5 -62.5t-62.5 -25.5q-36 0 -61.5 25.5t-25.5 62.5q0 18 7 34t19 28t27.5 19t33.5 7zM203 118h219v-118h-388v96l212 303h-208v118h376v-97z" />
    <glyph glyph-name="Zcaron" unicode="&#x17d;" horiz-adv-x="626" 
d="M241 795l-117 160h122l65 -75l64 75h123l-116 -160h-141zM234 137h358v-137h-555v117l346 495h-341v136h540v-117z" />
    <glyph glyph-name="zcaron" unicode="&#x17e;" horiz-adv-x="455" 
d="M160 597l-116 176h122l65 -82l65 82h122l-117 -176h-141zM203 118h219v-118h-388v96l212 303h-208v118h376v-97z" />
    <glyph glyph-name="florin" unicode="&#x192;" horiz-adv-x="444" 
d="M365 786q51 0 86.5 -12t60.5 -29l-58 -120q-12 13 -30.5 22.5t-42.5 9.5q-31 0 -49 -15.5t-25 -50.5l-13 -74h125v-121h-147l-95 -538h-148l95 538h-95v121h117l17 98q16 89 70.5 130t131.5 41z" />
    <glyph glyph-name="Aringacute" unicode="&#x1fa;" horiz-adv-x="789" 
d="M404 772q-49 0 -82 30t-33 77q0 29 12 51t33 36l118 113h182l-168 -109q23 -14 37 -37.5t14 -53.5q0 -23 -9 -43t-24 -34t-35.5 -22t-44.5 -8zM404 840q17 0 28.5 11t11.5 28q0 18 -11.5 29.5t-28.5 11.5q-19 0 -30 -11.5t-11 -29.5q0 -17 11 -28t30 -11zM611 0l-61 144
h-311l-62 -144h-169l321 748h130l322 -748h-170zM395 509l-101 -239h202z" />
    <glyph glyph-name="aringacute" unicode="&#x1fb;" horiz-adv-x="557" 
d="M281 575q-24 0 -45 8t-36.5 22.5t-24.5 34t-9 43.5q0 26 10.5 47t28.5 35l124 117h182l-168 -108q23 -14 37.5 -37.5t14.5 -53.5q0 -24 -9 -43.5t-24.5 -34t-36 -22.5t-44.5 -8zM281 643q18 0 29 11.5t11 28.5t-11 28.5t-29 11.5q-19 0 -30 -11.5t-11 -28.5t11 -28.5
t30 -11.5zM274 527q105 0 160 -52.5t55 -155.5v-319h-141v42q-22 -23 -54.5 -38t-77.5 -15q-78 0 -125 39t-47 114q0 43 17 72.5t45.5 47.5t66 26.5t78.5 10.5l92 5v20q0 80 -67 80q-38 0 -55 -21t-17 -47l-146 6q0 34 15 67t43 59.5t68 42.5t90 16zM265 203q-33 -2 -54 -14
t-21 -40q0 -26 17 -36.5t43 -10.5q40 0 66.5 21t26.5 63v22z" />
    <glyph glyph-name="AEacute" unicode="&#x1fc;" horiz-adv-x="1053" 
d="M608 795l128 154h199l-194 -154h-133zM680 450h282v-133h-282v-180h326v-137h-480v144h-236l-97 -144h-188l504 748h497v-136h-326v-162zM526 500l-152 -230h152v230z" />
    <glyph glyph-name="aeacute" unicode="&#x1fd;" horiz-adv-x="899" 
d="M374 598l85 191h164l-135 -191h-114zM500 212q2 -48 30 -76.5t78 -28.5q38 0 62.5 15t32.5 42l147 -7q-7 -37 -28 -67.5t-52.5 -53t-72 -35t-86.5 -12.5q-62 0 -112.5 20t-85.5 58q-33 -35 -79.5 -56.5t-105.5 -21.5q-85 0 -134.5 40t-49.5 115q0 43 17 72t45.5 47t66 26
t78.5 10l92 5v19q0 35 -15 58.5t-53 23.5t-54.5 -21.5t-16.5 -47.5l-146 6q0 34 14.5 67t42 59.5t67 42.5t89.5 16q105 0 160 -61q69 61 177 61q56 0 101.5 -17.5t78 -50.5t50 -81t17.5 -108v-58h-355zM606 413q-46 0 -74.5 -27t-31.5 -77h208q-2 48 -27 76t-75 28zM265 203
q-33 -2 -54 -13.5t-21 -39.5q0 -26 17 -36t43 -10q18 0 34.5 4.5t29.5 14.5t21 25.5t8 37.5v22z" />
    <glyph glyph-name="Oslashacute" unicode="&#x1fe;" horiz-adv-x="868" 
d="M367 795l128 154h199l-194 -154h-133zM720 651q50 -51 78 -120.5t28 -156.5q0 -88 -29.5 -159t-81 -121.5t-122.5 -77.5t-155 -27q-106 0 -192 43l-62 -81l-95 72l61 80q-48 50 -74.5 118t-26.5 153q0 88 29 159t81 121.5t123.5 77.5t155.5 27q102 0 185 -40l61 80
l95 -71zM206 374q0 -45 10 -82t29 -66l289 378q-42 18 -96 18q-51 0 -94 -17t-73.5 -49t-47.5 -78t-17 -104zM438 126q51 0 93 17t72.5 49t47.5 78t17 104q0 92 -42 154l-292 -381q46 -21 104 -21z" />
    <glyph glyph-name="oslashacute" unicode="&#x1ff;" horiz-adv-x="638" 
d="M259 598l85 191h164l-135 -191h-114zM524 445q33 -35 51.5 -82t18.5 -105q0 -61 -21 -110.5t-57.5 -85t-87 -54.5t-109.5 -19q-67 0 -121 24l-44 -59l-80 59l42 56q-34 35 -53 82.5t-19 106.5q0 61 20.5 110.5t57.5 85t87.5 54.5t109.5 19q66 0 124 -25l37 50l80 -60z
M192 258q0 -39 13 -71l157 208q-18 7 -43 7q-57 0 -92 -37.5t-35 -106.5zM319 115q57 0 92 37.5t35 105.5q0 37 -11 67l-155 -205q20 -5 39 -5z" />
    <glyph glyph-name="Scommaaccent" unicode="&#x218;" horiz-adv-x="663" 
d="M366 438q57 -15 104 -32.5t80.5 -42.5t51.5 -60t18 -85q0 -60 -22 -103t-59.5 -71t-87.5 -41.5t-106 -13.5q-65 0 -119.5 15.5t-94.5 46t-62.5 75.5t-23.5 103l157 8q1 -26 12 -47t30 -36t45 -23t56 -8q52 0 85 20t33 66q0 43 -39.5 63.5t-114.5 39.5q-51 13 -95.5 28
t-78.5 39t-53.5 60.5t-19.5 90.5q0 46 16.5 87.5t49.5 73t83 50t117 18.5q61 0 111 -15.5t86.5 -45.5t57 -72.5t22.5 -96.5l-158 -8q-1 48 -31.5 76t-84.5 28t-82.5 -25t-28.5 -65q0 -21 8.5 -35.5t26 -25t45 -19t66.5 -17.5zM339 -48q39 0 60.5 -27.5t21.5 -70.5
q0 -72 -36.5 -130t-116.5 -99v61q52 33 67 90q-35 2 -58.5 27t-23.5 60q0 37 24 63t62 26z" />
    <glyph glyph-name="scommaaccent" unicode="&#x219;" horiz-adv-x="506" 
d="M289 314q39 -10 71 -22t55.5 -29.5t36.5 -42t13 -59.5q0 -79 -55 -125.5t-157 -46.5q-100 0 -156 43.5t-64 124.5l146 8q2 -29 19.5 -46.5t55.5 -17.5q30 0 47.5 12t17.5 35q0 12 -4 20t-14.5 14.5t-29 12t-46.5 12.5q-41 10 -75 21t-58 28t-37 42.5t-13 65.5
q0 75 54.5 119t152.5 44q49 0 86.5 -12.5t63.5 -35t41 -53t18 -66.5l-145 -8q-2 28 -17 45.5t-49 17.5q-59 0 -59 -44q0 -14 7 -22t20 -14t32 -10.5t42 -10.5zM250 -48q39 0 60.5 -27.5t21.5 -70.5q0 -72 -36.5 -130t-116.5 -99v61q52 33 67 90q-35 2 -58.5 27t-23.5 60
q0 37 24 63t62 26z" />
    <glyph glyph-name="uni021A" unicode="&#x21a;" horiz-adv-x="693" 
d="M674 612h-250v-612h-154v612h-251v136h655v-136zM348 -43q39 0 60.5 -27.5t21.5 -70.5q0 -72 -36.5 -130t-116.5 -99v61q52 33 67 90q-35 2 -58.5 27t-23.5 60q0 37 24 63t62 26z" />
    <glyph glyph-name="uni021B" unicode="&#x21b;" horiz-adv-x="404" 
d="M250 199q0 -43 23.5 -60.5t54.5 -17.5q16 0 26.5 1.5t18.5 3.5v-130q-16 -2 -33.5 -4t-47.5 -2q-42 0 -77 10.5t-59.5 31.5t-38 54t-13.5 78l1 227h-94v126h95l1 171h146l-1 -171h121v-126h-122zM233 -51q39 0 60.5 -27.5t21.5 -70.5q0 -72 -36.5 -130t-116.5 -99v61
q52 33 67 90q-35 2 -58.5 27t-23.5 60q0 37 24 63t62 26z" />
    <glyph glyph-name="dotlessj" unicode="&#x237;" horiz-adv-x="291" 
d="M219 -51q0 -56 -15 -96.5t-41 -66.5t-62.5 -38.5t-78.5 -12.5q-43 0 -74.5 10t-53.5 24l58 119q10 -8 22.5 -16t32.5 -8q32 0 49 18.5t17 58.5v576h146v-568z" />
    <glyph glyph-name="circumflex" unicode="&#x2c6;" horiz-adv-x="391" 
d="M261 599l-65 82l-65 -82h-122l116 177h141l117 -177h-122z" />
    <glyph glyph-name="caron" unicode="&#x2c7;" horiz-adv-x="391" 
d="M125 597l-116 176h122l65 -82l65 82h122l-117 -176h-141z" />
    <glyph glyph-name="breve" unicode="&#x2d8;" horiz-adv-x="391" 
d="M381 758q0 -42 -13.5 -73t-38.5 -51.5t-59 -30.5t-75 -10t-74.5 10t-58.5 30.5t-38.5 51.5t-13.5 73h118q0 -30 18.5 -47.5t48.5 -17.5q31 0 49.5 17.5t18.5 47.5h118z" />
    <glyph glyph-name="dotaccent" unicode="&#x2d9;" horiz-adv-x="195" 
d="M97 770q37 0 62.5 -26t25.5 -62q0 -37 -25.5 -62.5t-62.5 -25.5q-36 0 -61.5 25.5t-25.5 62.5q0 18 7 34t19 28t27.5 19t33.5 7z" />
    <glyph glyph-name="ring" unicode="&#x2da;" horiz-adv-x="281" 
d="M141 823q27 0 51 -9t42 -25.5t28 -38.5t10 -49t-10 -49t-28 -38.5t-42 -25.5t-51 -9t-51 9t-42 25.5t-28 38.5t-10 49t10 49t28 38.5t42 25.5t51 9zM141 745q-21 0 -33 -12t-12 -32t12 -31.5t33 -11.5q20 0 32 11.5t12 31.5t-12 32t-32 12z" />
    <glyph glyph-name="ogonek" unicode="&#x2db;" horiz-adv-x="235" 
d="M196 4q-35 -20 -55 -37t-20 -43q0 -17 11 -26.5t30 -9.5q15 0 27 3t23 9l13 -71q-18 -8 -38 -13t-49 -5q-26 0 -49 5.5t-40 17t-27 29.5t-10 43q0 26 12 46t33.5 35.5t51 27t63.5 21.5z" />
    <glyph glyph-name="tilde" unicode="&#x2dc;" horiz-adv-x="384" 
d="M117 761q24 0 41.5 -8.5t32.5 -18.5t29 -18.5t30 -8.5q23 0 32 13t10 34h82q3 -30 -3.5 -58.5t-20.5 -50t-35.5 -34.5t-48.5 -13q-24 0 -41.5 8.5t-32.5 18t-28.5 18t-29.5 8.5q-23 0 -32.5 -13t-9.5 -33h-82q-3 30 3.5 58.5t20 50t35 34.5t48.5 13z" />
    <glyph glyph-name="hungarumlaut" unicode="&#x2dd;" horiz-adv-x="420" 
d="M9 602l62 180h138l-86 -180h-114zM211 602l62 180h138l-86 -180h-114z" />
    <glyph glyph-name="uni0326" unicode="&#x326;" horiz-adv-x="0" 
d="M206 -142q-1 -72 -37.5 -129t-115.5 -99v61q53 35 66 90q-34 3 -57.5 27.5t-23.5 59.5q0 37 24 63t62 26q39 0 60.5 -27.5t21.5 -69.5v-1v-1z" />
    <glyph glyph-name="Omega" unicode="&#x3a9;" horiz-adv-x="798" 
d="M399 726q78 0 139.5 -27t104.5 -74t65.5 -110t22.5 -136q0 -44 -9.5 -84.5t-25 -75t-35 -62t-38.5 -45.5h154v-112h-308v103q28 18 53.5 47t44.5 65t30 76.5t11 82.5q0 52 -14 96t-41 76t-66 50t-88 18q-50 0 -88.5 -18t-65.5 -50t-41 -76t-14 -96q0 -42 11 -82.5
t30 -76.5t44.5 -65t53.5 -47v-103h-308v112h154q-19 18 -38 45.5t-34.5 62t-25 75t-9.5 84.5q0 73 22.5 136t65 110t104 74t139.5 27z" />
    <glyph glyph-name="mu" unicode="&#x3bc;" horiz-adv-x="607" 
d="M535 0h-138v52q-15 -24 -47 -43.5t-87 -19.5q-26 0 -45 4v-248h-146v772h146v-294q0 -48 20 -73t63 -25q42 0 65 28t23 72v292h146v-517z" />
    <glyph glyph-name="pi" unicode="&#x3c0;" horiz-adv-x="721" 
d="M697 466q-8 -26 -20.5 -49.5t-32 -42.5t-46.5 -30t-63 -11h-8l-22 -181q-6 -39 24 -39q11 0 21 5t18 12l65 -85q-24 -26 -53.5 -40t-71.5 -14q-69 0 -98 41.5t-21 110.5l22 190h-94l-24 -194q-7 -50 -18 -82t-24 -57h-136q10 22 19.5 41.5t17 38.5t13 39t8.5 43l22 171
h-17q-30 0 -51.5 -14.5t-36.5 -34.5l-67 100q17 17 34.5 31.5t38.5 25t48 16t63 5.5h254q29 0 49 4.5t34 13.5t23.5 22t17.5 29z" />
    <glyph glyph-name="Wgrave" unicode="&#x1e80;" horiz-adv-x="1125" 
d="M491 795l-194 154h199l128 -154h-133zM722 0l-159 474l-159 -474h-131l-261 748h168l160 -486l159 486h127l160 -486l159 486h168l-261 -748h-130z" />
    <glyph glyph-name="wgrave" unicode="&#x1e81;" horiz-adv-x="846" 
d="M364 598l-136 191h166l83 -191h-113zM527 0l-104 274l-104 -274h-116l-198 517h160l101 -296l106 296h102l107 -296l101 296h160l-199 -517h-116z" />
    <glyph glyph-name="Wacute" unicode="&#x1e82;" horiz-adv-x="1125" 
d="M496 795l128 154h199l-194 -154h-133zM722 0l-159 474l-159 -474h-131l-261 748h168l160 -486l159 486h127l160 -486l159 486h168l-261 -748h-130z" />
    <glyph glyph-name="wacute" unicode="&#x1e83;" horiz-adv-x="846" 
d="M365 598l85 191h164l-135 -191h-114zM527 0l-104 274l-104 -274h-116l-198 517h160l101 -296l106 296h102l107 -296l101 296h160l-199 -517h-116z" />
    <glyph glyph-name="Wdieresis" unicode="&#x1e84;" horiz-adv-x="1125" 
d="M467 957q33 0 56.5 -23t23.5 -56t-23.5 -56t-56.5 -23t-56 23t-23 56t23 56t56 23zM660 957q33 0 56 -23t23 -56t-23 -56t-56 -23t-56 23t-23 56t23 56t56 23zM722 0l-159 474l-159 -474h-131l-261 748h168l160 -486l159 486h127l160 -486l159 486h168l-261 -748h-130z
" />
    <glyph glyph-name="wdieresis" unicode="&#x1e85;" horiz-adv-x="846" 
d="M327 757q33 0 56.5 -23t23.5 -55q0 -34 -23.5 -56.5t-56.5 -22.5t-56 22.5t-23 56.5q0 32 23 55t56 23zM520 757q33 0 56 -23t23 -55q0 -34 -23 -56.5t-56 -22.5t-56 22.5t-23 56.5q0 32 23 55t56 23zM527 0l-104 274l-104 -274h-116l-198 517h160l101 -296l106 296h102
l107 -296l101 296h160l-199 -517h-116z" />
    <glyph glyph-name="Ygrave" unicode="&#x1ef2;" horiz-adv-x="744" 
d="M300 795l-194 154h199l128 -154h-133zM450 0h-154v288l-284 460h179l181 -307l181 307h180l-283 -460v-288z" />
    <glyph glyph-name="ygrave" unicode="&#x1ef3;" horiz-adv-x="573" 
d="M226 598l-136 191h166l83 -191h-113zM77 -255l132 301l-202 471h161l119 -308l118 308h162l-331 -772h-159z" />
    <glyph glyph-name="endash" unicode="&#x2013;" horiz-adv-x="566" 
d="M45 194v136h476v-136h-476z" />
    <glyph glyph-name="emdash" unicode="&#x2014;" horiz-adv-x="798" 
d="M45 194v136h708v-136h-708z" />
    <glyph glyph-name="quoteleft" unicode="&#x2018;" horiz-adv-x="224" 
d="M123 625q34 -2 57.5 -27.5t23.5 -60.5q0 -37 -23.5 -62.5t-61.5 -25.5q-39 0 -60.5 27t-21.5 70v1v1q1 72 37 129t115 98v-60q-53 -35 -66 -90z" />
    <glyph glyph-name="quoteright" unicode="&#x2019;" horiz-adv-x="224" 
d="M106 775q39 0 60.5 -27t21.5 -70q0 -72 -36.5 -130t-116.5 -99v61q52 33 66 90q-34 2 -57.5 27t-23.5 60q0 37 24 62.5t62 25.5z" />
    <glyph glyph-name="quotesinglbase" unicode="&#x201a;" horiz-adv-x="224" 
d="M106 166q39 0 60.5 -27.5t21.5 -70.5q0 -72 -36.5 -130t-116.5 -99v61q52 33 66 90q-34 2 -57.5 27t-23.5 60q0 37 24 63t62 26z" />
    <glyph glyph-name="quotedblleft" unicode="&#x201c;" horiz-adv-x="433" 
d="M121 624q35 -2 58.5 -27t23.5 -60q0 -37 -24 -63t-62 -26q-39 0 -60.5 27.5t-21.5 70.5q0 72 36.5 130t116.5 99v-61q-52 -33 -67 -90zM330 624q35 -2 58.5 -27t23.5 -60q0 -37 -24 -63t-62 -26q-39 0 -60.5 27.5t-21.5 70.5q0 72 36.5 130t116.5 99v-61q-52 -33 -67 -90
z" />
    <glyph glyph-name="quotedblright" unicode="&#x201d;" horiz-adv-x="433" 
d="M104 776q39 0 60.5 -27.5t21.5 -70.5q0 -72 -36.5 -130t-116.5 -99v61q52 33 67 90q-35 2 -58.5 27t-23.5 60q0 37 24 63t62 26zM313 776q39 0 60.5 -27.5t21.5 -70.5q0 -72 -36.5 -130t-116.5 -99v61q52 33 67 90q-35 2 -58.5 27t-23.5 60q0 37 24 63t62 26z" />
    <glyph glyph-name="quotedblbase" unicode="&#x201e;" horiz-adv-x="433" 
d="M106 166q39 0 60.5 -27.5t21.5 -70.5q0 -72 -36.5 -130t-116.5 -99v61q52 33 66 90q-34 2 -57.5 27t-23.5 60q0 37 24 63t62 26zM315 166q39 0 60.5 -27.5t21.5 -70.5q0 -72 -36.5 -130t-116.5 -99v61q52 33 66 90q-34 2 -57.5 27t-23.5 60q0 37 24 63t62 26z" />
    <glyph glyph-name="dagger" unicode="&#x2020;" horiz-adv-x="534" 
d="M518 556v-131h-178v-492h-145v492h-178v131h178v192h145v-192h178z" />
    <glyph glyph-name="daggerdbl" unicode="&#x2021;" horiz-adv-x="534" 
d="M518 556v-131h-178v-169h178v-131h-178v-192h-145v192h-178v131h178v169h-178v131h178v192h145v-192h178z" />
    <glyph glyph-name="bullet" unicode="&#x2022;" horiz-adv-x="349" 
d="M175 381q26 0 49 -10t40 -27t27 -40t10 -49q0 -27 -10 -50t-27 -40t-40 -27t-49 -10q-27 0 -50 10t-40 27t-27 40t-10 50q0 26 10 49t27 40t40 27t50 10z" />
    <glyph glyph-name="ellipsis" unicode="&#x2026;" horiz-adv-x="779" 
d="M126 166q37 0 63 -25.5t26 -63.5q0 -37 -26 -62.5t-63 -25.5t-62.5 25.5t-25.5 62.5q0 38 25.5 63.5t62.5 25.5zM381 166q37 0 63 -25.5t26 -63.5q0 -37 -26 -62.5t-63 -25.5t-62.5 25.5t-25.5 62.5q0 38 25.5 63.5t62.5 25.5zM636 166q37 0 63 -25.5t26 -63.5
q0 -37 -26 -62.5t-63 -25.5t-62.5 25.5t-25.5 62.5q0 38 25.5 63.5t62.5 25.5z" />
    <glyph glyph-name="perthousand" unicode="&#x2030;" horiz-adv-x="1290" 
d="M208 759q38 0 70.5 -13.5t56 -38t36.5 -59t13 -77.5q0 -42 -13 -77t-36.5 -59.5t-56 -38t-70.5 -13.5t-70.5 13.5t-56 38t-37 59.5t-13.5 77q0 43 13.5 77.5t37 59t56 38t70.5 13.5zM129 0l493 748h141l-493 -748h-141zM208 657q-32 0 -51 -22t-19 -64q0 -41 19 -64
t51 -23q31 0 50 22.5t19 64.5t-18.5 64t-50.5 22zM685 365q38 0 70.5 -13t56 -37.5t36.5 -59t13 -77.5t-13 -78t-36.5 -59.5t-56 -38t-70.5 -13.5t-70.5 13.5t-56 38t-37 59.5t-13.5 78t13.5 77.5t37 59t56 37.5t70.5 13zM1083 365q38 0 70 -13t55.5 -37.5t36.5 -59
t13 -77.5t-13 -78t-36.5 -59.5t-55.5 -38t-70 -13.5t-70.5 13.5t-56 38t-37 59.5t-13.5 78t13.5 77.5t37 59t56 37.5t70.5 13zM685 264q-32 0 -51 -22.5t-19 -63.5q0 -42 19 -64.5t51 -22.5t50.5 22.5t18.5 64.5q0 41 -18.5 63.5t-50.5 22.5zM1083 264q-32 0 -51 -22.5
t-19 -63.5q0 -42 19 -64.5t51 -22.5q31 0 49.5 22.5t18.5 64.5q0 41 -18.5 63.5t-49.5 22.5z" />
    <glyph glyph-name="guilsinglleft" unicode="&#x2039;" horiz-adv-x="338" 
d="M190 258l131 -140l-104 -92l-202 232l202 232l104 -92z" />
    <glyph glyph-name="guilsinglright" unicode="&#x203a;" horiz-adv-x="338" 
d="M121 26l-104 92l131 140l-131 140l104 92l202 -232z" />
    <glyph glyph-name="fraction" unicode="&#x2044;" horiz-adv-x="222" 
d="M-216 0l506 748h149l-507 -748h-148z" />
    <glyph glyph-name="Euro" unicode="&#x20ac;" horiz-adv-x="706" 
d="M673 51q-24 -15 -47.5 -27t-49.5 -19.5t-56 -11.5t-67 -4q-56 0 -107 16.5t-93.5 49t-74.5 80t-49 109.5h-119l34 90h70q-1 10 -1 19.5v20.5v18t1 17h-104l34 90h84q16 64 48.5 112.5t75.5 81.5t95 49.5t108 16.5q69 0 115.5 -16t89.5 -47l-48 -128q-29 25 -64.5 39.5
t-85.5 14.5q-60 0 -104.5 -30.5t-67.5 -92.5h295l-34 -90h-280q-1 -8 -1 -17v-18q0 -11 0.5 -20.5t1.5 -19.5h249l-33 -90h-196q23 -59 68 -88.5t102 -29.5q46 0 82.5 15.5t64.5 38.5z" />
    <glyph glyph-name="trademark" unicode="&#x2122;" horiz-adv-x="894" 
d="M244 645v-256h-107v256h-116v103h340v-103h-117zM729 389v148l-81 -144h-48l-81 144v-148h-107v359h91l121 -217l121 217h91v-359h-107z" />
    <glyph glyph-name="estimated" unicode="&#x212e;" horiz-adv-x="604" 
d="M315 541q52 0 98 -16.5t80 -49.5t53.5 -82t19.5 -114h-385v-177q0 -19 6 -34.5t29 -26.5q17 -11 42.5 -17t56.5 -6q72 0 128 34.5t92 92.5l26 -17q-42 -66 -105 -103.5t-141 -37.5q-59 0 -109.5 19.5t-88 55.5t-58.5 87t-21 114t21 114.5t58.5 87.5t88 56t109.5 20z
M315 509q-31 0 -57.5 -6.5t-43.5 -17.5q-21 -9 -27 -26t-6 -33v-116h254v116q0 26 -5.5 40.5t-27.5 23.5q-33 19 -87 19z" />
    <glyph glyph-name="partialdiff" unicode="&#x2202;" horiz-adv-x="615" 
d="M283 759q81 0 136 -33t89 -92t49 -139.5t15 -176.5q0 -161 -72 -245t-198 -84q-56 0 -103.5 18t-83 51t-55.5 80t-20 106q0 55 19 99.5t52.5 75.5t80 48t101.5 17q36 0 67 -9t57 -26q-5 88 -36.5 130.5t-93.5 42.5q-46 0 -79 -16t-62 -45l-82 127q46 32 97 51.5t122 19.5
zM308 126q49 0 79.5 32t30.5 84v9q-2 51 -32 82t-78 31t-79 -32t-31 -86t29.5 -87t80.5 -33z" />
    <glyph glyph-name="product" unicode="&#x220f;" horiz-adv-x="661" 
d="M547 612v-776h-132v776h-170v-776h-131v776h-96v136h624v-136h-95z" />
    <glyph glyph-name="summation" unicode="&#x2211;" horiz-adv-x="600" 
d="M224 612l178 -238l-178 -237h335v-137h-512v113l195 261l-195 261v113h512v-136h-335z" />
    <glyph glyph-name="minus" unicode="&#x2212;" horiz-adv-x="548" 
d="M31 303v136h486v-136h-486z" />
    <glyph glyph-name="radical" unicode="&#x221a;" horiz-adv-x="676" 
d="M350 -77l-154 320l-104 -65l-72 114l231 142l96 -213l190 472l119 -50z" />
    <glyph glyph-name="infinity" unicode="&#x221e;" horiz-adv-x="777" 
d="M556 506q42 0 77.5 -16t60.5 -43.5t39 -64t14 -78.5t-14 -79.5t-39 -65t-60.5 -43.5t-77.5 -16q-30 0 -55 7.5t-46 20.5t-38.5 28.5t-31.5 32.5l-14 16l-13 -16q-32 -31 -68.5 -52.5t-86.5 -21.5q-39 0 -71 14.5t-54.5 40t-35 60t-12.5 73.5t12.5 73.5t35 60t54.5 40.5
t71 15q52 0 87.5 -22t66.5 -56l12 -14l11 12q18 19 36.5 36.5t39.5 30t45.5 20t54.5 7.5zM556 383q-30 0 -53 -17.5t-46 -45.5l-13 -18l14 -17q22 -24 45.5 -42.5t52.5 -18.5q32 0 50 23.5t18 56.5q0 32 -18 55.5t-50 23.5zM206 374q-29 0 -45 -21t-16 -50t16 -49.5
t45 -20.5q47 0 85 51l12 18l-12 15q-23 27 -42.5 42t-42.5 15z" />
    <glyph glyph-name="integral" unicode="&#x222b;" horiz-adv-x="336" 
d="M241 759q38 0 62.5 -5.5t44.5 -12.5l-24 -111q-14 5 -26 8t-27 3q-39 0 -39 -49v-600q0 -163 -135 -163q-38 0 -63 5.5t-45 12.5l24 110q13 -5 23.5 -7.5t24.5 -2.5q45 0 45 49v601q0 79 34 120.5t101 41.5z" />
    <glyph glyph-name="approxequal" unicode="&#x2248;" horiz-adv-x="544" 
d="M534 490q-33 -43 -71.5 -68t-89.5 -25q-31 0 -55 9t-45 20t-42 20t-47 9q-35 0 -59.5 -12t-48.5 -41l-66 97q33 43 71 67.5t89 24.5q29 0 52 -9t44 -20t43 -20t49 -9q35 0 60.5 12.5t49.5 41.5zM534 244q-33 -43 -71.5 -67.5t-89.5 -24.5q-31 0 -55 9t-45 19.5t-42 19.5
t-47 9q-35 0 -59.5 -12t-48.5 -41l-66 97q33 43 71 67.5t89 24.5q29 0 52 -9t44 -20t43 -20t49 -9q35 0 60.5 12.5t49.5 41.5z" />
    <glyph glyph-name="notequal" unicode="&#x2260;" horiz-adv-x="548" 
d="M323 316h194v-137h-230l-31 -119l-124 30l23 89h-124v137h160l28 108h-188v137h224l31 117l125 -29l-23 -88h129v-137h-165z" />
    <glyph glyph-name="lessequal" unicode="&#x2264;" horiz-adv-x="538" 
d="M321 472l186 -84v-150l-478 234l478 233v-149zM29 57v136h478v-136h-478z" />
    <glyph glyph-name="greaterequal" unicode="&#x2265;" horiz-adv-x="538" 
d="M31 238v150l187 84l-187 84v149l478 -233zM31 57v136h478v-136h-478z" />
    <glyph glyph-name="lozenge" unicode="&#x25ca;" horiz-adv-x="558" 
d="M326 -55h-93l-205 401l205 402h93l204 -402zM280 152l99 194l-99 193l-100 -193z" />
    <glyph glyph-name="fi" unicode="&#xfb01;" horiz-adv-x="670" 
d="M314 783q17 0 28.5 -0.5t22.5 -2.5v-126q-7 1 -15 1.5t-19 0.5q-38 0 -62.5 -22.5t-24.5 -59.5v-57h120v-126h-120v-391h-145v391h-94v126h94v53q0 49 15.5 88t43.5 67t67.5 43t88.5 15zM525 774q37 0 62.5 -25.5t25.5 -62.5q0 -36 -25.5 -61.5t-62.5 -25.5t-62 25.5
t-25 61.5q0 18 7 34t19 28t27.5 19t33.5 7zM452 0v517h146v-517h-146z" />
    <glyph glyph-name="fl" unicode="&#xfb02;" horiz-adv-x="670" 
d="M314 783q17 0 28.5 -0.5t22.5 -2.5v-126q-7 1 -15 1.5t-19 0.5q-38 0 -62.5 -22.5t-24.5 -59.5v-57h120v-126h-120v-391h-145v391h-94v126h94v53q0 49 15.5 88t43.5 67t67.5 43t88.5 15zM452 0v777h146v-777h-146z" />
    <glyph glyph-name="n.001" horiz-adv-x="618" 
d="M350 527q45 0 82 -14t63.5 -40t41 -64.5t14.5 -87.5v-321h-146v288q0 50 -24.5 76.5t-66.5 26.5q-44 0 -70 -28.5t-26 -75.5v-287h-146v517h138v-56q15 26 50.5 46t89.5 20z" />
    <glyph glyph-name="germandbls.cap" horiz-adv-x="703" 
d="M338 756q96 0 163 -32t115 -89l-105 -175q32 -13 60 -32t48.5 -45.5t32.5 -61.5t12 -80q0 -57 -20.5 -103.5t-57 -78.5t-88 -49.5t-112.5 -17.5q-30 0 -54.5 2.5t-46.5 7.5l30 136q14 -5 30 -7t35 -2q53 0 89 31t36 86q0 35 -13 60t-37 42t-58 28.5t-76 19.5l107 189
q-14 15 -37.5 25t-58.5 10q-47 0 -78.5 -28.5t-31.5 -79.5v-512h-155v510q0 57 21 102.5t57.5 77.5t86 49t106.5 17z" />
    <glyph glyph-name="a.sups" horiz-adv-x="457" 
d="M225 757q181 0 181 -167v-257h-123v31q-15 -16 -43.5 -27.5t-67.5 -11.5q-65 0 -103 30.5t-38 90.5q0 35 14.5 58.5t39.5 38.5t57.5 22t68.5 9l65 4v21q0 24 -13 38.5t-38 14.5q-28 0 -42 -15.5t-14 -36.5l-127 4q0 28 12.5 55t36 49t57.5 35.5t77 13.5zM221 495
q-26 -2 -42 -11.5t-16 -29.5q0 -18 11.5 -26.5t31.5 -8.5q26 -1 48 14.5t22 47.5v18z" />
    <glyph glyph-name="b.sups" horiz-adv-x="528" 
d="M185 722q15 14 43 24.5t65 10.5q45 0 82 -15.5t63.5 -44t41 -68.5t14.5 -89q0 -48 -14.5 -87.5t-41 -68t-63.5 -44t-82 -15.5q-42 0 -71 12t-45 29v-33h-122v622h130v-233zM272 645q-39 0 -63.5 -25.5t-24.5 -70.5v-17q0 -45 24.5 -70.5t63.5 -25.5q41 0 66 26.5t25 77.5
t-25 78t-66 27z" />
    <glyph glyph-name="c.sups" horiz-adv-x="477" 
d="M249 757q38 0 72 -11t60 -32t43.5 -51t23.5 -68l-127 -11q-4 28 -23 44.5t-49 16.5q-38 0 -60.5 -27t-22.5 -78q0 -50 23 -77t60 -27q30 0 49 16t23 44l127 -11q-6 -38 -23 -67.5t-43.5 -50t-60 -31.5t-72.5 -11q-47 0 -86 14.5t-68 42.5t-45 67.5t-16 90.5t16 91.5
t45 68t68 42.5t86 15z" />
    <glyph glyph-name="d.sups" horiz-adv-x="528" 
d="M350 333v33q-15 -17 -44.5 -29t-71.5 -12q-44 0 -81 15.5t-63.5 44t-41 68t-14.5 87.5q0 49 14.5 89t41 68.5t63.5 44t81 15.5q37 0 65.5 -10.5t43.5 -24.5v233h130v-622h-123zM256 645q-41 0 -65.5 -27t-24.5 -78t24.5 -77.5t65.5 -26.5q39 0 63 25.5t24 70.5v17
q0 45 -24 70.5t-63 25.5z" />
    <glyph glyph-name="e.sups" horiz-adv-x="481" 
d="M172 501q2 -32 20.5 -52t54.5 -20q26 0 43 11.5t22 29.5l131 -7q-5 -31 -22.5 -56.5t-43 -43.5t-58.5 -28t-69 -10q-48 0 -88 15t-68.5 42.5t-44 67.5t-15.5 90t15.5 90.5t43.5 68.5t67.5 43t86.5 15q45 0 81.5 -14t63 -40.5t41 -65.5t14.5 -88v-48h-275zM246 655
q-32 0 -51 -18.5t-22 -50.5h143q-2 31 -19 50t-51 19z" />
    <glyph glyph-name="f.sups" horiz-adv-x="308" 
d="M258 960q14 0 23.5 -0.5t19.5 -2.5v-112q-5 2 -12 2h-16q-29 0 -47.5 -17t-18.5 -43v-39h94v-112h-94v-303h-130v303h-73v112h73v36q0 40 13 72.5t37 55.5t57 35.5t74 12.5z" />
    <glyph glyph-name="g.sups" horiz-adv-x="524" 
d="M234 757q42 0 71.5 -12.5t44.5 -29.5v33h123v-428q0 -45 -15 -81.5t-43 -62.5t-67 -40t-88 -14q-101 0 -153.5 44.5t-63.5 117.5l130 5q2 -27 24 -42.5t58 -15.5q40 0 64 19.5t24 60.5v48q-16 -14 -44 -24t-65 -10q-44 0 -81 15.5t-63.5 44t-41 68t-14.5 87.5
q0 49 14.5 89t41 68.5t63.5 44t81 15.5zM256 645q-41 0 -65.5 -27t-24.5 -78t24.5 -77.5t65.5 -26.5q39 0 63 25.5t24 70.5v17q0 45 -24 70.5t-63 25.5z" />
    <glyph glyph-name="h.sups" horiz-adv-x="495" 
d="M185 720q12 13 36.5 25t63.5 12q72 0 116.5 -43t44.5 -123v-258h-130v228q0 36 -17 55.5t-47 19.5q-31 0 -49 -20.5t-18 -55.5v-227h-130v622h130v-235z" />
    <glyph glyph-name="i.sups" horiz-adv-x="239" 
d="M120 957q32 0 54 -22.5t22 -54.5t-22 -54t-54 -22t-54.5 22t-22.5 54t22.5 54.5t54.5 22.5zM55 333v415h130v-415h-130z" />
    <glyph glyph-name="j.sups" horiz-adv-x="239" 
d="M119 957q32 0 54.5 -22.5t22.5 -54.5t-22.5 -54t-54.5 -22t-54 22t-22 54t22 54.5t54 22.5zM185 299q0 -40 -13 -72.5t-36.5 -55.5t-57 -35.5t-73.5 -12.5q-15 0 -24.5 0.5t-19.5 2.5v113q12 -3 29 -3q29 0 47 17t18 44v451h130v-449z" />
    <glyph glyph-name="k.sups" horiz-adv-x="475" 
d="M305 748h157l-152 -177l162 -238h-157l-96 142l-34 -39v-103h-130v622h130v-345z" />
    <glyph glyph-name="l.sups" horiz-adv-x="239" 
d="M55 333v622h130v-622h-130z" />
    <glyph glyph-name="m.sups" horiz-adv-x="743" 
d="M534 757q72 0 115 -43t43 -123v-258h-130v228q0 36 -15 55.5t-45 19.5q-31 0 -47 -20.5t-16 -55.5v-227h-130v228q0 36 -15 55.5t-46 19.5t-47 -20.5t-16 -55.5v-227h-130v415h122v-32q12 15 37 28t67 13q87 0 129 -60q18 25 47.5 42.5t76.5 17.5z" />
    <glyph glyph-name="n.sups" horiz-adv-x="497" 
d="M285 757q72 0 116.5 -43t44.5 -123v-258h-130v228q0 36 -17 55.5t-47 19.5q-31 0 -49 -20.5t-18 -55.5v-227h-130v415h122v-32q12 15 39 28t69 13z" />
    <glyph glyph-name="o.sups" horiz-adv-x="513" 
d="M256 757q48 0 89 -15.5t71 -44t46.5 -68.5t16.5 -89t-16.5 -88.5t-46.5 -67.5t-71 -43.5t-89 -15.5t-89 15.5t-70.5 43.5t-46 67.5t-16.5 88.5t16.5 89t46 68.5t70.5 44t89 15.5zM256 645q-41 0 -65.5 -27.5t-24.5 -77.5q0 -49 24.5 -76.5t65.5 -27.5q42 0 67 27.5
t25 76.5q0 50 -25 77.5t-67 27.5z" />
    <glyph glyph-name="p.sups" horiz-adv-x="528" 
d="M293 757q45 0 82 -15.5t63.5 -44t41 -68.5t14.5 -89q0 -48 -14.5 -87.5t-41 -68t-63.5 -44t-82 -15.5q-37 0 -65 10t-43 24v-230h-130v619h122v-33q16 17 45 29.5t71 12.5zM272 645q-39 0 -63.5 -25.5t-24.5 -70.5v-17q0 -45 24.5 -70.5t63.5 -25.5q41 0 66 26.5t25 77.5
t-25 78t-66 27z" />
    <glyph glyph-name="q.sups" horiz-adv-x="528" 
d="M234 757q42 0 71.5 -12.5t44.5 -29.5v33h123v-619h-130v230q-15 -14 -43.5 -24t-65.5 -10q-44 0 -81 15.5t-63.5 44t-41 68t-14.5 87.5q0 49 14.5 89t41 68.5t63.5 44t81 15.5zM256 645q-41 0 -65.5 -27t-24.5 -78t24.5 -77.5t65.5 -26.5q39 0 63 25.5t24 70.5v17
q0 45 -24 70.5t-63 25.5z" />
    <glyph glyph-name="r.sups" horiz-adv-x="306" 
d="M292 627q-50 0 -78.5 -24.5t-28.5 -66.5v-203h-130v415h125v-37q14 17 39.5 29t72.5 12v-125z" />
    <glyph glyph-name="s.sups" horiz-adv-x="406" 
d="M200 757q82 0 124.5 -39t48.5 -99l-130 -8q-1 21 -11 33.5t-32 12.5q-40 0 -40 -29q0 -18 20.5 -24t56.5 -15q31 -8 56.5 -18t44 -24t29 -34t10.5 -48q0 -64 -44.5 -102t-129.5 -38q-82 0 -128 36t-52 102l130 7q1 -20 12.5 -33t37.5 -13q44 0 44 31q0 15 -14 22t-55 18
q-35 8 -62 17t-46.5 23t-29.5 35t-10 53q0 62 45 98t125 36z" />
    <glyph glyph-name="t.sups" horiz-adv-x="327" 
d="M272 441q12 0 20 1t16 3v-116q-14 -2 -28.5 -3t-39.5 -1q-35 0 -64 8.5t-50 26t-32 44.5t-11 64l1 168h-76v112h76l1 136h130l-1 -136h93v-112h-94l-1 -140q0 -32 18.5 -43.5t41.5 -11.5z" />
    <glyph glyph-name="u.sups" horiz-adv-x="485" 
d="M308 333v32q-13 -15 -37.5 -27.5t-66.5 -12.5q-72 0 -112.5 40.5t-40.5 117.5v265h130v-233q0 -35 13.5 -52t43.5 -17q29 0 45.5 18t16.5 50v234h130v-415h-122z" />
    <glyph glyph-name="v.sups" horiz-adv-x="468" 
d="M183 333l-180 415h142l89 -213l88 213h142l-179 -415h-102z" />
    <glyph glyph-name="w.sups" horiz-adv-x="686" 
d="M422 333l-79 224l-79 -224h-101l-160 415h142l77 -214l76 214h90l77 -214l76 214h142l-160 -415h-101z" />
    <glyph glyph-name="x.sups" horiz-adv-x="451" 
d="M444 333h-149l-70 118l-67 -118h-150l127 208l-126 207h148l68 -117l69 117h148l-126 -206z" />
    <glyph glyph-name="y.sups" horiz-adv-x="468" 
d="M55 129l108 250l-158 369h142l87 -213l87 213h142l-266 -619h-142z" />
    <glyph glyph-name="z.sups" horiz-adv-x="370" 
d="M177 438h165v-105h-315v90l159 220h-155v105h305v-90z" />
    <glyph glyph-name="f_j" horiz-adv-x="670" 
d="M314 783q17 0 28.5 -0.5t22.5 -2.5v-126q-7 1 -15 1.5t-19 0.5q-38 0 -62.5 -22.5t-24.5 -59.5v-57h120v-126h-120v-391h-145v391h-94v126h94v53q0 49 15.5 88t43.5 67t67.5 43t88.5 15zM525 774q37 0 62.5 -25.5t25.5 -62.5q0 -36 -25.5 -61.5t-62.5 -25.5t-62 25.5
t-25 61.5q0 37 25 62.5t62 25.5zM599 -50q0 -49 -15.5 -88t-43.5 -66.5t-67.5 -42.5t-87.5 -15q-17 0 -28.5 0.5t-22.5 2.5v127q13 -3 34 -3q38 0 61.5 22t23.5 60v570h146v-567z" />
    <glyph glyph-name="zero.onum" horiz-adv-x="653" 
d="M326 601q63 0 115.5 -21t90 -61t58.5 -96.5t21 -126.5q0 -71 -21 -128t-58.5 -96.5t-90 -61t-115.5 -21.5t-115.5 21.5t-90 61t-58 96.5t-20.5 128q0 70 20.5 126.5t58 96.5t90 61t115.5 21zM327 465q-59 0 -92.5 -44.5t-33.5 -124.5q0 -81 33.5 -125.5t92.5 -44.5
q57 0 91 44.5t34 125.5q0 80 -34 124.5t-91 44.5z" />
    <glyph glyph-name="one.onum" horiz-adv-x="393" 
d="M163 0v400l-99 -71l-64 122l204 139h113v-590h-154z" />
    <glyph glyph-name="two.onum" horiz-adv-x="542" 
d="M278 601q58 0 101 -15t71.5 -42.5t42.5 -66t14 -84.5q0 -35 -9.5 -63.5t-26.5 -53.5t-40 -46t-49 -40l-73 -53h202v-137h-462v118l207 144q22 15 39.5 28.5t30 28.5t19.5 32t7 39q0 35 -18 54.5t-53 19.5q-38 0 -58 -25t-21 -71l-154 8q2 106 63 165.5t167 59.5z" />
    <glyph glyph-name="three.onum" horiz-adv-x="568" 
d="M281 601q112 0 172 -59.5t60 -159.5q0 -31 -6.5 -54.5t-17.5 -42t-26 -32.5t-32 -25q40 -15 67.5 -57.5t27.5 -106.5q0 -55 -18 -98t-50 -73t-77 -46t-99 -16q-119 0 -181.5 61.5t-65.5 166.5l154 9q2 -47 24.5 -73.5t67.5 -26.5q44 0 67 25.5t23 73.5t-27.5 71t-71.5 23
h-77v132h75q38 0 63 22.5t25 64.5t-20 63t-57 21q-38 0 -59.5 -24t-23.5 -69l-153 8q2 103 62.5 162.5t173.5 59.5z" />
    <glyph glyph-name="four.onum" horiz-adv-x="603" 
d="M580 110v-137h-111v-131h-139v131h-303v127l320 490h122v-480h111zM329 110v221l-145 -221h145z" />
    <glyph glyph-name="five.onum" horiz-adv-x="570" 
d="M300 317q49 0 91 -15t73 -45t48.5 -74.5t17.5 -102.5q0 -57 -17.5 -103t-50 -78.5t-78.5 -50t-104 -17.5q-57 0 -101.5 15.5t-75.5 44t-48 68.5t-18 90l154 9q2 -42 24.5 -66t65.5 -24q47 0 70.5 30t23.5 78q0 49 -24 76.5t-66 27.5q-24 0 -43.5 -7t-36.5 -19h-143v436
h439v-136h-285v-154q36 17 84 17z" />
    <glyph glyph-name="six.onum" horiz-adv-x="608" 
d="M339 489q50 -5 92.5 -25t73 -52.5t47.5 -76t17 -95.5q0 -57 -20 -103.5t-55 -79t-83 -50.5t-105 -18t-105.5 18t-84 50.5t-55.5 79t-20 103.5q0 48 14.5 86t40.5 75l244 347h185zM305 126q48 0 78 32t30 87q0 56 -30 86.5t-78 30.5q-57 0 -86 -40q-21 -29 -21 -77
q0 -55 29.5 -87t77.5 -32z" />
    <glyph glyph-name="seven.onum" horiz-adv-x="541" 
d="M219 -158h-169l292 612h-323v136h492v-124z" />
    <glyph glyph-name="eight.onum" horiz-adv-x="615" 
d="M306 759q52 0 96.5 -14.5t77 -41.5t51 -66.5t18.5 -88.5q0 -50 -19.5 -87t-52.5 -61q42 -28 66.5 -73t24.5 -105q0 -54 -20 -97.5t-55 -73.5t-82.5 -46t-103.5 -16t-103.5 16t-82.5 46t-55 73.5t-20 97.5q0 60 24 104.5t66 72.5q-33 24 -52 61.5t-19 87.5q0 49 18 88.5
t50.5 66.5t76.5 41.5t96 14.5zM307 622q-37 0 -62.5 -22t-25.5 -63q0 -38 25.5 -60t62.5 -22q38 0 63 22t25 60q0 41 -25 63t-63 22zM307 331q-45 0 -76 -26.5t-31 -75.5t31 -76t76 -27q46 0 76.5 27t30.5 76t-30.5 75.5t-76.5 26.5z" />
    <glyph glyph-name="nine.onum" horiz-adv-x="608" 
d="M302 601q57 0 105.5 -18t84 -50.5t55.5 -79t20 -103.5q0 -48 -14.5 -86t-40.5 -75l-244 -347h-185l186 259q-50 5 -92.5 25t-73 52.5t-47.5 76t-17 95.5q0 57 20 103.5t55 79t83 50.5t105 18zM303 228q57 0 86 40q21 28 21 77q0 55 -29.5 87t-77.5 32t-78 -32t-30 -87
q0 -56 30 -86.5t78 -30.5z" />
    <glyph glyph-name="zero.slash" horiz-adv-x="652" 
d="M326 759q62 0 114 -25t89.5 -74t58.5 -121t21 -165t-21 -165t-58.5 -120.5t-89.5 -74t-114 -25.5q-63 0 -115.5 25.5t-90 74t-58 120.5t-20.5 165t20.5 165t58 121t90 74t115.5 25zM326 622q-66 0 -96.5 -63t-30.5 -185q0 -73 10 -122l177 351q-25 19 -60 19zM326 126
q66 0 96 63t30 185q0 68 -9 119l-176 -349q25 -18 59 -18z" />
    <glyph glyph-name="zero.subs" horiz-adv-x="372" 
d="M187 338q35 0 64.5 -14t51 -41t33.5 -66.5t12 -90.5q0 -104 -45.5 -158.5t-115.5 -54.5q-35 0 -65 14t-52 41t-34 66.5t-12 91.5q0 51 12 90.5t34 66.5t52 41t65 14zM186 238q-27 0 -37.5 -28t-10.5 -84t10.5 -84.5t37.5 -28.5t37.5 28.5t10.5 84.5t-10.5 84t-37.5 28z
" />
    <glyph glyph-name="one.subs" horiz-adv-x="234" 
d="M90 -80v264l-47 -31l-47 91l135 87h71v-411h-112z" />
    <glyph glyph-name="two.subs" horiz-adv-x="319" 
d="M156 338q71 0 105 -38t34 -95q0 -42 -18 -75t-45 -63l-43 -48h108v-99h-276v77l130 140q16 17 24 32t8 37q0 32 -24 32q-29 0 -29 -37l-110 6q1 61 38 96t98 35z" />
    <glyph glyph-name="three.subs" horiz-adv-x="329" 
d="M162 338q66 0 100.5 -33.5t34.5 -91.5q0 -31 -12 -49.5t-31 -31.5q20 -10 34 -32.5t14 -54.5q0 -63 -39.5 -97.5t-101.5 -34.5q-69 0 -104.5 35.5t-36.5 93.5l113 8q2 -37 28 -37q13 0 21 9t8 26q0 19 -9.5 27.5t-24.5 8.5h-45v90h43q14 0 24 8.5t10 24.5q0 15 -7.5 23
t-18.5 8q-27 0 -27 -33l-109 6q0 60 34.5 93.5t101.5 33.5z" />
    <glyph glyph-name="four.subs" horiz-adv-x="351" 
d="M334 82v-99h-44v-63h-112v63h-164v87l168 261h108v-249h44zM178 82v98l-66 -98h66z" />
    <glyph glyph-name="five.subs" horiz-adv-x="324" 
d="M175 188q54 0 91.5 -32.5t37.5 -100.5q0 -66 -39 -104t-105 -38t-102 34t-37 88l111 7q3 -29 29 -29q15 0 23 10.5t8 28.5q0 36 -31 36q-9 0 -15 -2.5t-12 -7.5h-99v253h252v-99h-140v-47q12 3 28 3z" />
    <glyph glyph-name="six.subs" horiz-adv-x="352" 
d="M218 191q48 -11 78.5 -47t30.5 -89q0 -32 -11.5 -58t-31.5 -45t-47.5 -29t-59.5 -10q-33 0 -60.5 10t-48 29t-32 45t-11.5 58q0 27 8.5 48t22.5 43l124 185h136zM176 13q17 0 27.5 12.5t10.5 33.5q0 43 -38 43q-19 0 -29 -13l-1 -1q-3 -5 -5.5 -12t-2.5 -17
q0 -21 10.5 -33.5t27.5 -12.5z" />
    <glyph glyph-name="seven.subs" horiz-adv-x="316" 
d="M153 -80h-123l135 312h-150v99h278v-87z" />
    <glyph glyph-name="eight.subs" horiz-adv-x="354" 
d="M176 338q60 0 100.5 -32.5t40.5 -89.5q0 -44 -31 -75q43 -37 43 -94q0 -31 -11.5 -56t-32 -42t-48.5 -26.5t-60 -9.5q-33 0 -60.5 9.5t-48 26.5t-32 42t-11.5 56q0 55 42 93q-31 33 -31 76q0 57 40 89.5t100 32.5zM177 238q-14 0 -25 -9.5t-11 -26.5t11 -25.5t25 -8.5
q15 0 25 8.5t10 25.5t-10 26.5t-25 9.5zM177 91q-17 0 -28.5 -10t-11.5 -29t11.5 -29t28.5 -10t28 10t11 29t-11 29t-28 10z" />
    <glyph glyph-name="nine.subs" horiz-adv-x="352" 
d="M175 338q33 0 60.5 -10t48 -29t32 -45t11.5 -58q0 -27 -8.5 -48t-23.5 -43l-123 -185h-135l98 140q-49 11 -79.5 47t-30.5 89q0 32 11.5 58t31.5 45t47.5 29t59.5 10zM176 149q19 0 30 14q3 5 5.5 12.5t2.5 16.5q0 21 -10.5 33.5t-27.5 12.5t-28 -12t-11 -33
q0 -22 10.5 -33t28.5 -11z" />
    <glyph glyph-name="zero.sups" horiz-adv-x="372" 
d="M187 820q35 0 64.5 -14t51 -41t33.5 -66.5t12 -90.5q0 -104 -45.5 -158.5t-115.5 -54.5q-35 0 -65 14t-52 41t-34 66.5t-12 91.5q0 51 12 90.5t34 66.5t52 41t65 14zM186 720q-27 0 -37.5 -28t-10.5 -84t10.5 -84.5t37.5 -28.5t37.5 28.5t10.5 84.5t-10.5 84t-37.5 28z
" />
    <glyph glyph-name="one.sups" horiz-adv-x="234" 
d="M90 402v264l-47 -31l-47 91l135 87h71v-411h-112z" />
    <glyph glyph-name="two.sups" horiz-adv-x="319" 
d="M156 820q71 0 105 -38t34 -95q0 -42 -18 -75t-45 -63l-43 -48h108v-99h-276v77l130 140q16 17 24 32t8 37q0 32 -24 32q-29 0 -29 -37l-110 6q1 61 38 96t98 35z" />
    <glyph glyph-name="three.sups" horiz-adv-x="329" 
d="M162 820q66 0 100.5 -33.5t34.5 -91.5q0 -31 -12 -49.5t-31 -31.5q20 -10 34 -32.5t14 -54.5q0 -63 -39.5 -97.5t-101.5 -34.5q-69 0 -104.5 35.5t-36.5 93.5l113 8q2 -37 28 -37q13 0 21 9t8 26q0 19 -9.5 27.5t-24.5 8.5h-45v90h43q14 0 24 8.5t10 24.5q0 15 -7.5 23
t-18.5 8q-27 0 -27 -33l-109 6q0 60 34.5 93.5t101.5 33.5z" />
    <glyph glyph-name="four.sups" horiz-adv-x="351" 
d="M334 564v-99h-44v-63h-112v63h-164v87l168 261h108v-249h44zM178 564v98l-66 -98h66z" />
    <glyph glyph-name="five.sups" horiz-adv-x="324" 
d="M175 670q54 0 91.5 -32.5t37.5 -100.5q0 -66 -39 -104t-105 -38t-102 34t-37 88l111 7q3 -29 29 -29q15 0 23 10.5t8 28.5q0 36 -31 36q-9 0 -15 -2.5t-12 -7.5h-99v253h252v-99h-140v-47q12 3 28 3z" />
    <glyph glyph-name="six.sups" horiz-adv-x="352" 
d="M218 673q48 -11 78.5 -47t30.5 -89q0 -32 -11.5 -58t-31.5 -45t-47.5 -29t-59.5 -10q-33 0 -60.5 10t-48 29t-32 45t-11.5 58q0 27 8.5 48t22.5 43l124 185h136zM176 495q17 0 27.5 12.5t10.5 33.5q0 43 -38 43q-19 0 -29 -13l-1 -1q-3 -5 -5.5 -12t-2.5 -17
q0 -21 10.5 -33.5t27.5 -12.5z" />
    <glyph glyph-name="seven.sups" horiz-adv-x="316" 
d="M153 402h-123l135 312h-150v99h278v-87z" />
    <glyph glyph-name="eight.sups" horiz-adv-x="354" 
d="M176 820q60 0 100.5 -32.5t40.5 -89.5q0 -44 -31 -75q43 -37 43 -94q0 -31 -11.5 -56t-32 -42t-48.5 -26.5t-60 -9.5q-33 0 -60.5 9.5t-48 26.5t-32 42t-11.5 56q0 55 42 93q-31 33 -31 76q0 57 40 89.5t100 32.5zM177 720q-14 0 -25 -9.5t-11 -26.5t11 -25.5t25 -8.5
q15 0 25 8.5t10 25.5t-10 26.5t-25 9.5zM177 573q-17 0 -28.5 -10t-11.5 -29t11.5 -29t28.5 -10t28 10t11 29t-11 29t-28 10z" />
    <glyph glyph-name="nine.sups" horiz-adv-x="352" 
d="M175 820q33 0 60.5 -10t48 -29t32 -45t11.5 -58q0 -27 -8.5 -48t-23.5 -43l-123 -185h-135l98 140q-49 11 -79.5 47t-30.5 89q0 32 11.5 58t31.5 45t47.5 29t59.5 10zM176 631q19 0 30 14q3 5 5.5 12.5t2.5 16.5q0 21 -10.5 33.5t-27.5 12.5t-28 -12t-11 -33
q0 -22 10.5 -33t28.5 -11z" />
    <glyph glyph-name="zero.tnum" horiz-adv-x="650" 
d="M324 759q63 0 115 -25t89.5 -74t58.5 -121t21 -165t-21 -165t-58.5 -120.5t-89.5 -74t-115 -25.5t-115 25.5t-89.5 74t-58.5 120.5t-21 165t21 165t58.5 121t89.5 74t115 25zM324 622q-66 0 -96 -63t-30 -185t30 -185t96 -63t96.5 63t30.5 185t-30.5 185t-96.5 63z" />
    <glyph glyph-name="one.tnum" horiz-adv-x="650" 
d="M566 137v-137h-430v137h146v417l-100 -68l-66 120l207 142h113v-611h130z" />
    <glyph glyph-name="two.tnum" horiz-adv-x="650" 
d="M330 759q109 0 169 -55t60 -158q0 -46 -11 -84.5t-29.5 -72.5t-43 -63.5t-50.5 -57.5l-123 -131h261v-137h-462v121l206 227q27 29 45.5 52t30 45t16.5 44t5 50q0 39 -18.5 61t-52.5 22q-42 0 -60 -27.5t-19 -77.5l-154 9q2 109 61.5 171t168.5 62z" />
    <glyph glyph-name="three.tnum" horiz-adv-x="650" 
d="M325 759q112 0 172 -59.5t60 -159.5q0 -31 -6.5 -54.5t-17.5 -42t-26 -32.5t-32 -25q39 -15 67 -57.5t28 -106.5q0 -55 -18 -98t-50 -73t-77 -46t-99 -16q-119 0 -181.5 61.5t-65.5 166.5l154 9q2 -47 24.5 -73.5t67.5 -26.5q44 0 67 25.5t23 73.5t-27.5 71t-71.5 23h-77
v132h75q38 0 63 22.5t25 64.5t-20 63t-57 21q-38 0 -59.5 -24t-23.5 -69l-153 8q2 103 62.5 162.5t173.5 59.5z" />
    <glyph glyph-name="four.tnum" horiz-adv-x="650" 
d="M596 268v-137h-111v-131h-139v131h-303v127l320 490h122v-480h111zM346 268v221l-146 -221h146z" />
    <glyph glyph-name="five.tnum" horiz-adv-x="650" 
d="M340 475q49 0 91 -15t73 -45t48.5 -74.5t17.5 -102.5q0 -57 -17.5 -103t-50 -78.5t-79 -50t-104.5 -17.5q-56 0 -100.5 15.5t-75.5 44t-48 68.5t-18 90l154 9q2 -42 24.5 -66t64.5 -24q48 0 71.5 30t23.5 78q0 49 -24 76.5t-66 27.5q-24 0 -43.5 -7t-36.5 -19h-143v436
h438v-136h-284v-154q36 17 84 17z" />
    <glyph glyph-name="six.tnum" horiz-adv-x="650" 
d="M358 489q50 -5 92 -25t73 -52.5t48 -76t17 -95.5q0 -57 -20 -103.5t-55.5 -79t-83.5 -50.5t-104 -18q-57 0 -105.5 18t-84 50.5t-55.5 79t-20 103.5q0 48 14.5 86t40.5 75l244 347h185zM324 126q48 0 78 32t30 87q0 56 -30 86.5t-78 30.5q-57 0 -86 -40q-22 -30 -22 -77
q0 -55 30 -87t78 -32z" />
    <glyph glyph-name="seven.tnum" horiz-adv-x="650" 
d="M266 0h-170l292 612h-322v136h492v-124z" />
    <glyph glyph-name="eight.tnum" horiz-adv-x="650" 
d="M324 759q52 0 96.5 -14.5t77 -41.5t51 -66.5t18.5 -88.5q0 -50 -19.5 -87t-52.5 -61q42 -28 66.5 -73t24.5 -105q0 -54 -20 -97.5t-55 -73.5t-82.5 -46t-103.5 -16t-103.5 16t-82.5 46t-55 73.5t-20 97.5q0 60 24 104.5t66 72.5q-33 24 -52.5 61.5t-19.5 87.5
q0 49 18.5 88.5t51 66.5t76.5 41.5t96 14.5zM325 622q-37 0 -62.5 -22t-25.5 -63q0 -38 25.5 -60t62.5 -22q38 0 63 22t25 60q0 41 -25 63t-63 22zM325 331q-46 0 -76.5 -26.5t-30.5 -75.5t30.5 -76t76.5 -27t76.5 27t30.5 76t-30.5 75.5t-76.5 26.5z" />
    <glyph glyph-name="nine.tnum" horiz-adv-x="650" 
d="M325 759q57 0 105.5 -18t84 -50.5t55.5 -79t20 -103.5q0 -48 -14.5 -86t-40.5 -75l-244 -347h-185l186 259q-50 5 -92 25t-73 52.5t-48 76t-17 95.5q0 57 20 103.5t55 79t83.5 50.5t104.5 18zM326 386q57 0 86 40q22 30 22 77q0 55 -30 87t-78 32t-78 -32t-30 -87
q0 -56 30 -86.5t78 -30.5z" />
    <glyph glyph-name="zero.dnom" horiz-adv-x="372" 
d="M187 418q35 0 64.5 -14t51 -41t33.5 -66.5t12 -90.5q0 -104 -45.5 -158.5t-115.5 -54.5q-35 0 -65 14t-52 41t-34 66.5t-12 91.5q0 51 12 90.5t34 66.5t52 41t65 14zM186 318q-27 0 -37.5 -28t-10.5 -84t10.5 -84.5t37.5 -28.5t37.5 28.5t10.5 84.5t-10.5 84t-37.5 28z
" />
    <glyph glyph-name="one.dnom" horiz-adv-x="234" 
d="M90 0v264l-47 -31l-47 91l135 87h71v-411h-112z" />
    <glyph glyph-name="two.dnom" horiz-adv-x="319" 
d="M156 418q71 0 105 -38t34 -95q0 -42 -18 -75t-45 -63l-43 -48h108v-99h-276v77l130 140q16 17 24 32t8 37q0 32 -24 32q-29 0 -29 -37l-110 6q1 61 38 96t98 35z" />
    <glyph glyph-name="three.dnom" horiz-adv-x="329" 
d="M162 418q66 0 100.5 -33.5t34.5 -91.5q0 -31 -12 -49.5t-31 -31.5q20 -10 34 -32.5t14 -54.5q0 -63 -39.5 -97.5t-101.5 -34.5q-69 0 -104.5 35.5t-36.5 93.5l113 8q2 -37 28 -37q13 0 21 9t8 26q0 19 -9.5 27.5t-24.5 8.5h-45v90h43q14 0 24 8.5t10 24.5q0 15 -7.5 23
t-18.5 8q-27 0 -27 -33l-109 6q0 60 34.5 93.5t101.5 33.5z" />
    <glyph glyph-name="four.dnom" horiz-adv-x="351" 
d="M334 162v-99h-44v-63h-112v63h-164v87l168 261h108v-249h44zM178 162v98l-66 -98h66z" />
    <glyph glyph-name="five.dnom" horiz-adv-x="324" 
d="M175 268q54 0 91.5 -32.5t37.5 -100.5q0 -66 -39 -104t-105 -38t-102 34t-37 88l111 7q3 -29 29 -29q15 0 23 10.5t8 28.5q0 36 -31 36q-9 0 -15 -2.5t-12 -7.5h-99v253h252v-99h-140v-47q12 3 28 3z" />
    <glyph glyph-name="six.dnom" horiz-adv-x="352" 
d="M218 271q48 -11 78.5 -47t30.5 -89q0 -32 -11.5 -58t-31.5 -45t-47.5 -29t-59.5 -10q-33 0 -60.5 10t-48 29t-32 45t-11.5 58q0 27 8.5 48t22.5 43l124 185h136zM176 93q17 0 27.5 12.5t10.5 33.5q0 43 -38 43q-19 0 -29 -13l-1 -1q-3 -5 -5.5 -12t-2.5 -17
q0 -21 10.5 -33.5t27.5 -12.5z" />
    <glyph glyph-name="seven.dnom" horiz-adv-x="316" 
d="M153 0h-123l135 312h-150v99h278v-87z" />
    <glyph glyph-name="eight.dnom" horiz-adv-x="354" 
d="M176 418q60 0 100.5 -32.5t40.5 -89.5q0 -44 -31 -75q43 -37 43 -94q0 -31 -11.5 -56t-32 -42t-48.5 -26.5t-60 -9.5q-33 0 -60.5 9.5t-48 26.5t-32 42t-11.5 56q0 55 42 93q-31 33 -31 76q0 57 40 89.5t100 32.5zM177 318q-14 0 -25 -9.5t-11 -26.5t11 -25.5t25 -8.5
q15 0 25 8.5t10 25.5t-10 26.5t-25 9.5zM177 171q-17 0 -28.5 -10t-11.5 -29t11.5 -29t28.5 -10t28 10t11 29t-11 29t-28 10z" />
    <glyph glyph-name="nine.dnom" horiz-adv-x="352" 
d="M175 418q33 0 60.5 -10t48 -29t32 -45t11.5 -58q0 -27 -8.5 -48t-23.5 -43l-123 -185h-135l98 140q-49 11 -79.5 47t-30.5 89q0 32 11.5 58t31.5 45t47.5 29t59.5 10zM176 229q19 0 30 14q3 5 5.5 12.5t2.5 16.5q0 21 -10.5 33.5t-27.5 12.5t-28 -12t-11 -33
q0 -22 10.5 -33t28.5 -11z" />
    <glyph glyph-name="zero.numr" horiz-adv-x="372" 
d="M187 739q35 0 64.5 -14t51 -41t33.5 -66.5t12 -90.5q0 -104 -45.5 -158.5t-115.5 -54.5q-35 0 -65 14t-52 41t-34 66.5t-12 91.5q0 51 12 90.5t34 66.5t52 41t65 14zM186 639q-27 0 -37.5 -28t-10.5 -84t10.5 -84.5t37.5 -28.5t37.5 28.5t10.5 84.5t-10.5 84t-37.5 28z
" />
    <glyph glyph-name="one.numr" horiz-adv-x="234" 
d="M90 322v264l-47 -31l-47 91l135 87h71v-411h-112z" />
    <glyph glyph-name="two.numr" horiz-adv-x="319" 
d="M156 739q71 0 105 -38t34 -95q0 -42 -18 -75t-45 -63l-43 -48h108v-99h-276v77l130 140q16 17 24 32t8 37q0 32 -24 32q-29 0 -29 -37l-110 6q1 61 38 96t98 35z" />
    <glyph glyph-name="three.numr" horiz-adv-x="329" 
d="M162 739q66 0 100.5 -33.5t34.5 -91.5q0 -31 -12 -49.5t-31 -31.5q20 -10 34 -32.5t14 -54.5q0 -63 -39.5 -97.5t-101.5 -34.5q-69 0 -104.5 35.5t-36.5 93.5l113 8q2 -37 28 -37q13 0 21 9t8 26q0 19 -9.5 27.5t-24.5 8.5h-45v90h43q14 0 24 8.5t10 24.5q0 15 -7.5 23
t-18.5 8q-27 0 -27 -33l-109 6q0 60 34.5 93.5t101.5 33.5z" />
    <glyph glyph-name="four.numr" horiz-adv-x="351" 
d="M334 483v-99h-44v-63h-112v63h-164v87l168 261h108v-249h44zM178 483v98l-66 -98h66z" />
    <glyph glyph-name="five.numr" horiz-adv-x="324" 
d="M175 590q54 0 91.5 -32.5t37.5 -100.5q0 -66 -39 -104t-105 -38t-102 34t-37 88l111 7q3 -29 29 -29q15 0 23 10.5t8 28.5q0 36 -31 36q-9 0 -15 -2.5t-12 -7.5h-99v253h252v-99h-140v-47q12 3 28 3z" />
    <glyph glyph-name="six.numr" horiz-adv-x="352" 
d="M218 592q48 -11 78.5 -47t30.5 -89q0 -32 -11.5 -58t-31.5 -45t-47.5 -29t-59.5 -10q-33 0 -60.5 10t-48 29t-32 45t-11.5 58q0 27 8.5 48t22.5 43l124 185h136zM176 414q17 0 27.5 12.5t10.5 33.5q0 43 -38 43q-19 0 -29 -13l-1 -1q-3 -5 -5.5 -12t-2.5 -17
q0 -21 10.5 -33.5t27.5 -12.5z" />
    <glyph glyph-name="seven.numr" horiz-adv-x="316" 
d="M153 322h-123l135 312h-150v99h278v-87z" />
    <glyph glyph-name="eight.numr" horiz-adv-x="354" 
d="M176 739q60 0 100.5 -32.5t40.5 -89.5q0 -44 -31 -75q43 -37 43 -94q0 -31 -11.5 -56t-32 -42t-48.5 -26.5t-60 -9.5q-33 0 -60.5 9.5t-48 26.5t-32 42t-11.5 56q0 55 42 93q-31 33 -31 76q0 57 40 89.5t100 32.5zM177 639q-14 0 -25 -9.5t-11 -26.5t11 -25.5t25 -8.5
q15 0 25 8.5t10 25.5t-10 26.5t-25 9.5zM177 492q-17 0 -28.5 -10t-11.5 -29t11.5 -29t28.5 -10t28 10t11 29t-11 29t-28 10z" />
    <glyph glyph-name="nine.numr" horiz-adv-x="352" 
d="M175 739q33 0 60.5 -10t48 -29t32 -45t11.5 -58q0 -27 -8.5 -48t-23.5 -43l-123 -185h-135l98 140q-49 11 -79.5 47t-30.5 89q0 32 11.5 58t31.5 45t47.5 29t59.5 10zM176 550q19 0 30 14q3 5 5.5 12.5t2.5 16.5q0 21 -10.5 33.5t-27.5 12.5t-28 -12t-11 -33
q0 -22 10.5 -33t28.5 -11z" />
    <glyph glyph-name="periodcentered.cap" horiz-adv-x="269" 
d="M126 529q37 0 63 -25.5t26 -63.5q0 -37 -26 -62.5t-63 -25.5t-62.5 25.5t-25.5 62.5q0 38 25.5 63.5t62.5 25.5z" />
    <glyph glyph-name="exclamdown.cap" horiz-adv-x="324" 
d="M163 582q-37 0 -63 25.5t-26 63.5q0 37 26 62.5t63 25.5q36 0 61.5 -25.5t25.5 -62.5q0 -38 -25.5 -63.5t-61.5 -25.5zM239 520l8 -520h-170l8 520h154z" />
    <glyph glyph-name="questiondown.cap" horiz-adv-x="535" 
d="M267 582q-37 0 -63 25.5t-26 63.5q0 37 26 62.5t63 25.5t62.5 -25.5t25.5 -62.5q0 -38 -25.5 -63.5t-62.5 -25.5zM267 -12q-58 0 -104.5 16t-79 45.5t-50 71.5t-17.5 94q0 31 8.5 55.5t22.5 44t31.5 35.5t36.5 31q33 26 53.5 49.5t20.5 57.5v32h155v-38
q0 -48 -28.5 -83.5t-67.5 -68.5q-31 -26 -52.5 -52t-21.5 -61q0 -43 24.5 -68t68.5 -25t69.5 26t28.5 74l154 -10q-2 -51 -21 -93t-52 -71.5t-78.5 -45.5t-100.5 -16z" />
    <glyph glyph-name="braceleft.cap" horiz-adv-x="303" 
d="M276 649q-45 0 -58.5 -28.5t-2.5 -101.5q4 -28 4.5 -53.5t-6 -45t-22.5 -32t-44 -15.5q28 -3 44 -16t22.5 -32.5t6 -45t-4.5 -53.5q-6 -37 -5.5 -62t8 -40t21.5 -21.5t37 -6.5h6v-121h-6q-53 0 -96.5 14.5t-72 43.5t-39 74t2.5 105q6 27 9 46.5t-1 31.5t-16.5 17.5
t-37.5 5.5h-8v119h8q25 0 37.5 5.5t16.5 17.5t1 31.5t-9 46.5q-13 60 -2.5 105t39 74t72 43.5t96.5 14.5h6v-121h-6z" />
    <glyph glyph-name="braceright.cap" horiz-adv-x="303" 
d="M27 770q53 0 96.5 -14.5t72 -43.5t39 -74t-2.5 -105q-6 -27 -9 -46.5t1 -31.5t16.5 -17.5t37.5 -5.5h8v-119h-8q-25 0 -37.5 -5.5t-16.5 -17.5t-1 -31.5t9 -46.5q13 -60 2.5 -105t-39 -74t-72 -43.5t-96.5 -14.5h-6v121h6q22 0 36.5 6.5t22 21.5t8 40t-5.5 62
q-4 28 -4.5 53.5t6 45t22 32.5t43.5 16q-28 3 -43.5 15.5t-22 32t-6 45t4.5 53.5q11 73 -2.5 101.5t-58.5 28.5h-6v121h6z" />
    <glyph glyph-name="bracketleft.cap" horiz-adv-x="307" 
d="M198 649v-553h89v-121h-234v795h234v-121h-89z" />
    <glyph glyph-name="bracketright.cap" horiz-adv-x="319" 
d="M21 -25v121h88v553h-88v121h234v-795h-234z" />
    <glyph glyph-name="parenleft.cap" horiz-adv-x="298" 
d="M282 733q-42 -73 -71 -164.5t-29 -206.5t29 -206.5t71 -164.5l-126 -44q-50 76 -84.5 180.5t-34.5 234.5t34.5 234.5t84.5 180.5z" />
    <glyph glyph-name="parenright.cap" horiz-adv-x="293" 
d="M143 777q25 -38 46.5 -83t37.5 -97.5t25.5 -111t9.5 -123.5t-9.5 -123.5t-25.5 -111t-37.5 -97.5t-46.5 -83l-126 44q41 73 70 165t29 206t-29 206t-70 165z" />
    <glyph glyph-name="emdash.cap" horiz-adv-x="798" 
d="M45 309v136h708v-136h-708z" />
    <glyph glyph-name="endash.cap" horiz-adv-x="566" 
d="M45 309v136h476v-136h-476z" />
    <glyph glyph-name="hyphen.cap" horiz-adv-x="406" 
d="M45 309v136h316v-136h-316z" />
    <glyph glyph-name="guillemotleft.cap" horiz-adv-x="581" 
d="M177 387l117 -163l-116 -72l-163 235l163 235l116 -72zM448 387l116 -163l-116 -72l-163 235l163 235l116 -72z" />
    <glyph glyph-name="guillemotright.cap" horiz-adv-x="581" 
d="M133 152l-116 72l117 163l-117 163l116 72l163 -235zM403 152l-116 72l117 163l-117 163l116 72l163 -235z" />
    <glyph glyph-name="guilsinglleft.cap" horiz-adv-x="338" 
d="M190 387l131 -140l-104 -92l-202 232l202 232l104 -92z" />
    <glyph glyph-name="guilsinglright.cap" horiz-adv-x="338" 
d="M121 155l-104 92l131 140l-131 140l104 92l202 -232z" />
    <glyph glyph-name="emdash_guilsinglright" horiz-adv-x="885" 
d="M612 -3l-103 91l105 113h-569v120h567l-103 109l103 92l238 -262z" />
    <glyph glyph-name="endash_guilsinglright" horiz-adv-x="615" 
d="M342 -3l-102 91l105 113h-300v120h297l-102 109l102 92l238 -262z" />
    <glyph glyph-name="guilsinglleft_emdash" horiz-adv-x="885" 
d="M274 321h566v-120h-569l105 -113l-103 -91l-238 263l238 262l103 -92z" />
    <glyph glyph-name="guilsinglleft_endash" horiz-adv-x="615" 
d="M274 321h296v-120h-300l106 -113l-103 -91l-238 263l238 262l103 -92z" />
    <glyph glyph-name="at.cap" horiz-adv-x="803" 
d="M401 734q79 0 146 -27t115.5 -75t75.5 -114t27 -144q0 -106 -43 -157.5t-117 -51.5q-77 0 -103 51q-23 -26 -53 -40t-74 -14q-42 0 -77.5 15t-60.5 43t-39 66.5t-14 86.5t14 87t39 67t60.5 43t77.5 15q43 0 72.5 -13.5t44.5 -32.5v31h106v-290q0 -39 35 -39q26 0 44 32
t18 101q0 63 -22 116.5t-61.5 93t-93.5 62t-117 22.5q-64 0 -117.5 -22.5t-92.5 -62t-61 -93t-22 -116.5q0 -67 23.5 -121t63 -92.5t91.5 -59t109 -20.5q59 0 101 11.5t78 32.5l23 -65q-41 -23 -88 -34.5t-114 -11.5q-74 0 -139 26t-113.5 73.5t-76.5 114t-28 146.5
q0 78 27 144t75 114t114.5 75t146.5 27zM487 382q0 50 -26 77t-68 27q-43 0 -69 -29t-26 -84q0 -54 26 -83.5t69 -29.5q42 0 68 27.5t26 77.5v17z" />
    <glyph glyph-name="acute.case" horiz-adv-x="346" 
d="M9 797l128 154h199l-194 -154h-133z" />
    <glyph glyph-name="breve.case" horiz-adv-x="391" 
d="M381 963q0 -42 -13.5 -73t-38.5 -51.5t-59 -30.5t-75 -10t-74.5 10t-58.5 30.5t-38.5 51.5t-13.5 73h118q0 -30 18.5 -47t48.5 -17q31 0 49.5 17t18.5 47h118z" />
    <glyph glyph-name="caron.case" horiz-adv-x="392" 
d="M126 797l-117 160h122l65 -75l64 75h123l-116 -160h-141z" />
    <glyph glyph-name="circumflex.case" horiz-adv-x="392" 
d="M260 797l-64 75l-65 -75h-122l117 160h141l116 -160h-123z" />
    <glyph glyph-name="dieresis.case" horiz-adv-x="371" 
d="M89 959q33 0 56.5 -23t23.5 -56t-23.5 -56t-56.5 -23t-56 23t-23 56t23 56t56 23zM282 959q33 0 56 -23t23 -56t-23 -56t-56 -23t-56 23t-23 56t23 56t56 23z" />
    <glyph glyph-name="dotaccent.case" horiz-adv-x="195" 
d="M97 975q37 0 62.5 -25.5t25.5 -62.5t-25.5 -62t-62.5 -25q-36 0 -61.5 25t-25.5 62q0 18 7 34t19 28t27.5 19t33.5 7z" />
    <glyph glyph-name="grave.case" horiz-adv-x="346" 
d="M204 797l-194 154h199l128 -154h-133z" />
    <glyph glyph-name="hungarumlaut.case" horiz-adv-x="419" 
d="M9 800l61 169h138l-86 -169h-113zM211 800l61 169h138l-86 -169h-113z" />
    <glyph glyph-name="macron.case" horiz-adv-x="317" 
d="M8 817v111h300v-111h-300z" />
    <glyph glyph-name="ring.case" horiz-adv-x="249" 
d="M126 1010q23 0 43.5 -8t36 -22t24.5 -34t9 -44q0 -23 -9 -43t-24.5 -34t-36 -22t-43.5 -8q-49 0 -82.5 30t-33.5 77q0 24 9 44t24.5 34t37 22t45.5 8zM126 943q-20 0 -31 -11.5t-11 -29.5q0 -17 11 -28t31 -11q17 0 28 11t11 28q0 18 -11 29.5t-28 11.5z" />
    <glyph glyph-name="tilde.case" horiz-adv-x="384" 
d="M117 961q24 0 41.5 -8.5t32.5 -18t29 -18t30 -8.5q23 0 32 13t10 33h82q3 -30 -3.5 -58t-20.5 -49.5t-35.5 -34.5t-48.5 -13q-24 0 -41.5 8.5t-32.5 18t-28.5 18t-29.5 8.5q-23 0 -32.5 -13t-9.5 -33h-82q-3 30 3.5 58t20 49.5t35 34.5t48.5 13z" />
    <glyph glyph-name="anneau" horiz-adv-x="595" 
d="M298 761q58 0 107.5 -19.5t85.5 -54t56.5 -81t20.5 -101.5t-20.5 -101.5t-56.5 -81t-85.5 -54t-107.5 -19.5q-59 0 -108.5 19.5t-85.5 54t-56.5 81t-20.5 101.5t20.5 101.5t56.5 81t85.5 54t108.5 19.5zM298 711q-48 0 -87 -15.5t-67.5 -42.5t-44 -65t-15.5 -83t15.5 -83
t44 -65t67.5 -42.5t87 -15.5q47 0 86 15.5t67.5 42.5t44 65t15.5 83t-15.5 83t-44 65t-67.5 42.5t-86 15.5z" />
    <glyph glyph-name="_496" horiz-adv-x="600" 
 />
  </font>
</defs>
</svg>
